<?xml version="1.0" standalone="no"?>
<!DOCTYPE svg PUBLIC "-//W3C//DTD SVG 1.1//EN" "http://www.w3.org/Graphics/SVG/1.1/DTD/svg11.dtd" >
<svg xmlns="http://www.w3.org/2000/svg" xmlns:xlink="http://www.w3.org/1999/xlink" version="1.1">
<metadata>
Created by FontForge 20201107 at Mon Sep 19 21:02:22 2022
 By 
Copyright (c) 2022 Ivo Dolenc
</metadata>
<defs>
<font id="Aspekta-500" horiz-adv-x="568" >
  <font-face 
    font-family="Aspekta 500"
    font-weight="500"
    font-stretch="normal"
    units-per-em="1000"
    panose-1="0 0 0 0 0 0 0 0 0 0"
    ascent="800"
    descent="-200"
    x-height="520"
    cap-height="720"
    bbox="-84 -236 1258 932"
    underline-thickness="50"
    underline-position="-155"
    unicode-range="U+0020-25CF"
  />
<missing-glyph horiz-adv-x="664" 
d="M70 720h524v-720h-524v720z" />
    <glyph glyph-name=".notdef" horiz-adv-x="664" 
d="M70 720h524v-720h-524v720z" />
    <glyph glyph-name=".null" horiz-adv-x="0" 
 />
    <glyph glyph-name="nonmarkingreturn" horiz-adv-x="333" 
 />
    <glyph glyph-name="space" unicode=" " horiz-adv-x="206" 
 />
    <glyph glyph-name="space" unicode="&#xa0;" horiz-adv-x="206" 
 />
    <glyph glyph-name="exclam" unicode="!" horiz-adv-x="202" 
d="M45 500v220h111v-220l-23 -294h-65zM40 140h121v-140h-121v140z" />
    <glyph glyph-name="quotedbl" unicode="&#x22;" horiz-adv-x="434" 
d="M176 720l-16 -280h-79l-16 280h111zM370 720l-16 -280h-79l-16 280h111z" />
    <glyph glyph-name="numbersign" unicode="#" horiz-adv-x="697" 
d="M394 195h-154l-38 -195h-101l38 195h-101l17 88h101l30 154h-100l17 88h100l38 195h101l-38 -195h154l38 195h100l-38 -195h101l-17 -88h-101l-30 -154h100l-17 -88h-100l-38 -195h-100zM411 283l30 154h-154l-30 -154h154z" />
    <glyph glyph-name="dollar" unicode="$" horiz-adv-x="636" 
d="M282 -10q-114 12 -182 75.5t-71 176.5h112q4 -134 141 -155v239q-120 26 -175.5 74t-55.5 138q0 82 64 134.5t167 58.5v103h75v-104q117 -12 175.5 -75t61.5 -161h-110q-4 61 -34.5 95.5t-92.5 43.5v-217q99 -21 154 -50t77 -68.5t22 -95.5q0 -93 -69.5 -150t-183.5 -63
v-103h-75v104zM174.5 493.5q8.5 -18.5 33.5 -33.5t74 -28v204q-53 -5 -84.5 -30.5t-31.5 -65.5q0 -28 8.5 -46.5zM458 118q37 29 37 81q0 28 -11.5 46.5t-41 34t-85.5 29.5v-225q64 5 101 34z" />
    <glyph glyph-name="percent" unicode="%" horiz-adv-x="894" 
d="M66.5 360q-44.5 60 -44.5 156t44.5 156t128.5 60q83 0 128 -60t45 -156t-45 -156t-128 -60q-84 0 -128.5 60zM195 374q83 0 83 142t-83 142t-83 -142t83 -142zM594 720h88l-382 -720h-87zM571.5 360q44.5 60 128.5 60q83 0 128 -60t45 -156t-45 -156t-128 -60
q-84 0 -128.5 60t-44.5 156t44.5 156zM700 62q83 0 83 142t-83 142t-83 -142t83 -142z" />
    <glyph glyph-name="ampersand" unicode="&#x26;" horiz-adv-x="686" 
d="M143 15q-55 27 -84 73t-29 104q0 74 42.5 122.5t116.5 89.5q-43 46 -61 79.5t-18 84.5q0 77 54 120.5t135 43.5t135 -43.5t54 -120.5q0 -63 -38 -105.5t-108 -82.5l149 -164q33 64 35 148h98q-3 -129 -64 -224l126 -140h-134l-58 65q-91 -77 -221 -77q-75 0 -130 27z
M175.5 114.5q35.5 -32.5 99.5 -32.5q88 0 154 55l-176 195q-55 -32 -84 -63.5t-29 -74.5q0 -47 35.5 -79.5zM231 511.5q14 -23.5 48 -61.5q52 28 79 54.5t27 61.5t-23.5 56t-60.5 21t-60.5 -21t-23.5 -56q0 -31 14 -54.5z" />
    <glyph glyph-name="quotesingle" unicode="'" horiz-adv-x="240" 
d="M176 720l-16 -280h-79l-16 280h111z" />
    <glyph glyph-name="parenleft" unicode="(" horiz-adv-x="308" 
d="M53 50q-37 121 -37 250t37 250t112 250h96q-74 -132 -106 -249.5t-32 -250.5t32 -250.5t106 -249.5h-96q-75 129 -112 250z" />
    <glyph glyph-name="parenright" unicode=")" horiz-adv-x="304" 
d="M116 49.5q32 117.5 32 250.5t-32 250.5t-106 249.5h96q75 -129 112 -250t37 -250t-37 -250t-112 -250h-96q74 132 106 249.5z" />
    <glyph glyph-name="asterisk" unicode="*" horiz-adv-x="481" 
d="M241 453l-99 -131l-62 47l96 127l-140 42l23 75l143 -43v150h78v-150l142 43l23 -75l-139 -42l95 -127l-62 -47z" />
    <glyph glyph-name="plus" unicode="+" horiz-adv-x="540" 
d="M39 407h185v184h93v-184h184v-93h-184v-185h-93v185h-185v93z" />
    <glyph glyph-name="comma" unicode="," horiz-adv-x="242" 
d="M197 140l-92 -280h-86l59 280h119z" />
    <glyph glyph-name="hyphen" unicode="-" horiz-adv-x="378" 
d="M39 336h299v-92h-299v92z" />
    <glyph glyph-name="period" unicode="." horiz-adv-x="211" 
d="M45 140h121v-140h-121v140z" />
    <glyph glyph-name="slash" unicode="/" horiz-adv-x="388" 
d="M274 720h102l-262 -720h-102z" />
    <glyph glyph-name="zero" unicode="0" horiz-adv-x="620" 
d="M109 87.5q-63 99.5 -63 272.5t63 272.5t201 99.5t200.5 -99.5t62.5 -272.5t-62.5 -272.5t-200.5 -99.5t-201 99.5zM195.5 156q33.5 -71 114.5 -71q80 0 113.5 71t33.5 204t-33.5 204t-113.5 71q-81 0 -114.5 -71t-33.5 -204t33.5 -204z" />
    <glyph glyph-name="one" unicode="1" horiz-adv-x="377" 
d="M201 594l-158 -114v121l165 119h104v-720h-111v594z" />
    <glyph glyph-name="two" unicode="2" 
d="M44 94l285 269q42 41 64.5 80t22.5 83q0 50 -34 79.5t-92 29.5q-62 0 -99.5 -37t-36.5 -108h-110q1 114 66.5 178t179.5 64q70 0 123 -27t82 -73.5t29 -102.5q0 -114 -122 -230l-213 -202h345v-97h-490v94z" />
    <glyph glyph-name="three" unicode="3" horiz-adv-x="586" 
d="M112 48q-65 60 -67 170h109q2 -66 37 -100.5t108 -34.5q65 0 103 33t38 89q0 64 -41 90.5t-121 26.5h-58v90h49q73 0 112 31.5t39 87.5q0 49 -35 77.5t-92 28.5q-128 0 -133 -133h-109q4 109 64 168.5t180 59.5q72 0 125.5 -27t81.5 -72t28 -98q0 -47 -26.5 -91
t-80.5 -70q64 -21 95.5 -65.5t31.5 -106.5q0 -61 -30 -110t-87 -76.5t-134 -27.5q-122 0 -187 60z" />
    <glyph glyph-name="four" unicode="4" horiz-adv-x="621" 
d="M30 262l348 458h120v-465h99v-97h-99v-158h-111v158h-357v104zM388 255v334l-250 -334h250z" />
    <glyph glyph-name="five" unicode="5" horiz-adv-x="570" 
d="M116 46q-64 58 -72 152h108q6 -53 42 -84t92 -31q64 0 101 41.5t37 108.5q0 68 -37 109t-101 41q-48 0 -77.5 -20t-48.5 -59h-103l61 416h385v-97h-298l-29 -191q53 42 124 42q77 0 130 -32t79 -86.5t26 -122.5q0 -71 -30 -126.5t-86.5 -87t-132.5 -31.5q-106 0 -170 58z
" />
    <glyph glyph-name="six" unicode="6" horiz-adv-x="599" 
d="M227.5 1q-36.5 13 -69.5 38q-61 47 -86 127t-25 188q0 177 68 277.5t195 100.5q89 0 152.5 -54t78.5 -146h-106q-10 51 -43.5 79t-80.5 28q-75 0 -116 -64.5t-43 -186.5q28 39 70.5 61t95.5 22q76 0 129.5 -31.5t80.5 -86t27 -121.5q0 -71 -29.5 -126t-85 -86.5
t-130.5 -31.5q-46 0 -82.5 13zM212 123.5q36 -41.5 98 -41.5t98.5 41.5t36.5 107.5q0 67 -36.5 108t-98.5 41t-98 -41t-36 -108q0 -66 36 -107.5z" />
    <glyph glyph-name="seven" unicode="7" horiz-adv-x="508" 
d="M377 623h-357v97h468v-90l-271 -630h-115z" />
    <glyph glyph-name="eight" unicode="8" horiz-adv-x="585" 
d="M158.5 15q-58.5 27 -91.5 77t-33 115q0 63 32.5 108t90.5 69q-44 22 -69 60t-25 91q0 61 31 105.5t83.5 68t115.5 23.5t115.5 -23.5t83.5 -68t31 -105.5q0 -53 -25 -91t-69 -60q57 -24 89.5 -69t32.5 -108q0 -65 -33 -115t-91.5 -77t-133.5 -27q-76 0 -134.5 27z
M187 116.5q40 -34.5 106 -34.5t105.5 34.5t39.5 94.5t-39.5 94.5t-105.5 34.5t-106 -34.5t-40 -94.5t40 -94.5zM204 452q35 -29 89 -29t89 29t35 79q0 51 -35 80t-89 29t-89 -29t-35 -80q0 -50 35 -79z" />
    <glyph glyph-name="nine" unicode="9" horiz-adv-x="599" 
d="M371.5 719q36.5 -13 69.5 -38q61 -47 86 -127t25 -188q0 -177 -68 -277.5t-195 -100.5q-89 0 -152.5 54t-78.5 146h106q10 -51 43.5 -79t80.5 -28q75 0 116 64.5t43 186.5q-28 -39 -70.5 -61t-95.5 -22q-76 0 -129.5 31.5t-80.5 86t-27 121.5q0 71 29.5 126t85 86.5
t130.5 31.5q46 0 82.5 -13zM190.5 381q36.5 -41 98.5 -41t98 41t36 108q0 66 -36 107.5t-98 41.5t-98.5 -41.5t-36.5 -107.5q0 -67 36.5 -108z" />
    <glyph glyph-name="colon" unicode=":" horiz-adv-x="211" 
d="M45 500h121v-140h-121v140zM45 140h121v-140h-121v140z" />
    <glyph glyph-name="semicolon" unicode=";" horiz-adv-x="243" 
d="M77 500h121v-140h-121v140zM197 140l-92 -280h-86l59 280h119z" />
    <glyph glyph-name="less" unicode="&#x3c;" horiz-adv-x="540" 
d="M501 606v-108l-356 -138l356 -138v-108l-462 193v106z" />
    <glyph glyph-name="equal" unicode="=" horiz-adv-x="540" 
d="M39 498h462v-93h-462v93zM39 315h462v-93h-462v93z" />
    <glyph glyph-name="greater" unicode="&#x3e;" horiz-adv-x="540" 
d="M39 114v108l356 138l-356 138v108l462 -193v-106z" />
    <glyph glyph-name="question" unicode="?" horiz-adv-x="529" 
d="M210 294.5q10 34.5 32.5 61.5t67.5 63q42 32 61 58t19 67q0 42 -33 67.5t-93 25.5q-62 0 -96 -34t-34 -102h-108q0 114 62 172.5t176 58.5q74 0 128 -23t82.5 -64.5t28.5 -96.5q0 -59 -23.5 -96.5t-81.5 -82.5q-41 -33 -60 -53t-28 -45t-9 -65h-101q0 54 10 88.5z
M190 140h121v-140h-121v140z" />
    <glyph glyph-name="at" unicode="@" horiz-adv-x="920" 
d="M242.5 -62q-97.5 54 -152.5 150.5t-55 219.5t55 219.5t152.5 150.5t221.5 54t219.5 -50t148.5 -140.5t53 -209.5q0 -115 -54.5 -184.5t-149.5 -69.5q-43 0 -72 17t-43 50q-51 -67 -142 -67q-72 0 -115 34.5t-43 95.5q0 57 40.5 89.5t120.5 47.5l126 23v26q0 32 -19.5 46
t-62.5 14q-41 0 -68 -16.5t-28 -55.5h-93q1 75 55.5 112.5t133.5 37.5q85 0 129 -34.5t44 -94.5v-175q0 -39 15 -53.5t44 -14.5q44 0 68 48t24 124q0 99 -41.5 171t-116.5 110t-173 38q-97 0 -174.5 -42t-121 -120t-43.5 -181t43.5 -181t121 -120.5t174.5 -42.5
q114 0 209 63v-90q-96 -53 -209 -53q-124 0 -221.5 54zM379.5 169q18.5 -15 57.5 -15q48 0 82 26.5t34 78.5v37l-110 -22q-43 -8 -62.5 -21t-19.5 -42q0 -27 18.5 -42z" />
    <glyph glyph-name="A" unicode="A" horiz-adv-x="728" 
d="M525 185h-325l-70 -185h-116l286 720h126l288 -720h-119zM488 282l-125 330l-126 -330h251z" />
    <glyph glyph-name="B" unicode="B" horiz-adv-x="654" 
d="M65 720h278q125 0 190 -53t65 -141q0 -102 -86 -149q57 -23 86.5 -67t29.5 -104q0 -95 -64.5 -150.5t-190.5 -55.5h-308v720zM374 96q142 0 142 112t-142 112h-198v-224h198zM348 414q71 0 106 27.5t35 77.5t-35 77.5t-106 27.5h-172v-210h172z" />
    <glyph glyph-name="C" unicode="C" horiz-adv-x="730" 
d="M194 38q-79 50 -119 134.5t-40 187.5t40 187.5t119 134.5t190 50q83 0 148.5 -33t106 -91.5t52.5 -132.5h-113q-14 70 -65.5 113t-128.5 43t-129.5 -36t-78 -97.5t-25.5 -137.5t25.5 -137.5t78 -97.5t129.5 -36q82 0 134.5 49t64.5 128h112q-10 -79 -50 -142.5
t-107 -99.5t-154 -36q-111 0 -190 50z" />
    <glyph glyph-name="D" unicode="D" horiz-adv-x="709" 
d="M65 720h251q118 0 198.5 -47t120 -128.5t39.5 -184.5t-39.5 -184.5t-120 -128.5t-198.5 -47h-251v720zM316 98q122 0 182 72.5t60 189.5t-60 189.5t-182 72.5h-140v-524h140z" />
    <glyph glyph-name="E" unicode="E" horiz-adv-x="608" 
d="M65 720h515v-100h-404v-198h374v-98h-374v-224h401v-100h-512v720z" />
    <glyph glyph-name="F" unicode="F" horiz-adv-x="580" 
d="M65 720h495v-100h-384v-198h364v-98h-364v-324h-111v720z" />
    <glyph glyph-name="G" unicode="G" horiz-adv-x="774" 
d="M191.5 38q-77.5 50 -117 135t-39.5 187q0 103 40 187.5t119 134.5t190 50q91 0 160.5 -33t111.5 -91t55 -133h-114q-15 70 -71 113t-142 43q-77 0 -129.5 -36t-78 -97.5t-25.5 -137.5t25.5 -137.5t78 -97.5t129.5 -36q93 0 149 52t74 143h-253v95h365v-379h-89v127
q-73 -139 -254 -139q-107 0 -184.5 50z" />
    <glyph glyph-name="H" unicode="H" horiz-adv-x="718" 
d="M542 319h-366v-319h-111v720h111v-299h366v299h111v-720h-111v319z" />
    <glyph glyph-name="I" unicode="I" horiz-adv-x="241" 
d="M65 720h111v-720h-111v720z" />
    <glyph glyph-name="J" unicode="J" horiz-adv-x="547" 
d="M89 52.5q-59 64.5 -59 175.5v40h109v-40q0 -70 29 -106t92 -36t92 36t29 106v492h111v-492q0 -110 -59.5 -175t-172.5 -65q-112 0 -171 64.5z" />
    <glyph glyph-name="K" unicode="K" horiz-adv-x="697" 
d="M65 720h111v-373l364 373h143l-293 -292l293 -428h-135l-236 350l-136 -136v-214h-111v720z" />
    <glyph glyph-name="L" unicode="L" horiz-adv-x="550" 
d="M65 720h111v-620h354v-100h-465v720z" />
    <glyph glyph-name="M" unicode="M" horiz-adv-x="872" 
d="M172 556v-556h-107v720h153l218 -591l217 591h154v-720h-108v556l-214 -556h-99z" />
    <glyph glyph-name="N" unicode="N" horiz-adv-x="726" 
d="M174 568v-568h-109v720h128l359 -569v569h109v-720h-128z" />
    <glyph glyph-name="O" unicode="O" horiz-adv-x="769" 
d="M194 38q-79 50 -119 134.5t-40 187.5t40 187.5t119 134.5t190 50t190.5 -50t119.5 -134.5t40 -187.5t-40 -187.5t-119.5 -134.5t-190.5 -50t-190 50zM176.5 222.5q25.5 -61.5 78 -97.5t129.5 -36q78 0 130.5 36t78 97.5t25.5 137.5t-25.5 137.5t-78 97.5t-130.5 36
q-77 0 -129.5 -36t-78 -97.5t-25.5 -137.5t25.5 -137.5z" />
    <glyph glyph-name="P" unicode="P" horiz-adv-x="649" 
d="M65 720h295q84 0 141.5 -30t86 -81t28.5 -116q0 -64 -28.5 -115.5t-86 -81.5t-141.5 -30h-184v-266h-111v720zM357 365q73 0 109 34t36 94t-36 94.5t-109 34.5h-181v-257h181z" />
    <glyph glyph-name="Q" unicode="Q" horiz-adv-x="769" 
d="M507 7q-59 -19 -123 -19q-111 0 -190 50t-119 134.5t-40 187.5t40 187.5t119 134.5t190 50t190.5 -50t119.5 -134.5t40 -187.5q0 -98 -36.5 -180t-106.5 -131l93 -131h-115zM176.5 222.5q25.5 -61.5 78 -97.5t129.5 -36q32 0 60 6l-98 139h115l69 -98q44 37 66 95t22 129
q0 76 -25.5 137.5t-78 97.5t-130.5 36q-77 0 -129.5 -36t-78 -97.5t-25.5 -137.5t25.5 -137.5z" />
    <glyph glyph-name="R" unicode="R" horiz-adv-x="663" 
d="M65 720h309q126 0 189 -55.5t63 -153.5q0 -53 -28.5 -97.5t-83.5 -73.5q77 -32 91 -125l32 -215h-114l-26 181q-8 61 -38.5 88t-90.5 27h-192v-296h-111v720zM366 390q73 0 109 30.5t36 86.5t-36 86.5t-109 30.5h-190v-234h190z" />
    <glyph glyph-name="S" unicode="S" horiz-adv-x="636" 
d="M115.5 52q-82.5 64 -86.5 190h112q3 -86 56 -122.5t137 -36.5q73 0 117 30t44 86q0 31 -15 51.5t-56 37.5t-120 33q-132 26 -192.5 74.5t-60.5 142.5q0 58 32.5 102t90.5 68t132 24q142 0 213.5 -65t74.5 -173h-110q-5 72 -47.5 107.5t-130.5 35.5q-63 0 -101.5 -26
t-38.5 -71q0 -33 13 -53.5t51.5 -37t115.5 -31.5q103 -21 160.5 -50t80.5 -69t23 -97q0 -65 -35 -113.5t-98 -74.5t-145 -26q-134 0 -216.5 64z" />
    <glyph glyph-name="T" unicode="T" horiz-adv-x="623" 
d="M255 620h-237v100h587v-100h-237v-620h-113v620z" />
    <glyph glyph-name="U" unicode="U" horiz-adv-x="690" 
d="M132 61.5q-77 73.5 -77 209.5v449h111v-449q0 -184 179 -184q87 0 133 45.5t46 138.5v449h111v-449q0 -136 -77 -209.5t-213 -73.5t-213 73.5z" />
    <glyph glyph-name="V" unicode="V" horiz-adv-x="695" 
d="M14 720h118l217 -607l214 607h118l-271 -720h-125z" />
    <glyph glyph-name="W" unicode="W" horiz-adv-x="990" 
d="M495 576l-150 -576h-124l-207 720h117l155 -573l150 573h119l150 -573l155 573h116l-206 -720h-125z" />
    <glyph glyph-name="X" unicode="X" horiz-adv-x="664" 
d="M330 277l-191 -277h-125l254 367l-244 353h129l179 -259l179 259h125l-241 -350l255 -370h-129z" />
    <glyph glyph-name="Y" unicode="Y" horiz-adv-x="697" 
d="M294 284l-280 436h128l208 -335l208 335h125l-278 -437v-283h-111v284z" />
    <glyph glyph-name="Z" unicode="Z" horiz-adv-x="624" 
d="M28 94l424 528l-168 -2h-240v100h546v-93l-423 -529l168 2h261v-100h-568v94z" />
    <glyph glyph-name="bracketleft" unicode="[" horiz-adv-x="346" 
d="M24 800h257v-90h-154v-820h154v-90h-257v1000z" />
    <glyph glyph-name="backslash" unicode="\" horiz-adv-x="388" 
d="M274 0l-262 720h102l262 -720h-102z" />
    <glyph glyph-name="bracketright" unicode="]" horiz-adv-x="342" 
d="M20 -110h154v820h-154v90h257v-1000h-257v90z" />
    <glyph glyph-name="underscore" unicode="_" horiz-adv-x="506" 
d="M-2 -94h510v-86h-510v86z" />
    <glyph glyph-name="grave" unicode="`" horiz-adv-x="225" 
d="M137 586l-137 146h128l97 -146h-88z" />
    <glyph glyph-name="a" unicode="a" horiz-adv-x="526" 
d="M383 61q-32 -39 -73 -56t-92 -17q-88 0 -138.5 40.5t-50.5 114.5q0 67 48 105.5t145 56.5l157 29v34q0 41 -25.5 59.5t-78.5 18.5q-51 0 -85 -21t-36 -68h-104q2 88 65.5 131.5t159.5 43.5q103 0 155 -40.5t52 -112.5v-379h-99v61zM161 92q24 -20 73 -20q59 0 102 33.5
t43 98.5v52l-139 -29q-54 -11 -78.5 -27.5t-24.5 -53.5q0 -34 24 -54z" />
    <glyph glyph-name="b" unicode="b" horiz-adv-x="601" 
d="M58 720h105v-269q57 81 166 81q75 0 128.5 -35t81 -96.5t27.5 -140.5t-27.5 -140.5t-81 -96.5t-128.5 -35q-56 0 -99 22.5t-71 63.5v-74h-101v720zM198 127.5q38 -49.5 111 -49.5t111 49.5t38 132.5t-38 132.5t-111 49.5t-111 -49.5t-38 -132.5t38 -132.5z" />
    <glyph glyph-name="c" unicode="c" horiz-adv-x="547" 
d="M155.5 23q-56.5 35 -87 97t-30.5 140t30.5 140t87 97t131.5 35q99 0 159.5 -52.5t72.5 -140.5h-107q-10 48 -42.5 75.5t-82.5 27.5q-68 0 -104.5 -49.5t-36.5 -132.5t36.5 -132.5t104.5 -49.5q50 0 83 28.5t42 78.5h107q-12 -89 -74.5 -143t-157.5 -54q-75 0 -131.5 35z
" />
    <glyph glyph-name="d" unicode="d" horiz-adv-x="601" 
d="M442 0v74q-28 -41 -71 -63.5t-99 -22.5q-75 0 -128.5 35t-81 96.5t-27.5 140.5t27.5 140.5t81 96.5t128.5 35q109 0 166 -81v269h105v-720h-101zM181 127.5q38 -49.5 111 -49.5t111 49.5t38 132.5t-38 132.5t-111 49.5t-111 -49.5t-38 -132.5t38 -132.5z" />
    <glyph glyph-name="e" unicode="e" horiz-adv-x="570" 
d="M153 23q-57 35 -87.5 97t-30.5 140t30.5 140t87.5 97t132 35q76 0 132.5 -35t87 -98t30.5 -144v-30h-393q8 -69 44.5 -109t98.5 -40q48 0 82.5 21.5t51.5 61.5h105q-25 -79 -88 -125t-151 -46q-75 0 -132 35zM426 308q-10 63 -46.5 99.5t-94.5 36.5t-94.5 -36.5
t-46.5 -99.5h282z" />
    <glyph glyph-name="f" unicode="f" horiz-adv-x="378" 
d="M142.5 691q32.5 29 100.5 29h108v-86h-84q-28 0 -40 -12t-12 -39v-63h136v-86h-136v-434h-105v434h-93v86h93v75q0 67 32.5 96z" />
    <glyph glyph-name="g" unicode="g" horiz-adv-x="601" 
d="M125.5 -165.5q-58.5 46.5 -66.5 129.5h103q14 -91 129 -91q148 0 148 141v62q-57 -81 -167 -81q-75 0 -128.5 34.5t-81 95t-27.5 138.5t27.5 139t81 95.5t128.5 34.5q57 0 100 -22.5t71 -64.5v75h100v-506q0 -113 -70 -169.5t-184 -56.5q-105 0 -163.5 46.5zM181 132
q38 -49 111 -49t111 49t38 131q0 83 -38 131.5t-111 48.5t-111 -48.5t-38 -131.5q0 -82 38 -131z" />
    <glyph glyph-name="h" unicode="h" 
d="M58 720h105v-268q28 37 68.5 58.5t92.5 21.5q90 0 137.5 -56t47.5 -141v-335h-104v324q0 53 -27 84t-82 31q-26 0 -56.5 -12.5t-53.5 -46t-23 -92.5v-288h-105v720z" />
    <glyph glyph-name="i" unicode="i" horiz-adv-x="218" 
d="M56 520h105v-520h-105v520zM56 720h105v-110h-105v110z" />
    <glyph glyph-name="j" unicode="j" horiz-adv-x="225" 
d="M137 -171q-32 -29 -101 -29h-93v86h69q28 0 40 12t12 39v583h105v-595q0 -67 -32 -96zM64 720h105v-110h-105v110z" />
    <glyph glyph-name="k" unicode="k" horiz-adv-x="537" 
d="M58 720h107v-430l222 230h131l-199 -201l215 -319h-126l-162 245l-81 -82v-163h-107v720z" />
    <glyph glyph-name="l" unicode="l" horiz-adv-x="311" 
d="M163 720v-583q0 -27 12 -39t40 -12h69v-86h-93q-69 0 -101 29t-32 96v595h105z" />
    <glyph glyph-name="m" unicode="m" horiz-adv-x="871" 
d="M683 407.5q-25 31.5 -72 31.5q-44 0 -83.5 -33.5t-39.5 -117.5v-288h-105v324q0 52 -25 83.5t-72 31.5q-44 0 -83.5 -33.5t-39.5 -117.5v-288h-105v520h101v-73q24 39 63 62t92 23q55 0 94.5 -26.5t59.5 -72.5q28 45 70.5 72t100.5 27q55 0 94.5 -26.5t59.5 -71t20 -99.5
v-335h-105v324q0 52 -25 83.5z" />
    <glyph glyph-name="n" unicode="n" 
d="M378 408q-27 31 -82 31q-26 0 -56.5 -12.5t-53.5 -46t-23 -92.5v-288h-105v520h101v-73q28 39 69.5 62t95.5 23q90 0 137.5 -56t47.5 -141v-335h-104v324q0 53 -27 84z" />
    <glyph glyph-name="o" unicode="o" horiz-adv-x="585" 
d="M155 23q-58 35 -89 97t-31 140t31 140t89 97t137 35t137.5 -35t89.5 -97t31 -140t-31 -140t-89.5 -97t-137.5 -35t-137 35zM181 127.5q38 -49.5 111 -49.5q74 0 112 49.5t38 132.5t-38 132.5t-112 49.5q-73 0 -111 -49.5t-38 -132.5t38 -132.5z" />
    <glyph glyph-name="p" unicode="p" horiz-adv-x="601" 
d="M159 520v-74q28 41 71 63.5t99 22.5q75 0 128.5 -35t81 -96.5t27.5 -140.5t-27.5 -140.5t-81 -96.5t-128.5 -35q-109 0 -166 81v-269h-105v720h101zM198 127.5q38 -49.5 111 -49.5t111 49.5t38 132.5t-38 132.5t-111 49.5t-111 -49.5t-38 -132.5t38 -132.5z" />
    <glyph glyph-name="q" unicode="q" horiz-adv-x="601" 
d="M543 -200h-105v269q-57 -81 -166 -81q-75 0 -128.5 35t-81 96.5t-27.5 140.5t27.5 140.5t81 96.5t128.5 35q56 0 99 -22.5t71 -63.5v74h101v-720zM181 127.5q38 -49.5 111 -49.5t111 49.5t38 132.5t-38 132.5t-111 49.5t-111 -49.5t-38 -132.5t38 -132.5z" />
    <glyph glyph-name="r" unicode="r" horiz-adv-x="387" 
d="M58 520h101v-90q50 96 161 96h40v-99h-43q-72 0 -113 -37t-41 -125v-265h-105v520z" />
    <glyph glyph-name="s" unicode="s" horiz-adv-x="492" 
d="M88 32.5q-61 44.5 -66 137.5h103q6 -54 37.5 -77t91.5 -23q52 0 81.5 18.5t29.5 51.5q0 22 -9 35.5t-35.5 23.5t-81.5 19q-79 13 -123 35t-62 52.5t-18 74.5q0 70 55.5 111t146.5 41q105 0 162 -46t59 -128h-101q-1 51 -33 71.5t-87 20.5q-43 0 -71 -18t-28 -49
q0 -22 11 -35.5t38.5 -23t82.5 -18.5q77 -13 120.5 -33.5t61 -51t17.5 -75.5q0 -75 -60.5 -116.5t-157.5 -41.5q-103 0 -164 44.5z" />
    <glyph glyph-name="t" unicode="t" horiz-adv-x="378" 
d="M215 680v-160h136v-86h-136v-297q0 -27 12 -39t40 -12h84v-86h-108q-68 0 -100.5 29t-32.5 96v309h-93v86h93v160h105z" />
    <glyph glyph-name="u" unicode="u" 
d="M189 112q27 -31 82 -31q26 0 56.5 12.5t53.5 46t23 92.5h1v288h105v-520h-101v74q-28 -39 -70 -62.5t-96 -23.5q-90 0 -137.5 56t-47.5 141v335h104v-324q0 -53 27 -84z" />
    <glyph glyph-name="v" unicode="v" horiz-adv-x="534" 
d="M7 520h113l148 -414l146 414h113l-203 -520h-114z" />
    <glyph glyph-name="w" unicode="w" horiz-adv-x="828" 
d="M414 387l-114 -387h-108l-185 520h113l128 -393l114 393h104l114 -393l128 393h113l-185 -520h-108z" />
    <glyph glyph-name="x" unicode="x" horiz-adv-x="514" 
d="M257 183l-132 -183h-120l192 266l-183 254h122l122 -169l121 169h120l-181 -252l192 -268h-122z" />
    <glyph glyph-name="y" unicode="y" horiz-adv-x="518" 
d="M29 -112h80q35 0 49.5 13t27.5 49l18 48l-197 522h113l139 -407l139 407h113l-222 -592q-23 -64 -54 -96t-91 -32h-115v88z" />
    <glyph glyph-name="z" unicode="z" horiz-adv-x="506" 
d="M38 75l291 358h-283v87h412v-75l-291 -358h301v-87h-430v75z" />
    <glyph glyph-name="braceleft" unicode="{" horiz-adv-x="403" 
d="M144.5 -166.5q-37.5 33.5 -37.5 101.5v255q0 34 -19.5 49.5t-67.5 15.5v90q48 0 67.5 15.5t19.5 49.5v255q0 68 37.5 101.5t105.5 33.5h114v-90h-93q-28 0 -45 -17t-17 -44v-256q0 -42 -18.5 -64t-57.5 -29q39 -7 57.5 -29t18.5 -64v-256q0 -27 17 -44t45 -17h93v-90
h-114q-68 0 -105.5 33.5z" />
    <glyph glyph-name="bar" unicode="|" horiz-adv-x="222" 
d="M65 810h92v-1030h-92v1030z" />
    <glyph glyph-name="braceright" unicode="}" horiz-adv-x="403" 
d="M20 -110h93q28 0 45 17t17 44v256q0 42 18.5 64t57.5 29q-39 7 -57.5 29t-18.5 64v256q0 27 -17 44t-45 17h-93v90h114q68 0 105.5 -33.5t37.5 -101.5v-255q0 -34 19.5 -49.5t67.5 -15.5v-90q-48 0 -67.5 -15.5t-19.5 -49.5v-255q0 -68 -37.5 -101.5t-105.5 -33.5h-114
v90z" />
    <glyph glyph-name="exclamdown" unicode="&#xa1;" horiz-adv-x="202" 
d="M133 314l23 -294v-220h-111v220l23 294h65zM40 520h121v-140h-121v140z" />
    <glyph glyph-name="cent" unicode="&#xa2;" horiz-adv-x="547" 
d="M247 -9q-96 13 -152.5 87t-56.5 182t56.5 182t152.5 87v105h75v-104q84 -9 135 -59.5t62 -131.5h-107q-8 39 -31 65t-59 34v-356q36 9 59 35.5t31 67.5h107q-11 -81 -63 -133t-134 -62v-104h-75v105zM172 144q26 -47 75 -61v354q-49 -14 -75 -61t-26 -116t26 -116z" />
    <glyph glyph-name="sterling" unicode="&#xa3;" horiz-adv-x="583" 
d="M126.5 162q26.5 36 26.5 78q0 22 -8 51h-117v74h87q-24 49 -35.5 82.5t-11.5 81.5q0 56 29 102.5t82.5 73.5t123.5 27q114 0 179 -64t66 -178h-109q1 71 -36.5 108t-99.5 37q-59 0 -93 -29t-34 -80q0 -37 11.5 -68.5t24.5 -58t17 -34.5h228v-74h-200q4 -17 4 -40
q0 -44 -18.5 -83.5t-54.5 -70.5h369v-97h-517v94q60 32 86.5 68z" />
    <glyph glyph-name="yen" unicode="&#xa5;" horiz-adv-x="697" 
d="M121 351h130l-237 369h128l208 -335l208 335h125l-235 -369h128v-74h-171v-74h171v-74h-171v-129h-111v129h-173v74h173v74h-173v74z" />
    <glyph glyph-name="dieresis" unicode="&#xa8;" horiz-adv-x="292" 
d="M0 720h105v-110h-105v110zM187 720h105v-110h-105v110z" />
    <glyph glyph-name="copyright" unicode="&#xa9;" horiz-adv-x="830" 
d="M319 174.5q-44 27.5 -67.5 76t-23.5 109.5t23.5 109.5t67.5 76t102 27.5q78 0 125.5 -41.5t56.5 -110.5h-85q-7 37 -32 58t-65 21q-52 0 -80 -38t-28 -102t28 -102.5t80 -38.5q40 0 65.5 22.5t31.5 61.5h85q-8 -70 -57.5 -113t-124.5 -43q-58 0 -102 27.5zM86 552
q49 85 135.5 132.5t193.5 47.5t193.5 -47.5t136 -132.5t49.5 -192t-49.5 -192t-136 -132.5t-193.5 -47.5t-193.5 47.5t-135.5 132.5t-49 192t49 192zM158.5 205.5q37.5 -66.5 104 -102.5t152.5 -36t152.5 36t104 102.5t37.5 154.5t-37.5 154.5t-104 102.5t-152.5 36
t-152.5 -36t-104 -102.5t-37.5 -154.5t37.5 -154.5z" />
    <glyph glyph-name="registered" unicode="&#xae;" horiz-adv-x="830" 
d="M259 562h183q72 0 108 -32t36 -87q0 -30 -16.5 -55.5t-46.5 -42.5q24 -11 36.5 -29.5t16.5 -45.5l17 -112h-82l-13 96q-4 32 -20.5 46.5t-46.5 14.5h-92v-157h-80v404zM86 552q49 85 135.5 132.5t193.5 47.5t193.5 -47.5t136 -132.5t49.5 -192t-49.5 -192t-136 -132.5
t-193.5 -47.5t-193.5 47.5t-135.5 132.5t-49 192t49 192zM158.5 205.5q37.5 -66.5 104 -102.5t152.5 -36t152.5 36t104 102.5t37.5 154.5t-37.5 154.5t-104 102.5t-152.5 36t-152.5 -36t-104 -102.5t-37.5 -154.5t37.5 -154.5zM432 379q72 0 72 59q0 58 -72 58h-93v-117h93z
" />
    <glyph glyph-name="degree" unicode="&#xb0;" horiz-adv-x="350" 
d="M105 484q-32 18 -50.5 48.5t-18.5 66.5t18.5 66.5t50.5 48.5t70 18t70 -18t50.5 -48.5t18.5 -66.5t-18.5 -66.5t-50.5 -48.5t-70 -18t-70 18zM131 554.5q17 -17.5 44 -17.5q26 0 44 17.5t18 44.5q0 26 -18 43.5t-44 17.5q-27 0 -44 -17.5t-17 -43.5q0 -27 17 -44.5z" />
    <glyph glyph-name="acute" unicode="&#xb4;" horiz-adv-x="225" 
d="M97 732h128l-137 -146h-88z" />
    <glyph glyph-name="periodcentered" unicode="&#xb7;" horiz-adv-x="211" 
d="M45 430h121v-140h-121v140z" />
    <glyph glyph-name="cedilla" unicode="&#xb8;" horiz-adv-x="211" 
d="M0 -216v52q33 -6 56 -6q37 0 54 11.5t17 31.5q0 38 -61 38q-21 0 -31 -2v41l42 56h73l-48 -51h6q48 0 77.5 -22.5t29.5 -59.5q0 -41 -35.5 -69t-103.5 -28q-43 0 -76 8z" />
    <glyph glyph-name="questiondown" unicode="&#xbf;" horiz-adv-x="529" 
d="M319 225.5q-10 -34.5 -32.5 -61.5t-67.5 -63q-42 -32 -61 -58t-19 -67q0 -42 33 -67.5t93 -25.5q62 0 96 34t34 102h108q0 -114 -62 -172.5t-176 -58.5q-74 0 -128 23t-82.5 64.5t-28.5 96.5q0 59 23.5 96.5t81.5 82.5q41 33 60 53t28 45t9 65h101q0 -54 -10 -88.5z
M218 520h121v-140h-121v140z" />
    <glyph glyph-name="Agrave" unicode="&#xc0;" horiz-adv-x="728" 
d="M525 185h-325l-70 -185h-116l286 720h126l288 -720h-119zM488 282l-125 330l-126 -330h251zM319 768l-137 146h128l97 -146h-88z" />
    <glyph glyph-name="Aacute" unicode="&#xc1;" horiz-adv-x="728" 
d="M525 185h-325l-70 -185h-116l286 720h126l288 -720h-119zM488 282l-125 330l-126 -330h251zM416 914h128l-137 -146h-88z" />
    <glyph glyph-name="Acircumflex" unicode="&#xc2;" horiz-adv-x="728" 
d="M525 185h-325l-70 -185h-116l286 720h126l288 -720h-119zM488 282l-125 330l-126 -330h251zM555 768h-99l-94 90l-93 -90h-99l123 146h138z" />
    <glyph glyph-name="Atilde" unicode="&#xc3;" horiz-adv-x="728" 
d="M525 185h-325l-70 -185h-116l286 720h126l288 -720h-119zM488 282l-125 330l-126 -330h251zM289 900q17 0 32.5 -5.5t41.5 -17.5l29 -14.5t34 -10.5q18 0 26 10.5t8 37.5h79q0 -132 -103 -132q-27 0 -73 22q-8 4 -29.5 15t-34.5 11q-18 0 -25.5 -10.5t-7.5 -37.5h-80
q0 132 103 132z" />
    <glyph glyph-name="Adieresis" unicode="&#xc4;" horiz-adv-x="728" 
d="M525 185h-325l-70 -185h-116l286 720h126l288 -720h-119zM488 282l-125 330l-126 -330h251zM217 878h105v-110h-105v110zM404 878h105v-110h-105v110z" />
    <glyph glyph-name="Aring" unicode="&#xc5;" horiz-adv-x="728" 
d="M525 185h-325l-70 -185h-116l268 675q-26 17 -41 45t-15 60q0 36 18 66t49.5 47.5t68.5 17.5t68.5 -17.5t50 -47.5t18.5 -66q0 -32 -15 -59t-40 -45l270 -676h-119zM488 282l-125 330l-126 -330h251zM318.5 737q17.5 -17 43.5 -17q27 0 44.5 17t17.5 43q0 27 -17.5 44
t-44.5 17q-26 0 -43.5 -17t-17.5 -44q0 -26 17.5 -43z" />
    <glyph glyph-name="Ccedilla" unicode="&#xc7;" horiz-adv-x="730" 
d="M276 -228v52q33 -6 56 -6q37 0 54 11.5t17 31.5q0 38 -61 38q-21 0 -31 -2v41l38 51q-100 8 -171 59.5t-107 133t-36 178.5q0 103 40 187.5t119 134.5t190 50q83 0 148.5 -33t106 -91.5t52.5 -132.5h-113q-14 70 -65.5 113t-128.5 43t-129.5 -36t-78 -97.5t-25.5 -137.5
t25.5 -137.5t78 -97.5t129.5 -36q82 0 134.5 49t64.5 128h112q-14 -113 -86 -188.5t-187 -87.5l-44 -47h6q48 0 77.5 -22.5t29.5 -59.5q0 -41 -35.5 -69t-103.5 -28q-43 0 -76 8z" />
    <glyph glyph-name="Egrave" unicode="&#xc8;" horiz-adv-x="608" 
d="M65 720h515v-100h-404v-198h374v-98h-374v-224h401v-100h-512v720zM278 768l-137 146h128l97 -146h-88z" />
    <glyph glyph-name="Eacute" unicode="&#xc9;" horiz-adv-x="608" 
d="M65 720h515v-100h-404v-198h374v-98h-374v-224h401v-100h-512v720zM375 914h128l-137 -146h-88z" />
    <glyph glyph-name="Ecircumflex" unicode="&#xca;" horiz-adv-x="608" 
d="M65 720h515v-100h-404v-198h374v-98h-374v-224h401v-100h-512v720zM515 768h-99l-94 90l-93 -90h-99l123 146h138z" />
    <glyph glyph-name="Edieresis" unicode="&#xcb;" horiz-adv-x="608" 
d="M65 720h515v-100h-404v-198h374v-98h-374v-224h401v-100h-512v720zM177 878h105v-110h-105v110zM364 878h105v-110h-105v110z" />
    <glyph glyph-name="Igrave" unicode="&#xcc;" horiz-adv-x="241" 
d="M65 720h111v-720h-111v720zM76 768l-137 146h128l97 -146h-88z" />
    <glyph glyph-name="Iacute" unicode="&#xcd;" horiz-adv-x="241" 
d="M65 720h111v-720h-111v720zM173 914h128l-137 -146h-88z" />
    <glyph glyph-name="Icircumflex" unicode="&#xce;" horiz-adv-x="241" 
d="M65 720h111v-720h-111v720zM313 768h-99l-94 90l-93 -90h-99l123 146h138z" />
    <glyph glyph-name="Idieresis" unicode="&#xcf;" horiz-adv-x="241" 
d="M65 720h111v-720h-111v720zM-25 878h105v-110h-105v110zM162 878h105v-110h-105v110z" />
    <glyph glyph-name="Ntilde" unicode="&#xd1;" horiz-adv-x="726" 
d="M174 568v-568h-109v720h128l359 -569v569h109v-720h-128zM289 900q17 0 32.5 -5.5t41.5 -17.5l29 -14.5t34 -10.5q18 0 26 10.5t8 37.5h79q0 -132 -103 -132q-27 0 -73 22q-8 4 -29.5 15t-34.5 11q-18 0 -25.5 -10.5t-7.5 -37.5h-80q0 132 103 132z" />
    <glyph glyph-name="Ograve" unicode="&#xd2;" horiz-adv-x="769" 
d="M194 38q-79 50 -119 134.5t-40 187.5t40 187.5t119 134.5t190 50t190.5 -50t119.5 -134.5t40 -187.5t-40 -187.5t-119.5 -134.5t-190.5 -50t-190 50zM176.5 222.5q25.5 -61.5 78 -97.5t129.5 -36q78 0 130.5 36t78 97.5t25.5 137.5t-25.5 137.5t-78 97.5t-130.5 36
q-77 0 -129.5 -36t-78 -97.5t-25.5 -137.5t25.5 -137.5zM340 780l-137 146h128l97 -146h-88z" />
    <glyph glyph-name="Oacute" unicode="&#xd3;" horiz-adv-x="769" 
d="M194 38q-79 50 -119 134.5t-40 187.5t40 187.5t119 134.5t190 50t190.5 -50t119.5 -134.5t40 -187.5t-40 -187.5t-119.5 -134.5t-190.5 -50t-190 50zM176.5 222.5q25.5 -61.5 78 -97.5t129.5 -36q78 0 130.5 36t78 97.5t25.5 137.5t-25.5 137.5t-78 97.5t-130.5 36
q-77 0 -129.5 -36t-78 -97.5t-25.5 -137.5t25.5 -137.5zM437 926h128l-137 -146h-88z" />
    <glyph glyph-name="Ocircumflex" unicode="&#xd4;" horiz-adv-x="769" 
d="M194 38q-79 50 -119 134.5t-40 187.5t40 187.5t119 134.5t190 50t190.5 -50t119.5 -134.5t40 -187.5t-40 -187.5t-119.5 -134.5t-190.5 -50t-190 50zM176.5 222.5q25.5 -61.5 78 -97.5t129.5 -36q78 0 130.5 36t78 97.5t25.5 137.5t-25.5 137.5t-78 97.5t-130.5 36
q-77 0 -129.5 -36t-78 -97.5t-25.5 -137.5t25.5 -137.5zM577 780h-99l-94 90l-93 -90h-99l123 146h138z" />
    <glyph glyph-name="Otilde" unicode="&#xd5;" horiz-adv-x="769" 
d="M194 38q-79 50 -119 134.5t-40 187.5t40 187.5t119 134.5t190 50t190.5 -50t119.5 -134.5t40 -187.5t-40 -187.5t-119.5 -134.5t-190.5 -50t-190 50zM176.5 222.5q25.5 -61.5 78 -97.5t129.5 -36q78 0 130.5 36t78 97.5t25.5 137.5t-25.5 137.5t-78 97.5t-130.5 36
q-77 0 -129.5 -36t-78 -97.5t-25.5 -137.5t25.5 -137.5zM311 912q17 0 32.5 -5.5t41.5 -17.5l29 -14.5t34 -10.5q18 0 26 10.5t8 37.5h79q0 -132 -103 -132q-27 0 -73 22q-8 4 -29.5 15t-34.5 11q-18 0 -25.5 -10.5t-7.5 -37.5h-80q0 132 103 132z" />
    <glyph glyph-name="Odieresis" unicode="&#xd6;" horiz-adv-x="769" 
d="M194 38q-79 50 -119 134.5t-40 187.5t40 187.5t119 134.5t190 50t190.5 -50t119.5 -134.5t40 -187.5t-40 -187.5t-119.5 -134.5t-190.5 -50t-190 50zM176.5 222.5q25.5 -61.5 78 -97.5t129.5 -36q78 0 130.5 36t78 97.5t25.5 137.5t-25.5 137.5t-78 97.5t-130.5 36
q-77 0 -129.5 -36t-78 -97.5t-25.5 -137.5t25.5 -137.5zM239 890h105v-110h-105v110zM426 890h105v-110h-105v110z" />
    <glyph glyph-name="multiply" unicode="&#xd7;" horiz-adv-x="511" 
d="M125 557l131 -130l130 130l66 -66l-130 -130l130 -131l-66 -66l-130 131l-131 -131l-66 66l131 131l-131 130z" />
    <glyph glyph-name="Ugrave" unicode="&#xd9;" horiz-adv-x="690" 
d="M132 61.5q-77 73.5 -77 209.5v449h111v-449q0 -184 179 -184q87 0 133 45.5t46 138.5v449h111v-449q0 -136 -77 -209.5t-213 -73.5t-213 73.5zM301 768l-137 146h128l97 -146h-88z" />
    <glyph glyph-name="Uacute" unicode="&#xda;" horiz-adv-x="690" 
d="M132 61.5q-77 73.5 -77 209.5v449h111v-449q0 -184 179 -184q87 0 133 45.5t46 138.5v449h111v-449q0 -136 -77 -209.5t-213 -73.5t-213 73.5zM398 914h128l-137 -146h-88z" />
    <glyph glyph-name="Ucircumflex" unicode="&#xdb;" horiz-adv-x="690" 
d="M132 61.5q-77 73.5 -77 209.5v449h111v-449q0 -184 179 -184q87 0 133 45.5t46 138.5v449h111v-449q0 -136 -77 -209.5t-213 -73.5t-213 73.5zM537 768h-99l-94 90l-93 -90h-99l123 146h138z" />
    <glyph glyph-name="Udieresis" unicode="&#xdc;" horiz-adv-x="690" 
d="M132 61.5q-77 73.5 -77 209.5v449h111v-449q0 -184 179 -184q87 0 133 45.5t46 138.5v449h111v-449q0 -136 -77 -209.5t-213 -73.5t-213 73.5zM199 878h105v-110h-105v110zM386 878h105v-110h-105v110z" />
    <glyph glyph-name="Yacute" unicode="&#xdd;" horiz-adv-x="697" 
d="M294 284l-280 436h128l208 -335l208 335h125l-278 -437v-283h-111v284zM403 914h128l-137 -146h-88z" />
    <glyph glyph-name="germandbls" unicode="&#xdf;" horiz-adv-x="570" 
d="M115.5 673.5q57.5 58.5 161.5 58.5q66 0 115 -25.5t75.5 -70t26.5 -99.5q0 -49 -22 -86.5t-62 -60.5q63 -24 94.5 -71.5t31.5 -113.5q0 -98 -64 -157.5t-185 -59.5q-32 0 -62 6v88q30 -6 60 -6q69 0 105.5 35.5t36.5 93.5q0 60 -36.5 94.5t-107.5 34.5h-42v86h36
q53 0 84 30t31 80q0 48 -31.5 78.5t-83.5 30.5q-53 0 -83.5 -32.5t-30.5 -90.5v-516h-105v516q0 99 57.5 157.5z" />
    <glyph glyph-name="agrave" unicode="&#xe0;" horiz-adv-x="526" 
d="M383 61q-32 -39 -73 -56t-92 -17q-88 0 -138.5 40.5t-50.5 114.5q0 67 48 105.5t145 56.5l157 29v34q0 41 -25.5 59.5t-78.5 18.5q-51 0 -85 -21t-36 -68h-104q2 88 65.5 131.5t159.5 43.5q103 0 155 -40.5t52 -112.5v-379h-99v61zM161 92q24 -20 73 -20q59 0 102 33.5
t43 98.5v52l-139 -29q-54 -11 -78.5 -27.5t-24.5 -53.5q0 -34 24 -54zM222 586l-137 146h128l97 -146h-88z" />
    <glyph glyph-name="aacute" unicode="&#xe1;" horiz-adv-x="526" 
d="M383 61q-32 -39 -73 -56t-92 -17q-88 0 -138.5 40.5t-50.5 114.5q0 67 48 105.5t145 56.5l157 29v34q0 41 -25.5 59.5t-78.5 18.5q-51 0 -85 -21t-36 -68h-104q2 88 65.5 131.5t159.5 43.5q103 0 155 -40.5t52 -112.5v-379h-99v61zM161 92q24 -20 73 -20q59 0 102 33.5
t43 98.5v52l-139 -29q-54 -11 -78.5 -27.5t-24.5 -53.5q0 -34 24 -54zM319 732h128l-137 -146h-88z" />
    <glyph glyph-name="acircumflex" unicode="&#xe2;" horiz-adv-x="526" 
d="M383 61q-32 -39 -73 -56t-92 -17q-88 0 -138.5 40.5t-50.5 114.5q0 67 48 105.5t145 56.5l157 29v34q0 41 -25.5 59.5t-78.5 18.5q-51 0 -85 -21t-36 -68h-104q2 88 65.5 131.5t159.5 43.5q103 0 155 -40.5t52 -112.5v-379h-99v61zM161 92q24 -20 73 -20q59 0 102 33.5
t43 98.5v52l-139 -29q-54 -11 -78.5 -27.5t-24.5 -53.5q0 -34 24 -54zM458 586h-99l-94 90l-93 -90h-99l123 146h138z" />
    <glyph glyph-name="atilde" unicode="&#xe3;" horiz-adv-x="526" 
d="M383 61q-32 -39 -73 -56t-92 -17q-88 0 -138.5 40.5t-50.5 114.5q0 67 48 105.5t145 56.5l157 29v34q0 41 -25.5 59.5t-78.5 18.5q-51 0 -85 -21t-36 -68h-104q2 88 65.5 131.5t159.5 43.5q103 0 155 -40.5t52 -112.5v-379h-99v61zM161 92q24 -20 73 -20q59 0 102 33.5
t43 98.5v52l-139 -29q-54 -11 -78.5 -27.5t-24.5 -53.5q0 -34 24 -54zM192 732q17 0 32.5 -5.5t41.5 -17.5l29 -14.5t34 -10.5q18 0 26 10.5t8 37.5h79q0 -132 -103 -132q-27 0 -73 22q-8 4 -29.5 15t-34.5 11q-18 0 -25.5 -10.5t-7.5 -37.5h-80q0 132 103 132z" />
    <glyph glyph-name="adieresis" unicode="&#xe4;" horiz-adv-x="526" 
d="M383 61q-32 -39 -73 -56t-92 -17q-88 0 -138.5 40.5t-50.5 114.5q0 67 48 105.5t145 56.5l157 29v34q0 41 -25.5 59.5t-78.5 18.5q-51 0 -85 -21t-36 -68h-104q2 88 65.5 131.5t159.5 43.5q103 0 155 -40.5t52 -112.5v-379h-99v61zM161 92q24 -20 73 -20q59 0 102 33.5
t43 98.5v52l-139 -29q-54 -11 -78.5 -27.5t-24.5 -53.5q0 -34 24 -54zM120 720h105v-110h-105v110zM307 720h105v-110h-105v110z" />
    <glyph glyph-name="aring" unicode="&#xe5;" horiz-adv-x="526" 
d="M383 61q-32 -39 -73 -56t-92 -17q-88 0 -138.5 40.5t-50.5 114.5q0 67 48 105.5t145 56.5l157 29v34q0 41 -25.5 59.5t-78.5 18.5q-51 0 -85 -21t-36 -68h-104q2 88 65.5 131.5t159.5 43.5q103 0 155 -40.5t52 -112.5v-379h-99v61zM161 92q24 -20 73 -20q59 0 102 33.5
t43 98.5v52l-139 -29q-54 -11 -78.5 -27.5t-24.5 -53.5q0 -34 24 -54zM196.5 597.5q-31.5 17.5 -49.5 47.5t-18 65q0 36 18 66t49.5 47.5t68.5 17.5t68.5 -17.5t50 -47.5t18.5 -66q0 -35 -18.5 -65t-50 -47.5t-68.5 -17.5t-68.5 17.5zM221.5 667q17.5 -17 43.5 -17
q27 0 44.5 17t17.5 43q0 27 -17.5 44t-44.5 17q-26 0 -43.5 -17t-17.5 -44q0 -26 17.5 -43z" />
    <glyph glyph-name="ccedilla" unicode="&#xe7;" horiz-adv-x="547" 
d="M178 -228v52q33 -6 56 -6q37 0 54 11.5t17 31.5q0 38 -61 38q-21 0 -31 -2v41l39 52q-65 8 -113.5 44.5t-74.5 95t-26 130.5q0 78 30.5 140t87 97t131.5 35q99 0 159.5 -52.5t72.5 -140.5h-107q-10 48 -42.5 75.5t-82.5 27.5q-68 0 -104.5 -49.5t-36.5 -132.5
t36.5 -132.5t104.5 -49.5q50 0 83 28.5t42 78.5h107q-11 -80 -62.5 -132.5t-131.5 -62.5l-45 -47h6q48 0 77.5 -22.5t29.5 -59.5q0 -41 -35.5 -69t-103.5 -28q-43 0 -76 8z" />
    <glyph glyph-name="egrave" unicode="&#xe8;" horiz-adv-x="570" 
d="M153 23q-57 35 -87.5 97t-30.5 140t30.5 140t87.5 97t132 35q76 0 132.5 -35t87 -98t30.5 -144v-30h-393q8 -69 44.5 -109t98.5 -40q48 0 82.5 21.5t51.5 61.5h105q-25 -79 -88 -125t-151 -46q-75 0 -132 35zM426 308q-10 63 -46.5 99.5t-94.5 36.5t-94.5 -36.5
t-46.5 -99.5h282zM241 586l-137 146h128l97 -146h-88z" />
    <glyph glyph-name="eacute" unicode="&#xe9;" horiz-adv-x="570" 
d="M153 23q-57 35 -87.5 97t-30.5 140t30.5 140t87.5 97t132 35q76 0 132.5 -35t87 -98t30.5 -144v-30h-393q8 -69 44.5 -109t98.5 -40q48 0 82.5 21.5t51.5 61.5h105q-25 -79 -88 -125t-151 -46q-75 0 -132 35zM426 308q-10 63 -46.5 99.5t-94.5 36.5t-94.5 -36.5
t-46.5 -99.5h282zM338 732h128l-137 -146h-88z" />
    <glyph glyph-name="ecircumflex" unicode="&#xea;" horiz-adv-x="570" 
d="M153 23q-57 35 -87.5 97t-30.5 140t30.5 140t87.5 97t132 35q76 0 132.5 -35t87 -98t30.5 -144v-30h-393q8 -69 44.5 -109t98.5 -40q48 0 82.5 21.5t51.5 61.5h105q-25 -79 -88 -125t-151 -46q-75 0 -132 35zM426 308q-10 63 -46.5 99.5t-94.5 36.5t-94.5 -36.5
t-46.5 -99.5h282zM477 586h-99l-94 90l-93 -90h-99l123 146h138z" />
    <glyph glyph-name="edieresis" unicode="&#xeb;" horiz-adv-x="570" 
d="M153 23q-57 35 -87.5 97t-30.5 140t30.5 140t87.5 97t132 35q76 0 132.5 -35t87 -98t30.5 -144v-30h-393q8 -69 44.5 -109t98.5 -40q48 0 82.5 21.5t51.5 61.5h105q-25 -79 -88 -125t-151 -46q-75 0 -132 35zM426 308q-10 63 -46.5 99.5t-94.5 36.5t-94.5 -36.5
t-46.5 -99.5h282zM139 720h105v-110h-105v110zM326 720h105v-110h-105v110z" />
    <glyph glyph-name="igrave" unicode="&#xec;" horiz-adv-x="218" 
d="M56 520h105v-520h-105v520zM65 586l-137 146h128l97 -146h-88z" />
    <glyph glyph-name="iacute" unicode="&#xed;" horiz-adv-x="218" 
d="M56 520h105v-520h-105v520zM162 732h128l-137 -146h-88z" />
    <glyph glyph-name="icircumflex" unicode="&#xee;" horiz-adv-x="218" 
d="M56 520h105v-520h-105v520zM301 586h-99l-94 90l-93 -90h-99l123 146h138z" />
    <glyph glyph-name="idieresis" unicode="&#xef;" horiz-adv-x="218" 
d="M56 520h105v-520h-105v520zM-37 720h105v-110h-105v110zM150 720h105v-110h-105v110z" />
    <glyph glyph-name="ntilde" unicode="&#xf1;" 
d="M378 408q-27 31 -82 31q-26 0 -56.5 -12.5t-53.5 -46t-23 -92.5v-288h-105v520h101v-73q28 39 69.5 62t95.5 23q90 0 137.5 -56t47.5 -141v-335h-104v324q0 53 -27 84zM210 732q17 0 32.5 -5.5t41.5 -17.5l29 -14.5t34 -10.5q18 0 26 10.5t8 37.5h79q0 -132 -103 -132
q-27 0 -73 22q-8 4 -29.5 15t-34.5 11q-18 0 -25.5 -10.5t-7.5 -37.5h-80q0 132 103 132z" />
    <glyph glyph-name="ograve" unicode="&#xf2;" horiz-adv-x="585" 
d="M155 23q-58 35 -89 97t-31 140t31 140t89 97t137 35t137.5 -35t89.5 -97t31 -140t-31 -140t-89.5 -97t-137.5 -35t-137 35zM181 127.5q38 -49.5 111 -49.5q74 0 112 49.5t38 132.5t-38 132.5t-112 49.5q-73 0 -111 -49.5t-38 -132.5t38 -132.5zM248 586l-137 146h128
l97 -146h-88z" />
    <glyph glyph-name="oacute" unicode="&#xf3;" horiz-adv-x="585" 
d="M155 23q-58 35 -89 97t-31 140t31 140t89 97t137 35t137.5 -35t89.5 -97t31 -140t-31 -140t-89.5 -97t-137.5 -35t-137 35zM181 127.5q38 -49.5 111 -49.5q74 0 112 49.5t38 132.5t-38 132.5t-112 49.5q-73 0 -111 -49.5t-38 -132.5t38 -132.5zM345 732h128l-137 -146
h-88z" />
    <glyph glyph-name="ocircumflex" unicode="&#xf4;" horiz-adv-x="585" 
d="M155 23q-58 35 -89 97t-31 140t31 140t89 97t137 35t137.5 -35t89.5 -97t31 -140t-31 -140t-89.5 -97t-137.5 -35t-137 35zM181 127.5q38 -49.5 111 -49.5q74 0 112 49.5t38 132.5t-38 132.5t-112 49.5q-73 0 -111 -49.5t-38 -132.5t38 -132.5zM485 586h-99l-94 90
l-93 -90h-99l123 146h138z" />
    <glyph glyph-name="otilde" unicode="&#xf5;" horiz-adv-x="585" 
d="M155 23q-58 35 -89 97t-31 140t31 140t89 97t137 35t137.5 -35t89.5 -97t31 -140t-31 -140t-89.5 -97t-137.5 -35t-137 35zM181 127.5q38 -49.5 111 -49.5q74 0 112 49.5t38 132.5t-38 132.5t-112 49.5q-73 0 -111 -49.5t-38 -132.5t38 -132.5zM219 732q17 0 32.5 -5.5
t41.5 -17.5l29 -14.5t34 -10.5q18 0 26 10.5t8 37.5h79q0 -132 -103 -132q-27 0 -73 22q-8 4 -29.5 15t-34.5 11q-18 0 -25.5 -10.5t-7.5 -37.5h-80q0 132 103 132z" />
    <glyph glyph-name="odieresis" unicode="&#xf6;" horiz-adv-x="585" 
d="M155 23q-58 35 -89 97t-31 140t31 140t89 97t137 35t137.5 -35t89.5 -97t31 -140t-31 -140t-89.5 -97t-137.5 -35t-137 35zM181 127.5q38 -49.5 111 -49.5q74 0 112 49.5t38 132.5t-38 132.5t-112 49.5q-73 0 -111 -49.5t-38 -132.5t38 -132.5zM147 720h105v-110h-105
v110zM334 720h105v-110h-105v110z" />
    <glyph glyph-name="divide" unicode="&#xf7;" horiz-adv-x="540" 
d="M39 407h462v-93h-462v93zM218 228h105v-110h-105v110zM218 602h105v-110h-105v110z" />
    <glyph glyph-name="ugrave" unicode="&#xf9;" 
d="M189 112q27 -31 82 -31q26 0 56.5 12.5t53.5 46t23 92.5h1v288h105v-520h-101v74q-28 -39 -70 -62.5t-96 -23.5q-90 0 -137.5 56t-47.5 141v335h104v-324q0 -53 27 -84zM240 586l-137 146h128l97 -146h-88z" />
    <glyph glyph-name="uacute" unicode="&#xfa;" 
d="M189 112q27 -31 82 -31q26 0 56.5 12.5t53.5 46t23 92.5h1v288h105v-520h-101v74q-28 -39 -70 -62.5t-96 -23.5q-90 0 -137.5 56t-47.5 141v335h104v-324q0 -53 27 -84zM337 732h128l-137 -146h-88z" />
    <glyph glyph-name="ucircumflex" unicode="&#xfb;" 
d="M189 112q27 -31 82 -31q26 0 56.5 12.5t53.5 46t23 92.5h1v288h105v-520h-101v74q-28 -39 -70 -62.5t-96 -23.5q-90 0 -137.5 56t-47.5 141v335h104v-324q0 -53 27 -84zM476 586h-99l-94 90l-93 -90h-99l123 146h138z" />
    <glyph glyph-name="udieresis" unicode="&#xfc;" 
d="M189 112q27 -31 82 -31q26 0 56.5 12.5t53.5 46t23 92.5h1v288h105v-520h-101v74q-28 -39 -70 -62.5t-96 -23.5q-90 0 -137.5 56t-47.5 141v335h104v-324q0 -53 27 -84zM138 720h105v-110h-105v110zM325 720h105v-110h-105v110z" />
    <glyph glyph-name="yacute" unicode="&#xfd;" horiz-adv-x="518" 
d="M29 -112h80q35 0 49.5 13t27.5 49l18 48l-197 522h113l139 -407l139 407h113l-222 -592q-23 -64 -54 -96t-91 -32h-115v88zM312 732h128l-137 -146h-88z" />
    <glyph glyph-name="ydieresis" unicode="&#xff;" horiz-adv-x="518" 
d="M29 -112h80q35 0 49.5 13t27.5 49l18 48l-197 522h113l139 -407l139 407h113l-222 -592q-23 -64 -54 -96t-91 -32h-115v88zM113 720h105v-110h-105v110zM300 720h105v-110h-105v110z" />
    <glyph glyph-name="Abreve" unicode="&#x102;" horiz-adv-x="728" 
d="M525 185h-325l-70 -185h-116l286 720h126l288 -720h-119zM488 282l-125 330l-126 -330h251zM249 802.5q-44 40.5 -49 111.5h84q3 -38 24 -57.5t55 -19.5t55 19.5t24 57.5h84q-4 -71 -48.5 -111.5t-114.5 -40.5t-114 40.5z" />
    <glyph glyph-name="abreve" unicode="&#x103;" horiz-adv-x="526" 
d="M383 61q-32 -39 -73 -56t-92 -17q-88 0 -138.5 40.5t-50.5 114.5q0 67 48 105.5t145 56.5l157 29v34q0 41 -25.5 59.5t-78.5 18.5q-51 0 -85 -21t-36 -68h-104q2 88 65.5 131.5t159.5 43.5q103 0 155 -40.5t52 -112.5v-379h-99v61zM161 92q24 -20 73 -20q59 0 102 33.5
t43 98.5v52l-139 -29q-54 -11 -78.5 -27.5t-24.5 -53.5q0 -34 24 -54zM152 620.5q-44 40.5 -49 111.5h84q3 -38 24 -57.5t55 -19.5t55 19.5t24 57.5h84q-4 -71 -48.5 -111.5t-114.5 -40.5t-114 40.5z" />
    <glyph glyph-name="Aogonek" unicode="&#x104;" horiz-adv-x="728" 
d="M525 185h-325l-70 -185h-116l286 720h126l288 -720h-1q-101 -54 -101 -96q0 -21 14 -31t39 -10q24 0 48 9v-73q-32 -11 -72 -11q-54 0 -87 24t-33 70q0 37 29 67.5t75 50.5h-30zM488 282l-125 330l-126 -330h251z" />
    <glyph glyph-name="aogonek" unicode="&#x105;" horiz-adv-x="526" 
d="M383 61q-32 -39 -73 -56t-92 -17q-88 0 -138.5 40.5t-50.5 114.5q0 67 48 105.5t145 56.5l157 29v34q0 41 -25.5 59.5t-78.5 18.5q-51 0 -85 -21t-36 -68h-104q2 88 65.5 131.5t159.5 43.5q103 0 155 -40.5t52 -112.5v-379h-1q-101 -54 -101 -96q0 -21 14 -31t39 -10
q24 0 48 9v-73q-32 -11 -72 -11q-54 0 -87 24t-33 70q0 37 29 67.5t75 50.5h-10v61zM161 92q24 -20 73 -20q59 0 102 33.5t43 98.5v52l-139 -29q-54 -11 -78.5 -27.5t-24.5 -53.5q0 -34 24 -54z" />
    <glyph glyph-name="Cacute" unicode="&#x106;" horiz-adv-x="730" 
d="M194 38q-79 50 -119 134.5t-40 187.5t40 187.5t119 134.5t190 50q83 0 148.5 -33t106 -91.5t52.5 -132.5h-113q-14 70 -65.5 113t-128.5 43t-129.5 -36t-78 -97.5t-25.5 -137.5t25.5 -137.5t78 -97.5t129.5 -36q82 0 134.5 49t64.5 128h112q-10 -79 -50 -142.5
t-107 -99.5t-154 -36q-111 0 -190 50zM437 926h128l-137 -146h-88z" />
    <glyph glyph-name="cacute" unicode="&#x107;" horiz-adv-x="547" 
d="M155.5 23q-56.5 35 -87 97t-30.5 140t30.5 140t87 97t131.5 35q99 0 159.5 -52.5t72.5 -140.5h-107q-10 48 -42.5 75.5t-82.5 27.5q-68 0 -104.5 -49.5t-36.5 -132.5t36.5 -132.5t104.5 -49.5q50 0 83 28.5t42 78.5h107q-12 -89 -74.5 -143t-157.5 -54q-75 0 -131.5 35z
M339 732h128l-137 -146h-88z" />
    <glyph glyph-name="Ccircumflex" unicode="&#x108;" horiz-adv-x="730" 
d="M194 38q-79 50 -119 134.5t-40 187.5t40 187.5t119 134.5t190 50q83 0 148.5 -33t106 -91.5t52.5 -132.5h-113q-14 70 -65.5 113t-128.5 43t-129.5 -36t-78 -97.5t-25.5 -137.5t25.5 -137.5t78 -97.5t129.5 -36q82 0 134.5 49t64.5 128h112q-10 -79 -50 -142.5
t-107 -99.5t-154 -36q-111 0 -190 50zM577 780h-99l-94 90l-93 -90h-99l123 146h138z" />
    <glyph glyph-name="ccircumflex" unicode="&#x109;" horiz-adv-x="547" 
d="M155.5 23q-56.5 35 -87 97t-30.5 140t30.5 140t87 97t131.5 35q99 0 159.5 -52.5t72.5 -140.5h-107q-10 48 -42.5 75.5t-82.5 27.5q-68 0 -104.5 -49.5t-36.5 -132.5t36.5 -132.5t104.5 -49.5q50 0 83 28.5t42 78.5h107q-12 -89 -74.5 -143t-157.5 -54q-75 0 -131.5 35z
M479 586h-99l-94 90l-93 -90h-99l123 146h138z" />
    <glyph glyph-name="Cdotaccent" unicode="&#x10a;" horiz-adv-x="730" 
d="M194 38q-79 50 -119 134.5t-40 187.5t40 187.5t119 134.5t190 50q83 0 148.5 -33t106 -91.5t52.5 -132.5h-113q-14 70 -65.5 113t-128.5 43t-129.5 -36t-78 -97.5t-25.5 -137.5t25.5 -137.5t78 -97.5t129.5 -36q82 0 134.5 49t64.5 128h112q-10 -79 -50 -142.5
t-107 -99.5t-154 -36q-111 0 -190 50zM332 890h105v-110h-105v110z" />
    <glyph glyph-name="cdotaccent" unicode="&#x10b;" horiz-adv-x="547" 
d="M155.5 23q-56.5 35 -87 97t-30.5 140t30.5 140t87 97t131.5 35q99 0 159.5 -52.5t72.5 -140.5h-107q-10 48 -42.5 75.5t-82.5 27.5q-68 0 -104.5 -49.5t-36.5 -132.5t36.5 -132.5t104.5 -49.5q50 0 83 28.5t42 78.5h107q-12 -89 -74.5 -143t-157.5 -54q-75 0 -131.5 35z
M234 720h105v-110h-105v110z" />
    <glyph glyph-name="Ccaron" unicode="&#x10c;" horiz-adv-x="730" 
d="M194 38q-79 50 -119 134.5t-40 187.5t40 187.5t119 134.5t190 50q83 0 148.5 -33t106 -91.5t52.5 -132.5h-113q-14 70 -65.5 113t-128.5 43t-129.5 -36t-78 -97.5t-25.5 -137.5t25.5 -137.5t78 -97.5t129.5 -36q82 0 134.5 49t64.5 128h112q-10 -79 -50 -142.5
t-107 -99.5t-154 -36q-111 0 -190 50zM192 926h99l93 -90l94 90h99l-124 -146h-138z" />
    <glyph glyph-name="ccaron" unicode="&#x10d;" horiz-adv-x="547" 
d="M155.5 23q-56.5 35 -87 97t-30.5 140t30.5 140t87 97t131.5 35q99 0 159.5 -52.5t72.5 -140.5h-107q-10 48 -42.5 75.5t-82.5 27.5q-68 0 -104.5 -49.5t-36.5 -132.5t36.5 -132.5t104.5 -49.5q50 0 83 28.5t42 78.5h107q-12 -89 -74.5 -143t-157.5 -54q-75 0 -131.5 35z
M94 732h99l93 -90l94 90h99l-124 -146h-138z" />
    <glyph glyph-name="Dcaron" unicode="&#x10e;" horiz-adv-x="709" 
d="M65 720h251q118 0 198.5 -47t120 -128.5t39.5 -184.5t-39.5 -184.5t-120 -128.5t-198.5 -47h-251v720zM316 98q122 0 182 72.5t60 189.5t-60 189.5t-182 72.5h-140v-524h140zM142 914h99l93 -90l94 90h99l-124 -146h-138z" />
    <glyph glyph-name="dcaron" unicode="&#x10f;" horiz-adv-x="601" 
d="M442 0v74q-28 -41 -71 -63.5t-99 -22.5q-75 0 -128.5 35t-81 96.5t-27.5 140.5t27.5 140.5t81 96.5t128.5 35q109 0 166 -81v269h105v-720h-101zM181 127.5q38 -49.5 111 -49.5t111 49.5t38 132.5t-38 132.5t-111 49.5t-111 -49.5t-38 -132.5t38 -132.5zM612 720h115
l-68 -170h-76z" />
    <glyph glyph-name="Dcroat" unicode="&#x110;" horiz-adv-x="728" 
d="M0 407h84v321h251q118 0 198.5 -47t120 -128.5t39.5 -184.5t-39.5 -184.5t-120 -128.5t-198.5 -47h-251v323h-84v76zM335 106q122 0 182 72.5t60 189.5t-60 189.5t-182 72.5h-140v-223h188v-76h-188v-225h140z" />
    <glyph glyph-name="dcroat" unicode="&#x111;" horiz-adv-x="631" 
d="M329 660h109v60h105v-60h88v-76h-88v-584h-101v74q-28 -41 -71 -63.5t-99 -22.5q-75 0 -128.5 35t-81 96.5t-27.5 140.5t27.5 140.5t81 96.5t128.5 35q109 0 166 -81v133h-109v76zM181 127.5q38 -49.5 111 -49.5t111 49.5t38 132.5t-38 132.5t-111 49.5t-111 -49.5
t-38 -132.5t38 -132.5z" />
    <glyph glyph-name="Ebreve" unicode="&#x114;" horiz-adv-x="608" 
d="M65 720h515v-100h-404v-198h374v-98h-374v-224h401v-100h-512v720zM208 802.5q-44 40.5 -49 111.5h84q3 -38 24 -57.5t55 -19.5t55 19.5t24 57.5h84q-4 -71 -48.5 -111.5t-114.5 -40.5t-114 40.5z" />
    <glyph glyph-name="ebreve" unicode="&#x115;" horiz-adv-x="570" 
d="M153 23q-57 35 -87.5 97t-30.5 140t30.5 140t87.5 97t132 35q76 0 132.5 -35t87 -98t30.5 -144v-30h-393q8 -69 44.5 -109t98.5 -40q48 0 82.5 21.5t51.5 61.5h105q-25 -79 -88 -125t-151 -46q-75 0 -132 35zM426 308q-10 63 -46.5 99.5t-94.5 36.5t-94.5 -36.5
t-46.5 -99.5h282zM171 620.5q-44 40.5 -49 111.5h84q3 -38 24 -57.5t55 -19.5t55 19.5t24 57.5h84q-4 -71 -48.5 -111.5t-114.5 -40.5t-114 40.5z" />
    <glyph glyph-name="Edotaccent" unicode="&#x116;" horiz-adv-x="608" 
d="M65 720h515v-100h-404v-198h374v-98h-374v-224h401v-100h-512v720zM270 878h105v-110h-105v110z" />
    <glyph glyph-name="edotaccent" unicode="&#x117;" horiz-adv-x="570" 
d="M153 23q-57 35 -87.5 97t-30.5 140t30.5 140t87.5 97t132 35q76 0 132.5 -35t87 -98t30.5 -144v-30h-393q8 -69 44.5 -109t98.5 -40q48 0 82.5 21.5t51.5 61.5h105q-25 -79 -88 -125t-151 -46q-75 0 -132 35zM426 308q-10 63 -46.5 99.5t-94.5 36.5t-94.5 -36.5
t-46.5 -99.5h282zM232 720h105v-110h-105v110z" />
    <glyph glyph-name="Eogonek" unicode="&#x118;" horiz-adv-x="608" 
d="M65 720h515v-100h-404v-198h374v-98h-374v-224h401v-100h-1q-101 -54 -101 -96q0 -21 14 -31t39 -10q24 0 48 9v-73q-32 -11 -72 -11q-54 0 -87 24t-33 70q0 37 29 67.5t75 50.5h-423v720z" />
    <glyph glyph-name="eogonek" unicode="&#x119;" horiz-adv-x="570" 
d="M208 -188q-33 24 -33 70q0 33 22.5 60.5t59.5 46.5q-68 7 -118 43.5t-77 95.5t-27 132q0 78 30.5 140t87.5 97t132 35q76 0 132.5 -35t87 -98t30.5 -144v-30h-393q8 -69 44.5 -109t98.5 -40q48 0 82.5 21.5t51.5 61.5h105q-19 -59 -59.5 -100t-97.5 -59
q-101 -54 -101 -96q0 -21 14 -31t39 -10q24 0 48 9v-73q-32 -11 -72 -11q-54 0 -87 24zM426 308q-10 63 -46.5 99.5t-94.5 36.5t-94.5 -36.5t-46.5 -99.5h282z" />
    <glyph glyph-name="Ecaron" unicode="&#x11a;" horiz-adv-x="608" 
d="M65 720h515v-100h-404v-198h374v-98h-374v-224h401v-100h-512v720zM130 914h99l93 -90l94 90h99l-124 -146h-138z" />
    <glyph glyph-name="ecaron" unicode="&#x11b;" horiz-adv-x="570" 
d="M153 23q-57 35 -87.5 97t-30.5 140t30.5 140t87.5 97t132 35q76 0 132.5 -35t87 -98t30.5 -144v-30h-393q8 -69 44.5 -109t98.5 -40q48 0 82.5 21.5t51.5 61.5h105q-25 -79 -88 -125t-151 -46q-75 0 -132 35zM426 308q-10 63 -46.5 99.5t-94.5 36.5t-94.5 -36.5
t-46.5 -99.5h282zM92 732h99l93 -90l94 90h99l-124 -146h-138z" />
    <glyph glyph-name="Gcircumflex" unicode="&#x11c;" horiz-adv-x="774" 
d="M191.5 38q-77.5 50 -117 135t-39.5 187q0 103 40 187.5t119 134.5t190 50q91 0 160.5 -33t111.5 -91t55 -133h-114q-15 70 -71 113t-142 43q-77 0 -129.5 -36t-78 -97.5t-25.5 -137.5t25.5 -137.5t78 -97.5t129.5 -36q93 0 149 52t74 143h-253v95h365v-379h-89v127
q-73 -139 -254 -139q-107 0 -184.5 50zM577 780h-99l-94 90l-93 -90h-99l123 146h138z" />
    <glyph glyph-name="gcircumflex" unicode="&#x11d;" horiz-adv-x="601" 
d="M125.5 -165.5q-58.5 46.5 -66.5 129.5h103q14 -91 129 -91q148 0 148 141v62q-57 -81 -167 -81q-75 0 -128.5 34.5t-81 95t-27.5 138.5t27.5 139t81 95.5t128.5 34.5q57 0 100 -22.5t71 -64.5v75h100v-506q0 -113 -70 -169.5t-184 -56.5q-105 0 -163.5 46.5zM181 132
q38 -49 111 -49t111 49t38 131q0 83 -38 131.5t-111 48.5t-111 -48.5t-38 -131.5q0 -82 38 -131zM482 586h-99l-94 90l-93 -90h-99l123 146h138z" />
    <glyph glyph-name="Gbreve" unicode="&#x11e;" horiz-adv-x="774" 
d="M191.5 38q-77.5 50 -117 135t-39.5 187q0 103 40 187.5t119 134.5t190 50q91 0 160.5 -33t111.5 -91t55 -133h-114q-15 70 -71 113t-142 43q-77 0 -129.5 -36t-78 -97.5t-25.5 -137.5t25.5 -137.5t78 -97.5t129.5 -36q93 0 149 52t74 143h-253v95h365v-379h-89v127
q-73 -139 -254 -139q-107 0 -184.5 50zM270 814.5q-44 40.5 -49 111.5h84q3 -38 24 -57.5t55 -19.5t55 19.5t24 57.5h84q-4 -71 -48.5 -111.5t-114.5 -40.5t-114 40.5z" />
    <glyph glyph-name="gbreve" unicode="&#x11f;" horiz-adv-x="601" 
d="M125.5 -165.5q-58.5 46.5 -66.5 129.5h103q14 -91 129 -91q148 0 148 141v62q-57 -81 -167 -81q-75 0 -128.5 34.5t-81 95t-27.5 138.5t27.5 139t81 95.5t128.5 34.5q57 0 100 -22.5t71 -64.5v75h100v-506q0 -113 -70 -169.5t-184 -56.5q-105 0 -163.5 46.5zM181 132
q38 -49 111 -49t111 49t38 131q0 83 -38 131.5t-111 48.5t-111 -48.5t-38 -131.5q0 -82 38 -131zM175 620.5q-44 40.5 -49 111.5h84q3 -38 24 -57.5t55 -19.5t55 19.5t24 57.5h84q-4 -71 -48.5 -111.5t-114.5 -40.5t-114 40.5z" />
    <glyph glyph-name="Gdotaccent" unicode="&#x120;" horiz-adv-x="774" 
d="M191.5 38q-77.5 50 -117 135t-39.5 187q0 103 40 187.5t119 134.5t190 50q91 0 160.5 -33t111.5 -91t55 -133h-114q-15 70 -71 113t-142 43q-77 0 -129.5 -36t-78 -97.5t-25.5 -137.5t25.5 -137.5t78 -97.5t129.5 -36q93 0 149 52t74 143h-253v95h365v-379h-89v127
q-73 -139 -254 -139q-107 0 -184.5 50zM332 890h105v-110h-105v110z" />
    <glyph glyph-name="gdotaccent" unicode="&#x121;" horiz-adv-x="601" 
d="M125.5 -165.5q-58.5 46.5 -66.5 129.5h103q14 -91 129 -91q148 0 148 141v62q-57 -81 -167 -81q-75 0 -128.5 34.5t-81 95t-27.5 138.5t27.5 139t81 95.5t128.5 34.5q57 0 100 -22.5t71 -64.5v75h100v-506q0 -113 -70 -169.5t-184 -56.5q-105 0 -163.5 46.5zM181 132
q38 -49 111 -49t111 49t38 131q0 83 -38 131.5t-111 48.5t-111 -48.5t-38 -131.5q0 -82 38 -131zM237 720h105v-110h-105v110z" />
    <glyph glyph-name="Hcircumflex" unicode="&#x124;" horiz-adv-x="718" 
d="M542 319h-366v-319h-111v720h111v-299h366v299h111v-720h-111v319zM551 768h-99l-94 90l-93 -90h-99l123 146h138z" />
    <glyph glyph-name="hcircumflex" unicode="&#x125;" 
d="M58 720h105v-268q28 37 68.5 58.5t92.5 21.5q90 0 137.5 -56t47.5 -141v-335h-104v324q0 53 -27 84t-82 31q-26 0 -56.5 -12.5t-53.5 -46t-23 -92.5v-288h-105v720zM303 768h-99l-94 90l-93 -90h-99l123 146h138z" />
    <glyph glyph-name="Itilde" unicode="&#x128;" horiz-adv-x="241" 
d="M65 720h111v-720h-111v720zM47 900q17 0 32.5 -5.5t41.5 -17.5l29 -14.5t34 -10.5q18 0 26 10.5t8 37.5h79q0 -132 -103 -132q-27 0 -73 22q-8 4 -29.5 15t-34.5 11q-18 0 -25.5 -10.5t-7.5 -37.5h-80q0 132 103 132z" />
    <glyph glyph-name="itilde" unicode="&#x129;" horiz-adv-x="218" 
d="M56 520h105v-520h-105v520zM35 732q17 0 32.5 -5.5t41.5 -17.5l29 -14.5t34 -10.5q18 0 26 10.5t8 37.5h79q0 -132 -103 -132q-27 0 -73 22q-8 4 -29.5 15t-34.5 11q-18 0 -25.5 -10.5t-7.5 -37.5h-80q0 132 103 132z" />
    <glyph glyph-name="Ibreve" unicode="&#x12c;" horiz-adv-x="241" 
d="M65 720h111v-720h-111v720zM6 802.5q-44 40.5 -49 111.5h84q3 -38 24 -57.5t55 -19.5t55 19.5t24 57.5h84q-4 -71 -48.5 -111.5t-114.5 -40.5t-114 40.5z" />
    <glyph glyph-name="ibreve" unicode="&#x12d;" horiz-adv-x="218" 
d="M56 520h105v-520h-105v520zM-5 620.5q-44 40.5 -49 111.5h84q3 -38 24 -57.5t55 -19.5t55 19.5t24 57.5h84q-4 -71 -48.5 -111.5t-114.5 -40.5t-114 40.5z" />
    <glyph glyph-name="Iogonek" unicode="&#x12e;" horiz-adv-x="241" 
d="M65 720h111v-720q-101 -54 -101 -96q0 -21 14 -31t39 -10q24 0 48 9v-73q-32 -11 -72 -11q-54 0 -87 24t-33 70q0 37 29 67.5t75 50.5h-23v720z" />
    <glyph glyph-name="iogonek" unicode="&#x12f;" horiz-adv-x="218" 
d="M56 520h105v-520q-101 -54 -101 -96q0 -21 14 -31t39 -10q24 0 48 9v-73q-32 -11 -72 -11q-54 0 -87 24t-33 70q0 37 29 67.5t75 50.5h-17v520zM56 720h105v-110h-105v110z" />
    <glyph glyph-name="Idotaccent" unicode="&#x130;" horiz-adv-x="241" 
d="M65 720h111v-720h-111v720zM68 878h105v-110h-105v110z" />
    <glyph glyph-name="dotlessi" unicode="&#x131;" horiz-adv-x="218" 
d="M56 520h105v-520h-105v520z" />
    <glyph glyph-name="Jcircumflex" unicode="&#x134;" horiz-adv-x="547" 
d="M89 52.5q-59 64.5 -59 175.5v40h109v-40q0 -70 29 -106t92 -36t92 36t29 106v492h111v-492q0 -110 -59.5 -175t-172.5 -65q-112 0 -171 64.5zM629 768h-99l-94 90l-93 -90h-99l123 146h138z" />
    <glyph glyph-name="jcircumflex" unicode="&#x135;" horiz-adv-x="225" 
d="M137 -171q-32 -29 -101 -29h-93v86h69q28 0 40 12t12 39v583h105v-595q0 -67 -32 -96zM309 586h-99l-94 90l-93 -90h-99l123 146h138z" />
    <glyph glyph-name="Lacute" unicode="&#x139;" horiz-adv-x="550" 
d="M65 720h111v-620h354v-100h-465v720zM173 914h128l-137 -146h-88z" />
    <glyph glyph-name="lacute" unicode="&#x13a;" horiz-adv-x="311" 
d="M163 720v-583q0 -27 12 -39t40 -12h69v-86h-93q-69 0 -101 29t-32 96v595h105zM163 914h128l-137 -146h-88z" />
    <glyph glyph-name="Lcaron" unicode="&#x13d;" horiz-adv-x="550" 
d="M65 720h111v-620h354v-100h-465v720zM281 720h115l-68 -170h-76z" />
    <glyph glyph-name="lcaron" unicode="&#x13e;" horiz-adv-x="311" 
d="M163 720v-583q0 -27 12 -39t40 -12h69v-86h-93q-69 0 -101 29t-32 96v595h105zM232 720h115l-68 -170h-76z" />
    <glyph glyph-name="Lslash" unicode="&#x141;" horiz-adv-x="569" 
d="M84 321l-84 -38v86l84 38v313h111v-262l183 84v-86l-183 -84v-272h354v-100h-465v321z" />
    <glyph glyph-name="lslash" unicode="&#x142;" horiz-adv-x="311" 
d="M163 720v-284l84 38v-86l-84 -38v-213q0 -27 12 -39t40 -12h69v-86h-93q-69 0 -101 29t-32 96v176l-84 -38v86l84 38v333h105z" />
    <glyph glyph-name="Nacute" unicode="&#x143;" horiz-adv-x="726" 
d="M174 568v-568h-109v720h128l359 -569v569h109v-720h-128zM416 914h128l-137 -146h-88z" />
    <glyph glyph-name="nacute" unicode="&#x144;" 
d="M378 408q-27 31 -82 31q-26 0 -56.5 -12.5t-53.5 -46t-23 -92.5v-288h-105v520h101v-73q28 39 69.5 62t95.5 23q90 0 137.5 -56t47.5 -141v-335h-104v324q0 53 -27 84zM337 732h128l-137 -146h-88z" />
    <glyph glyph-name="Ncaron" unicode="&#x147;" horiz-adv-x="726" 
d="M174 568v-568h-109v720h128l359 -569v569h109v-720h-128zM170 914h99l93 -90l94 90h99l-124 -146h-138z" />
    <glyph glyph-name="ncaron" unicode="&#x148;" 
d="M378 408q-27 31 -82 31q-26 0 -56.5 -12.5t-53.5 -46t-23 -92.5v-288h-105v520h101v-73q28 39 69.5 62t95.5 23q90 0 137.5 -56t47.5 -141v-335h-104v324q0 53 -27 84zM91 732h99l93 -90l94 90h99l-124 -146h-138z" />
    <glyph glyph-name="Obreve" unicode="&#x14e;" horiz-adv-x="769" 
d="M194 38q-79 50 -119 134.5t-40 187.5t40 187.5t119 134.5t190 50t190.5 -50t119.5 -134.5t40 -187.5t-40 -187.5t-119.5 -134.5t-190.5 -50t-190 50zM176.5 222.5q25.5 -61.5 78 -97.5t129.5 -36q78 0 130.5 36t78 97.5t25.5 137.5t-25.5 137.5t-78 97.5t-130.5 36
q-77 0 -129.5 -36t-78 -97.5t-25.5 -137.5t25.5 -137.5zM270 814.5q-44 40.5 -49 111.5h84q3 -38 24 -57.5t55 -19.5t55 19.5t24 57.5h84q-4 -71 -48.5 -111.5t-114.5 -40.5t-114 40.5z" />
    <glyph glyph-name="obreve" unicode="&#x14f;" horiz-adv-x="585" 
d="M155 23q-58 35 -89 97t-31 140t31 140t89 97t137 35t137.5 -35t89.5 -97t31 -140t-31 -140t-89.5 -97t-137.5 -35t-137 35zM181 127.5q38 -49.5 111 -49.5q74 0 112 49.5t38 132.5t-38 132.5t-112 49.5q-73 0 -111 -49.5t-38 -132.5t38 -132.5zM178 620.5
q-44 40.5 -49 111.5h84q3 -38 24 -57.5t55 -19.5t55 19.5t24 57.5h84q-4 -71 -48.5 -111.5t-114.5 -40.5t-114 40.5z" />
    <glyph glyph-name="Racute" unicode="&#x154;" horiz-adv-x="663" 
d="M65 720h309q126 0 189 -55.5t63 -153.5q0 -53 -28.5 -97.5t-83.5 -73.5q77 -32 91 -125l32 -215h-114l-26 181q-8 61 -38.5 88t-90.5 27h-192v-296h-111v720zM366 390q73 0 109 30.5t36 86.5t-36 86.5t-109 30.5h-190v-234h190zM379 914h128l-137 -146h-88z" />
    <glyph glyph-name="racute" unicode="&#x155;" horiz-adv-x="387" 
d="M58 520h101v-90q50 96 161 96h40v-99h-43q-72 0 -113 -37t-41 -125v-265h-105v520zM262 732h128l-137 -146h-88z" />
    <glyph glyph-name="Rcaron" unicode="&#x158;" horiz-adv-x="663" 
d="M65 720h309q126 0 189 -55.5t63 -153.5q0 -53 -28.5 -97.5t-83.5 -73.5q77 -32 91 -125l32 -215h-114l-26 181q-8 61 -38.5 88t-90.5 27h-192v-296h-111v720zM366 390q73 0 109 30.5t36 86.5t-36 86.5t-109 30.5h-190v-234h190zM133 914h99l93 -90l94 90h99l-124 -146
h-138z" />
    <glyph glyph-name="rcaron" unicode="&#x159;" horiz-adv-x="387" 
d="M58 520h101v-90q50 96 161 96h40v-99h-43q-72 0 -113 -37t-41 -125v-265h-105v520zM17 732h99l93 -90l94 90h99l-124 -146h-138z" />
    <glyph glyph-name="Sacute" unicode="&#x15a;" horiz-adv-x="636" 
d="M115.5 52q-82.5 64 -86.5 190h112q3 -86 56 -122.5t137 -36.5q73 0 117 30t44 86q0 31 -15 51.5t-56 37.5t-120 33q-132 26 -192.5 74.5t-60.5 142.5q0 58 32.5 102t90.5 68t132 24q142 0 213.5 -65t74.5 -173h-110q-5 72 -47.5 107.5t-130.5 35.5q-63 0 -101.5 -26
t-38.5 -71q0 -33 13 -53.5t51.5 -37t115.5 -31.5q103 -21 160.5 -50t80.5 -69t23 -97q0 -65 -35 -113.5t-98 -74.5t-145 -26q-134 0 -216.5 64zM372 926h128l-137 -146h-88z" />
    <glyph glyph-name="sacute" unicode="&#x15b;" horiz-adv-x="492" 
d="M88 32.5q-61 44.5 -66 137.5h103q6 -54 37.5 -77t91.5 -23q52 0 81.5 18.5t29.5 51.5q0 22 -9 35.5t-35.5 23.5t-81.5 19q-79 13 -123 35t-62 52.5t-18 74.5q0 70 55.5 111t146.5 41q105 0 162 -46t59 -128h-101q-1 51 -33 71.5t-87 20.5q-43 0 -71 -18t-28 -49
q0 -22 11 -35.5t38.5 -23t82.5 -18.5q77 -13 120.5 -33.5t61 -51t17.5 -75.5q0 -75 -60.5 -116.5t-157.5 -41.5q-103 0 -164 44.5zM299 732h128l-137 -146h-88z" />
    <glyph glyph-name="Scircumflex" unicode="&#x15c;" horiz-adv-x="636" 
d="M115.5 52q-82.5 64 -86.5 190h112q3 -86 56 -122.5t137 -36.5q73 0 117 30t44 86q0 31 -15 51.5t-56 37.5t-120 33q-132 26 -192.5 74.5t-60.5 142.5q0 58 32.5 102t90.5 68t132 24q142 0 213.5 -65t74.5 -173h-110q-5 72 -47.5 107.5t-130.5 35.5q-63 0 -101.5 -26
t-38.5 -71q0 -33 13 -53.5t51.5 -37t115.5 -31.5q103 -21 160.5 -50t80.5 -69t23 -97q0 -65 -35 -113.5t-98 -74.5t-145 -26q-134 0 -216.5 64zM512 780h-99l-94 90l-93 -90h-99l123 146h138z" />
    <glyph glyph-name="scircumflex" unicode="&#x15d;" horiz-adv-x="492" 
d="M88 32.5q-61 44.5 -66 137.5h103q6 -54 37.5 -77t91.5 -23q52 0 81.5 18.5t29.5 51.5q0 22 -9 35.5t-35.5 23.5t-81.5 19q-79 13 -123 35t-62 52.5t-18 74.5q0 70 55.5 111t146.5 41q105 0 162 -46t59 -128h-101q-1 51 -33 71.5t-87 20.5q-43 0 -71 -18t-28 -49
q0 -22 11 -35.5t38.5 -23t82.5 -18.5q77 -13 120.5 -33.5t61 -51t17.5 -75.5q0 -75 -60.5 -116.5t-157.5 -41.5q-103 0 -164 44.5zM439 586h-99l-94 90l-93 -90h-99l123 146h138z" />
    <glyph glyph-name="Scedilla" unicode="&#x15e;" horiz-adv-x="636" 
d="M211 -228v52q33 -6 56 -6q37 0 54 11.5t17 31.5q0 38 -61 38q-21 0 -31 -2v41l39 52q-115 11 -183.5 74.5t-72.5 177.5h112q3 -86 56 -122.5t137 -36.5q73 0 117 30t44 86q0 31 -15 51.5t-56 37.5t-120 33q-132 26 -192.5 74.5t-60.5 142.5q0 58 32.5 102t90.5 68t132 24
q142 0 213.5 -65t74.5 -173h-110q-5 72 -47.5 107.5t-130.5 35.5q-63 0 -101.5 -26t-38.5 -71q0 -33 13 -53.5t51.5 -37t115.5 -31.5q103 -21 160.5 -50t80.5 -69t23 -97q0 -93 -69.5 -150.5t-184.5 -62.5l-43 -46h6q48 0 77.5 -22.5t29.5 -59.5q0 -41 -35.5 -69t-103.5 -28
q-43 0 -76 8z" />
    <glyph glyph-name="scedilla" unicode="&#x15f;" horiz-adv-x="492" 
d="M137 -228v52q33 -6 56 -6q37 0 54 11.5t17 31.5q0 38 -61 38q-21 0 -31 -2v41l39 52q-86 8 -135.5 52.5t-53.5 127.5h103q6 -54 37.5 -77t91.5 -23q52 0 81.5 18.5t29.5 51.5q0 22 -9 35.5t-35.5 23.5t-81.5 19q-79 13 -123 35t-62 52.5t-18 74.5q0 70 55.5 111t146.5 41
q105 0 162 -46t59 -128h-101q-1 51 -33 71.5t-87 20.5q-43 0 -71 -18t-28 -49q0 -22 11 -35.5t38.5 -23t82.5 -18.5q77 -13 120.5 -33.5t61 -51t17.5 -75.5q0 -69 -51 -109.5t-137 -47.5l-43 -46h6q48 0 77.5 -22.5t29.5 -59.5q0 -41 -35.5 -69t-103.5 -28q-43 0 -76 8z" />
    <glyph glyph-name="Scaron" unicode="&#x160;" horiz-adv-x="636" 
d="M115.5 52q-82.5 64 -86.5 190h112q3 -86 56 -122.5t137 -36.5q73 0 117 30t44 86q0 31 -15 51.5t-56 37.5t-120 33q-132 26 -192.5 74.5t-60.5 142.5q0 58 32.5 102t90.5 68t132 24q142 0 213.5 -65t74.5 -173h-110q-5 72 -47.5 107.5t-130.5 35.5q-63 0 -101.5 -26
t-38.5 -71q0 -33 13 -53.5t51.5 -37t115.5 -31.5q103 -21 160.5 -50t80.5 -69t23 -97q0 -65 -35 -113.5t-98 -74.5t-145 -26q-134 0 -216.5 64zM127 926h99l93 -90l94 90h99l-124 -146h-138z" />
    <glyph glyph-name="scaron" unicode="&#x161;" horiz-adv-x="492" 
d="M88 32.5q-61 44.5 -66 137.5h103q6 -54 37.5 -77t91.5 -23q52 0 81.5 18.5t29.5 51.5q0 22 -9 35.5t-35.5 23.5t-81.5 19q-79 13 -123 35t-62 52.5t-18 74.5q0 70 55.5 111t146.5 41q105 0 162 -46t59 -128h-101q-1 51 -33 71.5t-87 20.5q-43 0 -71 -18t-28 -49
q0 -22 11 -35.5t38.5 -23t82.5 -18.5q77 -13 120.5 -33.5t61 -51t17.5 -75.5q0 -75 -60.5 -116.5t-157.5 -41.5q-103 0 -164 44.5zM54 732h99l93 -90l94 90h99l-124 -146h-138z" />
    <glyph glyph-name="uni0162" unicode="&#x162;" horiz-adv-x="623" 
d="M255 620h-237v100h587v-100h-237v-620h-22l-42 -45h6q48 0 77.5 -22.5t29.5 -59.5q0 -41 -35.5 -69t-103.5 -28q-43 0 -76 8v52q33 -6 56 -6q37 0 54 11.5t17 31.5q0 38 -61 38q-21 0 -31 -2v41l38 50h-20v620z" />
    <glyph glyph-name="uni0163" unicode="&#x163;" horiz-adv-x="378" 
d="M215 680v-160h136v-86h-136v-297q0 -27 12 -39t40 -12h84v-86h-75l-42 -45h6q48 0 77.5 -22.5t29.5 -59.5q0 -41 -35.5 -69t-103.5 -28q-43 0 -76 8v52q33 -6 56 -6q37 0 54 11.5t17 31.5q0 38 -61 38q-21 0 -31 -2v41l39 52q-49 7 -72.5 36t-23.5 87v309h-93v86h93v160
h105z" />
    <glyph glyph-name="Tcaron" unicode="&#x164;" horiz-adv-x="623" 
d="M255 620h-237v100h587v-100h-237v-620h-113v620zM119 914h99l93 -90l94 90h99l-124 -146h-138z" />
    <glyph glyph-name="tcaron" unicode="&#x165;" horiz-adv-x="378" 
d="M215 680v-160h136v-86h-136v-297q0 -27 12 -39t40 -12h84v-86h-108q-68 0 -100.5 29t-32.5 96v309h-93v86h93v160h105zM276 720h115l-68 -170h-76z" />
    <glyph glyph-name="Utilde" unicode="&#x168;" horiz-adv-x="690" 
d="M132 61.5q-77 73.5 -77 209.5v449h111v-449q0 -184 179 -184q87 0 133 45.5t46 138.5v449h111v-449q0 -136 -77 -209.5t-213 -73.5t-213 73.5zM271 900q17 0 32.5 -5.5t41.5 -17.5l29 -14.5t34 -10.5q18 0 26 10.5t8 37.5h79q0 -132 -103 -132q-27 0 -73 22
q-8 4 -29.5 15t-34.5 11q-18 0 -25.5 -10.5t-7.5 -37.5h-80q0 132 103 132z" />
    <glyph glyph-name="utilde" unicode="&#x169;" 
d="M189 112q27 -31 82 -31q26 0 56.5 12.5t53.5 46t23 92.5h1v288h105v-520h-101v74q-28 -39 -70 -62.5t-96 -23.5q-90 0 -137.5 56t-47.5 141v335h104v-324q0 -53 27 -84zM210 732q17 0 32.5 -5.5t41.5 -17.5l29 -14.5t34 -10.5q18 0 26 10.5t8 37.5h79q0 -132 -103 -132
q-27 0 -73 22q-8 4 -29.5 15t-34.5 11q-18 0 -25.5 -10.5t-7.5 -37.5h-80q0 132 103 132z" />
    <glyph glyph-name="Ubreve" unicode="&#x16c;" horiz-adv-x="690" 
d="M132 61.5q-77 73.5 -77 209.5v449h111v-449q0 -184 179 -184q87 0 133 45.5t46 138.5v449h111v-449q0 -136 -77 -209.5t-213 -73.5t-213 73.5zM231 802.5q-44 40.5 -49 111.5h84q3 -38 24 -57.5t55 -19.5t55 19.5t24 57.5h84q-4 -71 -48.5 -111.5t-114.5 -40.5t-114 40.5
z" />
    <glyph glyph-name="ubreve" unicode="&#x16d;" 
d="M189 112q27 -31 82 -31q26 0 56.5 12.5t53.5 46t23 92.5h1v288h105v-520h-101v74q-28 -39 -70 -62.5t-96 -23.5q-90 0 -137.5 56t-47.5 141v335h104v-324q0 -53 27 -84zM170 620.5q-44 40.5 -49 111.5h84q3 -38 24 -57.5t55 -19.5t55 19.5t24 57.5h84
q-4 -71 -48.5 -111.5t-114.5 -40.5t-114 40.5z" />
    <glyph glyph-name="Uring" unicode="&#x16e;" horiz-adv-x="690" 
d="M132 61.5q-77 73.5 -77 209.5v449h111v-449q0 -184 179 -184q87 0 133 45.5t46 138.5v449h111v-449q0 -136 -77 -209.5t-213 -73.5t-213 73.5zM275.5 667.5q-31.5 17.5 -49.5 47.5t-18 65q0 36 18 66t49.5 47.5t68.5 17.5t68.5 -17.5t50 -47.5t18.5 -66q0 -35 -18.5 -65
t-50 -47.5t-68.5 -17.5t-68.5 17.5zM300.5 737q17.5 -17 43.5 -17q27 0 44.5 17t17.5 43q0 27 -17.5 44t-44.5 17q-26 0 -43.5 -17t-17.5 -44q0 -26 17.5 -43z" />
    <glyph glyph-name="uring" unicode="&#x16f;" 
d="M189 112q27 -31 82 -31q26 0 56.5 12.5t53.5 46t23 92.5h1v288h105v-520h-101v74q-28 -39 -70 -62.5t-96 -23.5q-90 0 -137.5 56t-47.5 141v335h104v-324q0 -53 27 -84zM214.5 597.5q-31.5 17.5 -49.5 47.5t-18 65q0 36 18 66t49.5 47.5t68.5 17.5t68.5 -17.5t50 -47.5
t18.5 -66q0 -35 -18.5 -65t-50 -47.5t-68.5 -17.5t-68.5 17.5zM239.5 667q17.5 -17 43.5 -17q27 0 44.5 17t17.5 43q0 27 -17.5 44t-44.5 17q-26 0 -43.5 -17t-17.5 -44q0 -26 17.5 -43z" />
    <glyph glyph-name="Uogonek" unicode="&#x172;" horiz-adv-x="690" 
d="M285 -188q-33 24 -33 70q0 32 22 59.5t58 46.5q-130 4 -203.5 77.5t-73.5 205.5v449h111v-449q0 -184 179 -184q87 0 133 45.5t46 138.5v449h111v-449q0 -109 -50 -178t-142 -93q-100 -55 -100 -96q0 -21 14 -31t39 -10q24 0 48 9v-73q-32 -11 -72 -11q-54 0 -87 24z" />
    <glyph glyph-name="uogonek" unicode="&#x173;" 
d="M189 112q27 -31 82 -31q26 0 56.5 12.5t53.5 46t23 92.5h1v288h105v-520h-1q-101 -54 -101 -96q0 -21 14 -31t39 -10q24 0 48 9v-73q-32 -11 -72 -11q-54 0 -87 24t-33 70q0 37 29 67.5t75 50.5h-12v74q-28 -39 -70 -62.5t-96 -23.5q-90 0 -137.5 56t-47.5 141v335h104
v-324q0 -53 27 -84z" />
    <glyph glyph-name="Wcircumflex" unicode="&#x174;" horiz-adv-x="990" 
d="M495 576l-150 -576h-124l-207 720h117l155 -573l150 573h119l150 -573l155 573h116l-206 -720h-125zM688 768h-99l-94 90l-93 -90h-99l123 146h138z" />
    <glyph glyph-name="wcircumflex" unicode="&#x175;" horiz-adv-x="828" 
d="M414 387l-114 -387h-108l-185 520h113l128 -393l114 393h104l114 -393l128 393h113l-185 -520h-108zM607 586h-99l-94 90l-93 -90h-99l123 146h138z" />
    <glyph glyph-name="Ycircumflex" unicode="&#x176;" horiz-adv-x="697" 
d="M294 284l-280 436h128l208 -335l208 335h125l-278 -437v-283h-111v284zM543 768h-99l-94 90l-93 -90h-99l123 146h138z" />
    <glyph glyph-name="ycircumflex" unicode="&#x177;" horiz-adv-x="518" 
d="M29 -112h80q35 0 49.5 13t27.5 49l18 48l-197 522h113l139 -407l139 407h113l-222 -592q-23 -64 -54 -96t-91 -32h-115v88zM451 586h-99l-94 90l-93 -90h-99l123 146h138z" />
    <glyph glyph-name="Ydieresis" unicode="&#x178;" horiz-adv-x="697" 
d="M294 284l-280 436h128l208 -335l208 335h125l-278 -437v-283h-111v284zM205 878h105v-110h-105v110zM392 878h105v-110h-105v110z" />
    <glyph glyph-name="Zacute" unicode="&#x179;" horiz-adv-x="624" 
d="M28 94l424 528l-168 -2h-240v100h546v-93l-423 -529l168 2h261v-100h-568v94zM370 914h128l-137 -146h-88z" />
    <glyph glyph-name="zacute" unicode="&#x17a;" horiz-adv-x="506" 
d="M38 75l291 358h-283v87h412v-75l-291 -358h301v-87h-430v75zM306 732h128l-137 -146h-88z" />
    <glyph glyph-name="Zdotaccent" unicode="&#x17b;" horiz-adv-x="624" 
d="M28 94l424 528l-168 -2h-240v100h546v-93l-423 -529l168 2h261v-100h-568v94zM265 878h105v-110h-105v110z" />
    <glyph glyph-name="zdotaccent" unicode="&#x17c;" horiz-adv-x="506" 
d="M38 75l291 358h-283v87h412v-75l-291 -358h301v-87h-430v75zM201 720h105v-110h-105v110z" />
    <glyph glyph-name="Zcaron" unicode="&#x17d;" horiz-adv-x="624" 
d="M28 94l424 528l-168 -2h-240v100h546v-93l-423 -529l168 2h261v-100h-568v94zM125 914h99l93 -90l94 90h99l-124 -146h-138z" />
    <glyph glyph-name="zcaron" unicode="&#x17e;" horiz-adv-x="506" 
d="M38 75l291 358h-283v87h412v-75l-291 -358h301v-87h-430v75zM61 732h99l93 -90l94 90h99l-124 -146h-138z" />
    <glyph glyph-name="uni01CD" unicode="&#x1cd;" horiz-adv-x="728" 
d="M525 185h-325l-70 -185h-116l286 720h126l288 -720h-119zM488 282l-125 330l-126 -330h251zM170 914h99l93 -90l94 90h99l-124 -146h-138z" />
    <glyph glyph-name="uni01CE" unicode="&#x1ce;" horiz-adv-x="526" 
d="M383 61q-32 -39 -73 -56t-92 -17q-88 0 -138.5 40.5t-50.5 114.5q0 67 48 105.5t145 56.5l157 29v34q0 41 -25.5 59.5t-78.5 18.5q-51 0 -85 -21t-36 -68h-104q2 88 65.5 131.5t159.5 43.5q103 0 155 -40.5t52 -112.5v-379h-99v61zM161 92q24 -20 73 -20q59 0 102 33.5
t43 98.5v52l-139 -29q-54 -11 -78.5 -27.5t-24.5 -53.5q0 -34 24 -54zM73 732h99l93 -90l94 90h99l-124 -146h-138z" />
    <glyph glyph-name="uni01CF" unicode="&#x1cf;" horiz-adv-x="241" 
d="M65 720h111v-720h-111v720zM-72 914h99l93 -90l94 90h99l-124 -146h-138z" />
    <glyph glyph-name="uni01D0" unicode="&#x1d0;" horiz-adv-x="218" 
d="M56 520h105v-520h-105v520zM-84 732h99l93 -90l94 90h99l-124 -146h-138z" />
    <glyph glyph-name="uni01D1" unicode="&#x1d1;" horiz-adv-x="769" 
d="M194 38q-79 50 -119 134.5t-40 187.5t40 187.5t119 134.5t190 50t190.5 -50t119.5 -134.5t40 -187.5t-40 -187.5t-119.5 -134.5t-190.5 -50t-190 50zM176.5 222.5q25.5 -61.5 78 -97.5t129.5 -36q78 0 130.5 36t78 97.5t25.5 137.5t-25.5 137.5t-78 97.5t-130.5 36
q-77 0 -129.5 -36t-78 -97.5t-25.5 -137.5t25.5 -137.5zM192 926h99l93 -90l94 90h99l-124 -146h-138z" />
    <glyph glyph-name="uni01D2" unicode="&#x1d2;" horiz-adv-x="585" 
d="M155 23q-58 35 -89 97t-31 140t31 140t89 97t137 35t137.5 -35t89.5 -97t31 -140t-31 -140t-89.5 -97t-137.5 -35t-137 35zM181 127.5q38 -49.5 111 -49.5q74 0 112 49.5t38 132.5t-38 132.5t-112 49.5q-73 0 -111 -49.5t-38 -132.5t38 -132.5zM100 732h99l93 -90l94 90
h99l-124 -146h-138z" />
    <glyph glyph-name="uni01D3" unicode="&#x1d3;" horiz-adv-x="690" 
d="M132 61.5q-77 73.5 -77 209.5v449h111v-449q0 -184 179 -184q87 0 133 45.5t46 138.5v449h111v-449q0 -136 -77 -209.5t-213 -73.5t-213 73.5zM152 914h99l93 -90l94 90h99l-124 -146h-138z" />
    <glyph glyph-name="uni01D4" unicode="&#x1d4;" 
d="M189 112q27 -31 82 -31q26 0 56.5 12.5t53.5 46t23 92.5h1v288h105v-520h-101v74q-28 -39 -70 -62.5t-96 -23.5q-90 0 -137.5 56t-47.5 141v335h104v-324q0 -53 27 -84zM91 732h99l93 -90l94 90h99l-124 -146h-138z" />
    <glyph glyph-name="Gcaron" unicode="&#x1e6;" horiz-adv-x="774" 
d="M191.5 38q-77.5 50 -117 135t-39.5 187q0 103 40 187.5t119 134.5t190 50q91 0 160.5 -33t111.5 -91t55 -133h-114q-15 70 -71 113t-142 43q-77 0 -129.5 -36t-78 -97.5t-25.5 -137.5t25.5 -137.5t78 -97.5t129.5 -36q93 0 149 52t74 143h-253v95h365v-379h-89v127
q-73 -139 -254 -139q-107 0 -184.5 50zM192 926h99l93 -90l94 90h99l-124 -146h-138z" />
    <glyph glyph-name="gcaron" unicode="&#x1e7;" horiz-adv-x="601" 
d="M125.5 -165.5q-58.5 46.5 -66.5 129.5h103q14 -91 129 -91q148 0 148 141v62q-57 -81 -167 -81q-75 0 -128.5 34.5t-81 95t-27.5 138.5t27.5 139t81 95.5t128.5 34.5q57 0 100 -22.5t71 -64.5v75h100v-506q0 -113 -70 -169.5t-184 -56.5q-105 0 -163.5 46.5zM181 132
q38 -49 111 -49t111 49t38 131q0 83 -38 131.5t-111 48.5t-111 -48.5t-38 -131.5q0 -82 38 -131zM97 732h99l93 -90l94 90h99l-124 -146h-138z" />
    <glyph glyph-name="uni01E8" unicode="&#x1e8;" horiz-adv-x="697" 
d="M65 720h111v-373l364 373h143l-293 -292l293 -428h-135l-236 350l-136 -136v-214h-111v720zM166 914h99l93 -90l94 90h99l-124 -146h-138z" />
    <glyph glyph-name="uni01E9" unicode="&#x1e9;" horiz-adv-x="537" 
d="M58 720h107v-430l222 230h131l-199 -201l215 -319h-126l-162 245l-81 -82v-163h-107v720zM-81 914h99l93 -90l94 90h99l-124 -146h-138z" />
    <glyph glyph-name="uni01EA" unicode="&#x1ea;" horiz-adv-x="769" 
d="M514.5 125q52.5 36 78 97.5t25.5 137.5t-25.5 137.5t-78 97.5t-130.5 36q-77 0 -129.5 -36t-78 -97.5t-25.5 -137.5t25.5 -137.5t78 -97.5t129.5 -36q78 0 130.5 36zM75 547.5q40 84.5 119 134.5t190 50t190.5 -50t119.5 -134.5t40 -187.5q0 -132 -65 -230.5t-185 -129.5
q-101 -54 -101 -96q0 -21 14 -31t39 -10q24 0 48 9v-73q-32 -11 -72 -11q-54 0 -87 24t-33 70q0 32 22 59.5t58 46.5q-107 3 -183 53.5t-115 134t-39 184.5q0 103 40 187.5z" />
    <glyph glyph-name="uni01EB" unicode="&#x1eb;" horiz-adv-x="585" 
d="M404 127.5q38 49.5 38 132.5t-38 132.5t-112 49.5q-73 0 -111 -49.5t-38 -132.5t38 -132.5t111 -49.5q74 0 112 49.5zM66 400q31 62 89 97t137 35t137.5 -35t89.5 -97t31 -140q0 -96 -46.5 -166t-128.5 -95q-100 -53 -100 -95q0 -21 14 -31t39 -10q24 0 48 9v-73
q-32 -11 -72 -11q-54 0 -87 24t-33 70q0 32 22 59.5t59 47.5q-71 6 -123 42.5t-79.5 95.5t-27.5 133q0 78 31 140z" />
    <glyph glyph-name="uni01F4" unicode="&#x1f4;" horiz-adv-x="774" 
d="M191.5 38q-77.5 50 -117 135t-39.5 187q0 103 40 187.5t119 134.5t190 50q91 0 160.5 -33t111.5 -91t55 -133h-114q-15 70 -71 113t-142 43q-77 0 -129.5 -36t-78 -97.5t-25.5 -137.5t25.5 -137.5t78 -97.5t129.5 -36q93 0 149 52t74 143h-253v95h365v-379h-89v127
q-73 -139 -254 -139q-107 0 -184.5 50zM437 926h128l-137 -146h-88z" />
    <glyph glyph-name="uni01F5" unicode="&#x1f5;" horiz-adv-x="601" 
d="M125.5 -165.5q-58.5 46.5 -66.5 129.5h103q14 -91 129 -91q148 0 148 141v62q-57 -81 -167 -81q-75 0 -128.5 34.5t-81 95t-27.5 138.5t27.5 139t81 95.5t128.5 34.5q57 0 100 -22.5t71 -64.5v75h100v-506q0 -113 -70 -169.5t-184 -56.5q-105 0 -163.5 46.5zM181 132
q38 -49 111 -49t111 49t38 131q0 83 -38 131.5t-111 48.5t-111 -48.5t-38 -131.5q0 -82 38 -131zM342 732h128l-137 -146h-88z" />
    <glyph glyph-name="uni01F8" unicode="&#x1f8;" horiz-adv-x="726" 
d="M174 568v-568h-109v720h128l359 -569v569h109v-720h-128zM319 768l-137 146h128l97 -146h-88z" />
    <glyph glyph-name="uni01F9" unicode="&#x1f9;" 
d="M378 408q-27 31 -82 31q-26 0 -56.5 -12.5t-53.5 -46t-23 -92.5v-288h-105v520h101v-73q28 39 69.5 62t95.5 23q90 0 137.5 -56t47.5 -141v-335h-104v324q0 53 -27 84zM240 586l-137 146h128l97 -146h-88z" />
    <glyph glyph-name="uni0226" unicode="&#x226;" horiz-adv-x="728" 
d="M525 185h-325l-70 -185h-116l286 720h126l288 -720h-119zM488 282l-125 330l-126 -330h251zM310 878h105v-110h-105v110z" />
    <glyph glyph-name="uni0227" unicode="&#x227;" horiz-adv-x="526" 
d="M383 61q-32 -39 -73 -56t-92 -17q-88 0 -138.5 40.5t-50.5 114.5q0 67 48 105.5t145 56.5l157 29v34q0 41 -25.5 59.5t-78.5 18.5q-51 0 -85 -21t-36 -68h-104q2 88 65.5 131.5t159.5 43.5q103 0 155 -40.5t52 -112.5v-379h-99v61zM161 92q24 -20 73 -20q59 0 102 33.5
t43 98.5v52l-139 -29q-54 -11 -78.5 -27.5t-24.5 -53.5q0 -34 24 -54zM213 720h105v-110h-105v110z" />
    <glyph glyph-name="uni0228" unicode="&#x228;" horiz-adv-x="608" 
d="M65 720h515v-100h-404v-198h374v-98h-374v-224h401v-100h-219l-42 -45h6q48 0 77.5 -22.5t29.5 -59.5q0 -41 -35.5 -69t-103.5 -28q-43 0 -76 8v52q33 -6 56 -6q37 0 54 11.5t17 31.5q0 38 -61 38q-21 0 -31 -2v41l38 50h-222v720z" />
    <glyph glyph-name="uni0229" unicode="&#x229;" horiz-adv-x="570" 
d="M176 -228v52q33 -6 56 -6q37 0 54 11.5t17 31.5q0 38 -61 38q-21 0 -31 -2v41l39 52q-65 8 -114 44.5t-75 95t-26 130.5q0 78 30.5 140t87.5 97t132 35q76 0 132.5 -35t87 -98t30.5 -144v-30h-393q8 -69 44.5 -109t98.5 -40q48 0 82.5 21.5t51.5 61.5h105
q-22 -70 -74.5 -114.5t-126.5 -54.5l-45 -47h6q48 0 77.5 -22.5t29.5 -59.5q0 -41 -35.5 -69t-103.5 -28q-43 0 -76 8zM426 308q-10 63 -46.5 99.5t-94.5 36.5t-94.5 -36.5t-46.5 -99.5h282z" />
    <glyph glyph-name="uni022E" unicode="&#x22e;" horiz-adv-x="769" 
d="M194 38q-79 50 -119 134.5t-40 187.5t40 187.5t119 134.5t190 50t190.5 -50t119.5 -134.5t40 -187.5t-40 -187.5t-119.5 -134.5t-190.5 -50t-190 50zM176.5 222.5q25.5 -61.5 78 -97.5t129.5 -36q78 0 130.5 36t78 97.5t25.5 137.5t-25.5 137.5t-78 97.5t-130.5 36
q-77 0 -129.5 -36t-78 -97.5t-25.5 -137.5t25.5 -137.5zM332 890h105v-110h-105v110z" />
    <glyph glyph-name="uni022F" unicode="&#x22f;" horiz-adv-x="585" 
d="M155 23q-58 35 -89 97t-31 140t31 140t89 97t137 35t137.5 -35t89.5 -97t31 -140t-31 -140t-89.5 -97t-137.5 -35t-137 35zM181 127.5q38 -49.5 111 -49.5q74 0 112 49.5t38 132.5t-38 132.5t-112 49.5q-73 0 -111 -49.5t-38 -132.5t38 -132.5zM240 720h105v-110h-105
v110z" />
    <glyph glyph-name="uni0237" unicode="&#x237;" horiz-adv-x="225" 
d="M137 -171q-32 -29 -101 -29h-93v86h69q28 0 40 12t12 39v583h105v-595q0 -67 -32 -96z" />
    <glyph glyph-name="circumflex" unicode="&#x2c6;" horiz-adv-x="385" 
d="M385 586h-99l-94 90l-93 -90h-99l123 146h138z" />
    <glyph glyph-name="caron" unicode="&#x2c7;" horiz-adv-x="385" 
d="M0 732h99l93 -90l94 90h99l-124 -146h-138z" />
    <glyph glyph-name="breve" unicode="&#x2d8;" horiz-adv-x="326" 
d="M49 620.5q-44 40.5 -49 111.5h84q3 -38 24 -57.5t55 -19.5t55 19.5t24 57.5h84q-4 -71 -48.5 -111.5t-114.5 -40.5t-114 40.5z" />
    <glyph glyph-name="dotaccent" unicode="&#x2d9;" horiz-adv-x="105" 
d="M0 720h105v-110h-105v110z" />
    <glyph glyph-name="ring" unicode="&#x2da;" horiz-adv-x="273" 
d="M67.5 597.5q-31.5 17.5 -49.5 47.5t-18 65q0 36 18 66t49.5 47.5t68.5 17.5t68.5 -17.5t50 -47.5t18.5 -66q0 -35 -18.5 -65t-50 -47.5t-68.5 -17.5t-68.5 17.5zM92.5 667q17.5 -17 43.5 -17q27 0 44.5 17t17.5 43q0 27 -17.5 44t-44.5 17q-26 0 -43.5 -17t-17.5 -44
q0 -26 17.5 -43z" />
    <glyph glyph-name="ogonek" unicode="&#x2db;" horiz-adv-x="192" 
d="M33 -188q-33 24 -33 70q0 41 34 73t85 51h64l9 -6q-101 -54 -101 -96q0 -21 14 -31t39 -10q24 0 48 9v-73q-32 -11 -72 -11q-54 0 -87 24z" />
    <glyph glyph-name="tilde" unicode="&#x2dc;" horiz-adv-x="353" 
d="M103 732q17 0 32.5 -5.5t41.5 -17.5l29 -14.5t34 -10.5q18 0 26 10.5t8 37.5h79q0 -132 -103 -132q-27 0 -73 22q-8 4 -29.5 15t-34.5 11q-18 0 -25.5 -10.5t-7.5 -37.5h-80q0 132 103 132z" />
    <glyph glyph-name="gravecomb" unicode="&#x300;" horiz-adv-x="0" 
d="M137 586l-137 146h128l97 -146h-88z" />
    <glyph glyph-name="acutecomb" unicode="&#x301;" horiz-adv-x="0" 
d="M97 732h128l-137 -146h-88z" />
    <glyph glyph-name="uni0302" unicode="&#x302;" horiz-adv-x="0" 
d="M385 586h-99l-94 90l-93 -90h-99l123 146h138z" />
    <glyph glyph-name="tildecomb" unicode="&#x303;" horiz-adv-x="0" 
d="M103 732q17 0 32.5 -5.5t41.5 -17.5l29 -14.5t34 -10.5q18 0 26 10.5t8 37.5h79q0 -132 -103 -132q-27 0 -73 22q-8 4 -29.5 15t-34.5 11q-18 0 -25.5 -10.5t-7.5 -37.5h-80q0 132 103 132z" />
    <glyph glyph-name="uni0306" unicode="&#x306;" horiz-adv-x="0" 
d="M49 620.5q-44 40.5 -49 111.5h84q3 -38 24 -57.5t55 -19.5t55 19.5t24 57.5h84q-4 -71 -48.5 -111.5t-114.5 -40.5t-114 40.5z" />
    <glyph glyph-name="uni0307" unicode="&#x307;" horiz-adv-x="0" 
d="M0 720h105v-110h-105v110z" />
    <glyph glyph-name="uni0308" unicode="&#x308;" horiz-adv-x="0" 
d="M0 720h105v-110h-105v110zM187 720h105v-110h-105v110z" />
    <glyph glyph-name="uni030A" unicode="&#x30a;" horiz-adv-x="0" 
d="M67.5 597.5q-31.5 17.5 -49.5 47.5t-18 65q0 36 18 66t49.5 47.5t68.5 17.5t68.5 -17.5t50 -47.5t18.5 -66q0 -35 -18.5 -65t-50 -47.5t-68.5 -17.5t-68.5 17.5zM92.5 667q17.5 -17 43.5 -17q27 0 44.5 17t17.5 43q0 27 -17.5 44t-44.5 17q-26 0 -43.5 -17t-17.5 -44
q0 -26 17.5 -43z" />
    <glyph glyph-name="uni030C" unicode="&#x30c;" horiz-adv-x="0" 
d="M0 732h99l93 -90l94 90h99l-124 -146h-138z" />
    <glyph glyph-name="dotbelowcomb" unicode="&#x323;" horiz-adv-x="0" 
d="M0 -90h105v-110h-105v110z" />
    <glyph glyph-name="uni0327" unicode="&#x327;" horiz-adv-x="0" 
d="M0 -216v52q33 -6 56 -6q37 0 54 11.5t17 31.5q0 38 -61 38q-21 0 -31 -2v41l42 56h73l-48 -51h6q48 0 77.5 -22.5t29.5 -59.5q0 -41 -35.5 -69t-103.5 -28q-43 0 -76 8z" />
    <glyph glyph-name="uni0328" unicode="&#x328;" horiz-adv-x="0" 
d="M33 -188q-33 24 -33 70q0 41 34 73t85 51h64l9 -6q-101 -54 -101 -96q0 -21 14 -31t39 -10q24 0 48 9v-73q-32 -11 -72 -11q-54 0 -87 24z" />
    <glyph glyph-name="uni1E02" unicode="&#x1e02;" horiz-adv-x="654" 
d="M65 720h278q125 0 190 -53t65 -141q0 -102 -86 -149q57 -23 86.5 -67t29.5 -104q0 -95 -64.5 -150.5t-190.5 -55.5h-308v720zM374 96q142 0 142 112t-142 112h-198v-224h198zM348 414q71 0 106 27.5t35 77.5t-35 77.5t-106 27.5h-172v-210h172zM261 878h105v-110h-105
v110z" />
    <glyph glyph-name="uni1E03" unicode="&#x1e03;" horiz-adv-x="601" 
d="M58 720h105v-269q57 81 166 81q75 0 128.5 -35t81 -96.5t27.5 -140.5t-27.5 -140.5t-81 -96.5t-128.5 -35q-56 0 -99 22.5t-71 63.5v-74h-101v720zM198 127.5q38 -49.5 111 -49.5t111 49.5t38 132.5t-38 132.5t-111 49.5t-111 -49.5t-38 -132.5t38 -132.5zM58 878h105
v-110h-105v110z" />
    <glyph glyph-name="uni1E0A" unicode="&#x1e0a;" horiz-adv-x="709" 
d="M65 720h251q118 0 198.5 -47t120 -128.5t39.5 -184.5t-39.5 -184.5t-120 -128.5t-198.5 -47h-251v720zM316 98q122 0 182 72.5t60 189.5t-60 189.5t-182 72.5h-140v-524h140zM282 878h105v-110h-105v110z" />
    <glyph glyph-name="uni1E0B" unicode="&#x1e0b;" horiz-adv-x="601" 
d="M442 0v74q-28 -41 -71 -63.5t-99 -22.5q-75 0 -128.5 35t-81 96.5t-27.5 140.5t27.5 140.5t81 96.5t128.5 35q109 0 166 -81v269h105v-720h-101zM181 127.5q38 -49.5 111 -49.5t111 49.5t38 132.5t-38 132.5t-111 49.5t-111 -49.5t-38 -132.5t38 -132.5zM439 878h105
v-110h-105v110z" />
    <glyph glyph-name="uni1E1E" unicode="&#x1e1e;" horiz-adv-x="580" 
d="M65 720h495v-100h-384v-198h364v-98h-364v-324h-111v720zM260 878h105v-110h-105v110z" />
    <glyph glyph-name="uni1E1F" unicode="&#x1e1f;" horiz-adv-x="378" 
d="M142.5 691q32.5 29 100.5 29h108v-86h-84q-28 0 -40 -12t-12 -39v-63h136v-86h-136v-434h-105v434h-93v86h93v75q0 67 32.5 96zM178 920h105v-110h-105v110z" />
    <glyph glyph-name="uni1E22" unicode="&#x1e22;" horiz-adv-x="718" 
d="M542 319h-366v-319h-111v720h111v-299h366v299h111v-720h-111v319zM306 878h105v-110h-105v110z" />
    <glyph glyph-name="uni1E23" unicode="&#x1e23;" 
d="M58 720h105v-268q28 37 68.5 58.5t92.5 21.5q90 0 137.5 -56t47.5 -141v-335h-104v324q0 53 -27 84t-82 31q-26 0 -56.5 -12.5t-53.5 -46t-23 -92.5v-288h-105v720zM58 878h105v-110h-105v110z" />
    <glyph glyph-name="uni1E28" unicode="&#x1e28;" horiz-adv-x="718" 
d="M542 319h-366v-319h-20l-42 -45h6q48 0 77.5 -22.5t29.5 -59.5q0 -41 -35.5 -69t-103.5 -28q-43 0 -76 8v52q33 -6 56 -6q37 0 54 11.5t17 31.5q0 38 -61 38q-21 0 -31 -2v41l38 50h-20v720h111v-299h366v299h111v-720h-111v319z" />
    <glyph glyph-name="uni1E29" unicode="&#x1e29;" 
d="M58 720h105v-268q28 37 68.5 58.5t92.5 21.5q90 0 137.5 -56t47.5 -141v-335h-104v324q0 53 -27 84t-82 31q-26 0 -56.5 -12.5t-53.5 -46t-23 -92.5v-288h-17l-42 -45h6q48 0 77.5 -22.5t29.5 -59.5q0 -41 -35.5 -69t-103.5 -28q-43 0 -76 8v52q33 -6 56 -6q37 0 54 11.5
t17 31.5q0 38 -61 38q-21 0 -31 -2v41l38 50h-17v720z" />
    <glyph glyph-name="uni1E30" unicode="&#x1e30;" horiz-adv-x="697" 
d="M65 720h111v-373l364 373h143l-293 -292l293 -428h-135l-236 350l-136 -136v-214h-111v720zM411 914h128l-137 -146h-88z" />
    <glyph glyph-name="uni1E31" unicode="&#x1e31;" horiz-adv-x="537" 
d="M58 720h107v-430l222 230h131l-199 -201l215 -319h-126l-162 245l-81 -82v-163h-107v720zM164 914h128l-137 -146h-88z" />
    <glyph glyph-name="uni1E3E" unicode="&#x1e3e;" horiz-adv-x="872" 
d="M172 556v-556h-107v720h153l218 -591l217 591h154v-720h-108v556l-214 -556h-99zM489 914h128l-137 -146h-88z" />
    <glyph glyph-name="uni1E3F" unicode="&#x1e3f;" horiz-adv-x="871" 
d="M683 407.5q-25 31.5 -72 31.5q-44 0 -83.5 -33.5t-39.5 -117.5v-288h-105v324q0 52 -25 83.5t-72 31.5q-44 0 -83.5 -33.5t-39.5 -117.5v-288h-105v520h101v-73q24 39 63 62t92 23q55 0 94.5 -26.5t59.5 -72.5q28 45 70.5 72t100.5 27q55 0 94.5 -26.5t59.5 -71t20 -99.5
v-335h-105v324q0 52 -25 83.5zM488 732h128l-137 -146h-88z" />
    <glyph glyph-name="uni1E40" unicode="&#x1e40;" horiz-adv-x="872" 
d="M172 556v-556h-107v720h153l218 -591l217 591h154v-720h-108v556l-214 -556h-99zM383 878h105v-110h-105v110z" />
    <glyph glyph-name="uni1E41" unicode="&#x1e41;" horiz-adv-x="871" 
d="M683 407.5q-25 31.5 -72 31.5q-44 0 -83.5 -33.5t-39.5 -117.5v-288h-105v324q0 52 -25 83.5t-72 31.5q-44 0 -83.5 -33.5t-39.5 -117.5v-288h-105v520h101v-73q24 39 63 62t92 23q55 0 94.5 -26.5t59.5 -72.5q28 45 70.5 72t100.5 27q55 0 94.5 -26.5t59.5 -71t20 -99.5
v-335h-105v324q0 52 -25 83.5zM383 720h105v-110h-105v110z" />
    <glyph glyph-name="uni1E44" unicode="&#x1e44;" horiz-adv-x="726" 
d="M174 568v-568h-109v720h128l359 -569v569h109v-720h-128zM310 878h105v-110h-105v110z" />
    <glyph glyph-name="uni1E45" unicode="&#x1e45;" 
d="M378 408q-27 31 -82 31q-26 0 -56.5 -12.5t-53.5 -46t-23 -92.5v-288h-105v520h101v-73q28 39 69.5 62t95.5 23q90 0 137.5 -56t47.5 -141v-335h-104v324q0 53 -27 84zM231 720h105v-110h-105v110z" />
    <glyph glyph-name="uni1E56" unicode="&#x1e56;" horiz-adv-x="649" 
d="M65 720h295q84 0 141.5 -30t86 -81t28.5 -116q0 -64 -28.5 -115.5t-86 -81.5t-141.5 -30h-184v-266h-111v720zM357 365q73 0 109 34t36 94t-36 94.5t-109 34.5h-181v-257h181zM269 878h105v-110h-105v110z" />
    <glyph glyph-name="uni1E57" unicode="&#x1e57;" horiz-adv-x="601" 
d="M159 520v-74q28 41 71 63.5t99 22.5q75 0 128.5 -35t81 -96.5t27.5 -140.5t-27.5 -140.5t-81 -96.5t-128.5 -35q-109 0 -166 81v-269h-105v720h101zM198 127.5q38 -49.5 111 -49.5t111 49.5t38 132.5t-38 132.5t-111 49.5t-111 -49.5t-38 -132.5t38 -132.5zM260 720h105
v-110h-105v110z" />
    <glyph glyph-name="uni1E58" unicode="&#x1e58;" horiz-adv-x="663" 
d="M65 720h309q126 0 189 -55.5t63 -153.5q0 -53 -28.5 -97.5t-83.5 -73.5q77 -32 91 -125l32 -215h-114l-26 181q-8 61 -38.5 88t-90.5 27h-192v-296h-111v720zM366 390q73 0 109 30.5t36 86.5t-36 86.5t-109 30.5h-190v-234h190zM273 878h105v-110h-105v110z" />
    <glyph glyph-name="uni1E59" unicode="&#x1e59;" horiz-adv-x="387" 
d="M58 520h101v-90q50 96 161 96h40v-99h-43q-72 0 -113 -37t-41 -125v-265h-105v520zM157 720h105v-110h-105v110z" />
    <glyph glyph-name="uni1E60" unicode="&#x1e60;" horiz-adv-x="636" 
d="M115.5 52q-82.5 64 -86.5 190h112q3 -86 56 -122.5t137 -36.5q73 0 117 30t44 86q0 31 -15 51.5t-56 37.5t-120 33q-132 26 -192.5 74.5t-60.5 142.5q0 58 32.5 102t90.5 68t132 24q142 0 213.5 -65t74.5 -173h-110q-5 72 -47.5 107.5t-130.5 35.5q-63 0 -101.5 -26
t-38.5 -71q0 -33 13 -53.5t51.5 -37t115.5 -31.5q103 -21 160.5 -50t80.5 -69t23 -97q0 -65 -35 -113.5t-98 -74.5t-145 -26q-134 0 -216.5 64zM267 890h105v-110h-105v110z" />
    <glyph glyph-name="uni1E61" unicode="&#x1e61;" horiz-adv-x="492" 
d="M88 32.5q-61 44.5 -66 137.5h103q6 -54 37.5 -77t91.5 -23q52 0 81.5 18.5t29.5 51.5q0 22 -9 35.5t-35.5 23.5t-81.5 19q-79 13 -123 35t-62 52.5t-18 74.5q0 70 55.5 111t146.5 41q105 0 162 -46t59 -128h-101q-1 51 -33 71.5t-87 20.5q-43 0 -71 -18t-28 -49
q0 -22 11 -35.5t38.5 -23t82.5 -18.5q77 -13 120.5 -33.5t61 -51t17.5 -75.5q0 -75 -60.5 -116.5t-157.5 -41.5q-103 0 -164 44.5zM194 720h105v-110h-105v110z" />
    <glyph glyph-name="uni1E6A" unicode="&#x1e6a;" horiz-adv-x="623" 
d="M255 620h-237v100h587v-100h-237v-620h-113v620zM259 878h105v-110h-105v110z" />
    <glyph glyph-name="uni1E6B" unicode="&#x1e6b;" horiz-adv-x="378" 
d="M215 680v-160h136v-86h-136v-297q0 -27 12 -39t40 -12h84v-86h-108q-68 0 -100.5 29t-32.5 96v309h-93v86h93v160h105zM110 880h105v-110h-105v110z" />
    <glyph glyph-name="uni1E7C" unicode="&#x1e7c;" horiz-adv-x="695" 
d="M14 720h118l217 -607l214 607h118l-271 -720h-125zM274 900q17 0 32.5 -5.5t41.5 -17.5l29 -14.5t34 -10.5q18 0 26 10.5t8 37.5h79q0 -132 -103 -132q-27 0 -73 22q-8 4 -29.5 15t-34.5 11q-18 0 -25.5 -10.5t-7.5 -37.5h-80q0 132 103 132z" />
    <glyph glyph-name="uni1E7D" unicode="&#x1e7d;" horiz-adv-x="534" 
d="M7 520h113l148 -414l146 414h113l-203 -520h-114zM193 732q17 0 32.5 -5.5t41.5 -17.5l29 -14.5t34 -10.5q18 0 26 10.5t8 37.5h79q0 -132 -103 -132q-27 0 -73 22q-8 4 -29.5 15t-34.5 11q-18 0 -25.5 -10.5t-7.5 -37.5h-80q0 132 103 132z" />
    <glyph glyph-name="Wgrave" unicode="&#x1e80;" horiz-adv-x="990" 
d="M495 576l-150 -576h-124l-207 720h117l155 -573l150 573h119l150 -573l155 573h116l-206 -720h-125zM451 768l-137 146h128l97 -146h-88z" />
    <glyph glyph-name="wgrave" unicode="&#x1e81;" horiz-adv-x="828" 
d="M414 387l-114 -387h-108l-185 520h113l128 -393l114 393h104l114 -393l128 393h113l-185 -520h-108zM370 586l-137 146h128l97 -146h-88z" />
    <glyph glyph-name="Wacute" unicode="&#x1e82;" horiz-adv-x="990" 
d="M495 576l-150 -576h-124l-207 720h117l155 -573l150 573h119l150 -573l155 573h116l-206 -720h-125zM548 914h128l-137 -146h-88z" />
    <glyph glyph-name="wacute" unicode="&#x1e83;" horiz-adv-x="828" 
d="M414 387l-114 -387h-108l-185 520h113l128 -393l114 393h104l114 -393l128 393h113l-185 -520h-108zM467 732h128l-137 -146h-88z" />
    <glyph glyph-name="Wdieresis" unicode="&#x1e84;" horiz-adv-x="990" 
d="M495 576l-150 -576h-124l-207 720h117l155 -573l150 573h119l150 -573l155 573h116l-206 -720h-125zM349 878h105v-110h-105v110zM536 878h105v-110h-105v110z" />
    <glyph glyph-name="wdieresis" unicode="&#x1e85;" horiz-adv-x="828" 
d="M414 387l-114 -387h-108l-185 520h113l128 -393l114 393h104l114 -393l128 393h113l-185 -520h-108zM269 720h105v-110h-105v110zM456 720h105v-110h-105v110z" />
    <glyph glyph-name="uni1E86" unicode="&#x1e86;" horiz-adv-x="990" 
d="M495 576l-150 -576h-124l-207 720h117l155 -573l150 573h119l150 -573l155 573h116l-206 -720h-125zM443 878h105v-110h-105v110z" />
    <glyph glyph-name="uni1E87" unicode="&#x1e87;" horiz-adv-x="828" 
d="M414 387l-114 -387h-108l-185 520h113l128 -393l114 393h104l114 -393l128 393h113l-185 -520h-108zM362 720h105v-110h-105v110z" />
    <glyph glyph-name="uni1E8A" unicode="&#x1e8a;" horiz-adv-x="664" 
d="M330 277l-191 -277h-125l254 367l-244 353h129l179 -259l179 259h125l-241 -350l255 -370h-129zM280 878h105v-110h-105v110z" />
    <glyph glyph-name="uni1E8B" unicode="&#x1e8b;" horiz-adv-x="514" 
d="M257 183l-132 -183h-120l192 266l-183 254h122l122 -169l121 169h120l-181 -252l192 -268h-122zM205 720h105v-110h-105v110z" />
    <glyph glyph-name="uni1E8E" unicode="&#x1e8e;" horiz-adv-x="697" 
d="M294 284l-280 436h128l208 -335l208 335h125l-278 -437v-283h-111v284zM298 878h105v-110h-105v110z" />
    <glyph glyph-name="uni1E8F" unicode="&#x1e8f;" horiz-adv-x="518" 
d="M29 -112h80q35 0 49.5 13t27.5 49l18 48l-197 522h113l139 -407l139 407h113l-222 -592q-23 -64 -54 -96t-91 -32h-115v88zM206 720h105v-110h-105v110z" />
    <glyph glyph-name="uni1EBC" unicode="&#x1ebc;" horiz-adv-x="608" 
d="M65 720h515v-100h-404v-198h374v-98h-374v-224h401v-100h-512v720zM249 900q17 0 32.5 -5.5t41.5 -17.5l29 -14.5t34 -10.5q18 0 26 10.5t8 37.5h79q0 -132 -103 -132q-27 0 -73 22q-8 4 -29.5 15t-34.5 11q-18 0 -25.5 -10.5t-7.5 -37.5h-80q0 132 103 132z" />
    <glyph glyph-name="uni1EBD" unicode="&#x1ebd;" horiz-adv-x="570" 
d="M153 23q-57 35 -87.5 97t-30.5 140t30.5 140t87.5 97t132 35q76 0 132.5 -35t87 -98t30.5 -144v-30h-393q8 -69 44.5 -109t98.5 -40q48 0 82.5 21.5t51.5 61.5h105q-25 -79 -88 -125t-151 -46q-75 0 -132 35zM426 308q-10 63 -46.5 99.5t-94.5 36.5t-94.5 -36.5
t-46.5 -99.5h282zM211 732q17 0 32.5 -5.5t41.5 -17.5l29 -14.5t34 -10.5q18 0 26 10.5t8 37.5h79q0 -132 -103 -132q-27 0 -73 22q-8 4 -29.5 15t-34.5 11q-18 0 -25.5 -10.5t-7.5 -37.5h-80q0 132 103 132z" />
    <glyph glyph-name="Ygrave" unicode="&#x1ef2;" horiz-adv-x="697" 
d="M294 284l-280 436h128l208 -335l208 335h125l-278 -437v-283h-111v284zM306 768l-137 146h128l97 -146h-88z" />
    <glyph glyph-name="ygrave" unicode="&#x1ef3;" horiz-adv-x="518" 
d="M29 -112h80q35 0 49.5 13t27.5 49l18 48l-197 522h113l139 -407l139 407h113l-222 -592q-23 -64 -54 -96t-91 -32h-115v88zM215 586l-137 146h128l97 -146h-88z" />
    <glyph glyph-name="uni1EF8" unicode="&#x1ef8;" horiz-adv-x="697" 
d="M294 284l-280 436h128l208 -335l208 335h125l-278 -437v-283h-111v284zM277 900q17 0 32.5 -5.5t41.5 -17.5l29 -14.5t34 -10.5q18 0 26 10.5t8 37.5h79q0 -132 -103 -132q-27 0 -73 22q-8 4 -29.5 15t-34.5 11q-18 0 -25.5 -10.5t-7.5 -37.5h-80q0 132 103 132z" />
    <glyph glyph-name="uni1EF9" unicode="&#x1ef9;" horiz-adv-x="518" 
d="M29 -112h80q35 0 49.5 13t27.5 49l18 48l-197 522h113l139 -407l139 407h113l-222 -592q-23 -64 -54 -96t-91 -32h-115v88zM185 732q17 0 32.5 -5.5t41.5 -17.5l29 -14.5t34 -10.5q18 0 26 10.5t8 37.5h79q0 -132 -103 -132q-27 0 -73 22q-8 4 -29.5 15t-34.5 11
q-18 0 -25.5 -10.5t-7.5 -37.5h-80q0 132 103 132z" />
    <glyph glyph-name="endash" unicode="&#x2013;" horiz-adv-x="540" 
d="M39 335h462v-93h-462v93z" />
    <glyph glyph-name="emdash" unicode="&#x2014;" horiz-adv-x="976" 
d="M39 336h898v-92h-898v92z" />
    <glyph glyph-name="quoteleft" unicode="&#x2018;" horiz-adv-x="234" 
d="M44 440l92 280h79l-60 -280h-111z" />
    <glyph glyph-name="quoteright" unicode="&#x2019;" horiz-adv-x="234" 
d="M190 720l-92 -280h-79l60 280h111z" />
    <glyph glyph-name="quotesinglbase" unicode="&#x201a;" horiz-adv-x="234" 
d="M190 140l-92 -280h-79l60 280h111z" />
    <glyph glyph-name="quotedblleft" unicode="&#x201c;" horiz-adv-x="388" 
d="M199 440l91 280h79l-59 -280h-111zM136 720h79l-60 -280h-111z" />
    <glyph glyph-name="quotedblright" unicode="&#x201d;" horiz-adv-x="388" 
d="M190 720l-92 -280h-79l60 280h111zM344 720l-92 -280h-79l60 280h111z" />
    <glyph glyph-name="quotedblbase" unicode="&#x201e;" horiz-adv-x="388" 
d="M190 140l-92 -280h-79l60 280h111zM344 140l-92 -280h-79l60 280h111z" />
    <glyph glyph-name="dagger" unicode="&#x2020;" horiz-adv-x="589" 
d="M239 422h-219v98h219v200h111v-200h219v-98h-219v-622h-111v622z" />
    <glyph glyph-name="daggerdbl" unicode="&#x2021;" horiz-adv-x="589" 
d="M239 0h-219v98h219v324h-219v98h219v200h111v-200h219v-98h-219v-324h219v-98h-219v-200h-111v200z" />
    <glyph glyph-name="ellipsis" unicode="&#x2026;" horiz-adv-x="694" 
d="M45 140h121v-140h-121v140zM287 140h121v-140h-121v140zM528 140h121v-140h-121v140z" />
    <glyph glyph-name="perthousand" unicode="&#x2030;" horiz-adv-x="1280" 
d="M66.5 360q-44.5 60 -44.5 156t44.5 156t128.5 60q83 0 128 -60t45 -156t-45 -156t-128 -60q-84 0 -128.5 60zM195 374q83 0 83 142t-83 142t-83 -142t83 -142zM594 720h88l-382 -720h-87zM571.5 360q44.5 60 128.5 60q83 0 128 -60t45 -156t-45 -156t-128 -60
q-84 0 -128.5 60t-44.5 156t44.5 156zM700 62q83 0 83 142t-83 142t-83 -142t83 -142zM956.5 360q44.5 60 128.5 60q83 0 128 -60t45 -156t-45 -156t-128 -60q-84 0 -128.5 60t-44.5 156t44.5 156zM1085 62q83 0 83 142t-83 142t-83 -142t83 -142z" />
    <glyph glyph-name="Euro" unicode="&#x20ac;" horiz-adv-x="712" 
d="M188 63q-77 75 -99 198h-89v74h81q-1 8 -1 25q0 15 2 45h-82v74h93q26 115 102 184t197 69t194 -68t92 -174h-112q-15 63 -58 102t-116 39t-118 -40.5t-64 -111.5h203v-74h-215q-2 -30 -2 -45q0 -17 1 -25h216v-74h-208q17 -80 62.5 -126t124.5 -46q78 0 122.5 45.5
t56.5 118.5h111q-15 -116 -89 -190.5t-201 -74.5t-204 75z" />
    <glyph glyph-name="uni20BF" unicode="&#x20bf;" horiz-adv-x="654" 
d="M193 0h-128v720h128v114h75v-114h74v114h74v-120q90 -15 136 -64.5t46 -123.5q0 -102 -86 -149q57 -23 86.5 -67t29.5 -104q0 -87 -53.5 -141t-158.5 -63v-116h-74v114h-74v-114h-75v114zM374 96q142 0 142 112t-142 112h-198v-224h198zM348 414q71 0 106 27.5t35 77.5
t-35 77.5t-106 27.5h-172v-210h172z" />
    <glyph glyph-name="uni2117" unicode="&#x2117;" horiz-adv-x="830" 
d="M221.5 35.5q-86.5 47.5 -135.5 132.5t-49 192t49 192t135.5 132.5t193.5 47.5t193.5 -47.5t136 -132.5t49.5 -192t-49.5 -192t-136 -132.5t-193.5 -47.5t-193.5 47.5zM158.5 205.5q37.5 -66.5 104 -102.5t152.5 -36t152.5 36t104 102.5t37.5 154.5t-37.5 154.5
t-104 102.5t-152.5 36t-152.5 -36t-104 -102.5t-37.5 -154.5t37.5 -154.5zM279 562h172q72 0 111 -36.5t39 -94.5t-39 -94.5t-111 -36.5h-92v-142h-80v404zM446 369q74 0 74 62t-74 62h-87v-124h87z" />
    <glyph glyph-name="uni2120" unicode="&#x2120;" horiz-adv-x="636" 
d="M299 720h81l73 -218l73 218h81v-288h-54v216l-76 -216h-48l-76 216v-216h-54v288zM84 529q1 -31 20.5 -44t49.5 -13q26 0 41.5 10.5t15.5 29.5q0 16 -14 25.5t-57 17.5q-55 10 -79.5 30.5t-24.5 58.5q0 36 29.5 58.5t78.5 22.5q56 0 85.5 -25.5t31.5 -71.5h-53
q-2 26 -17.5 39t-46.5 13q-23 0 -37 -9t-14 -25q0 -17 13 -26.5t54 -17.5q62 -11 85.5 -31t23.5 -56q0 -42 -32.5 -65t-84.5 -23q-56 0 -89 26.5t-34 75.5h55z" />
    <glyph glyph-name="trademark" unicode="&#x2122;" horiz-adv-x="636" 
d="M299 720h81l73 -218l73 218h81v-288h-54v216l-76 -216h-48l-76 216v-216h-54v288zM29 720h240v-50h-92v-238h-56v238h-92v50z" />
    <glyph glyph-name="arrowleft" unicode="&#x2190;" horiz-adv-x="964" 
d="M289 310l277 -310h-134l-322 360l322 360h134l-277 -310h565v-100h-565z" />
    <glyph glyph-name="arrowup" unicode="&#x2191;" horiz-adv-x="940" 
d="M420 -12v565l-310 -277v134l360 322l360 -322v-134l-310 277v-565h-100z" />
    <glyph glyph-name="arrowright" unicode="&#x2192;" horiz-adv-x="964" 
d="M110 410h565l-277 310h134l322 -360l-322 -360h-134l277 310h-565v100z" />
    <glyph glyph-name="arrowdown" unicode="&#x2193;" horiz-adv-x="940" 
d="M520 167l310 277v-134l-360 -322l-360 322v134l310 -277v565h100v-565z" />
    <glyph glyph-name="arrowboth" unicode="&#x2194;" horiz-adv-x="1200" 
d="M110 360l304 360h128l-262 -310h640l-262 310h128l304 -360l-304 -360h-128l262 310h-640l262 -310h-128z" />
    <glyph glyph-name="arrowupdn" unicode="&#x2195;" horiz-adv-x="940" 
d="M520 705v-690l310 262v-128l-360 -304l-360 304v128l310 -262v690l-310 -262v128l360 304l360 -304v-128z" />
    <glyph glyph-name="uni2196" unicode="&#x2196;" horiz-adv-x="956" 
d="M249 519v-487l-99 99v557h557l99 -99h-489l475 -473l-70 -70z" />
    <glyph glyph-name="uni2197" unicode="&#x2197;" horiz-adv-x="956" 
d="M164 116l475 473h-489l99 99h557v-557l-99 -99v487l-473 -473z" />
    <glyph glyph-name="uni2198" unicode="&#x2198;" horiz-adv-x="956" 
d="M707 201v487l99 -99v-557h-557l-99 99h489l-475 473l70 70z" />
    <glyph glyph-name="uni2199" unicode="&#x2199;" horiz-adv-x="956" 
d="M792 604l-475 -473h489l-99 -99h-557v557l99 99v-487l473 473z" />
    <glyph glyph-name="minus" unicode="&#x2212;" horiz-adv-x="540" 
d="M39 407h462v-93h-462v93z" />
    <glyph glyph-name="lessequal" unicode="&#x2264;" horiz-adv-x="540" 
d="M501 597v-101l-357 -128l357 -129v-101l-462 180v99zM39 89h462v-90h-462v90z" />
    <glyph glyph-name="greaterequal" unicode="&#x2265;" horiz-adv-x="540" 
d="M39 138v101l357 129l-357 128v101l462 -180v-99zM39 89h462v-90h-462v90z" />
    <glyph glyph-name="filledbox" unicode="&#x25a0;" horiz-adv-x="924" 
d="M924 810v-900h-924v900h924z" />
    <glyph glyph-name="uni25A1" unicode="&#x25a1;" horiz-adv-x="924" 
d="M0 810h924v-900h-924v900zM826 -2v724h-728v-724h728z" />
    <glyph glyph-name="triagup" unicode="&#x25b2;" horiz-adv-x="948" 
d="M474 822l474 -924h-948z" />
    <glyph glyph-name="uni25B3" unicode="&#x25b3;" horiz-adv-x="948" 
d="M474 822l474 -924h-948zM804 -14l-330 646l-330 -646h660z" />
    <glyph glyph-name="uni25B6" unicode="&#x25b6;" horiz-adv-x="948" 
d="M936 360l-924 -474v948z" />
    <glyph glyph-name="uni25B7" unicode="&#x25b7;" horiz-adv-x="948" 
d="M936 360l-924 -474v948zM746 360l-646 330v-660z" />
    <glyph glyph-name="triagdn" unicode="&#x25bc;" horiz-adv-x="948" 
d="M948 822l-474 -924l-474 924h948z" />
    <glyph glyph-name="uni25BD" unicode="&#x25bd;" horiz-adv-x="948" 
d="M948 822l-474 -924l-474 924h948zM474 88l330 646h-660z" />
    <glyph glyph-name="uni25C0" unicode="&#x25c0;" horiz-adv-x="948" 
d="M12 360l924 474v-948z" />
    <glyph glyph-name="uni25C1" unicode="&#x25c1;" horiz-adv-x="948" 
d="M12 360l924 474v-948zM848 30v660l-646 -330z" />
    <glyph glyph-name="circle" unicode="&#x25cb;" horiz-adv-x="948" 
d="M236 -40q-109 62 -172.5 168.5t-63.5 231.5t63.5 231.5t172.5 168.5t238 62t238 -62t172.5 -168.5t63.5 -231.5t-63.5 -231.5t-172.5 -168.5t-238 -62t-238 62zM147.5 173.5q50.5 -85.5 137 -135.5t189.5 -50t189.5 50t137 135.5t50.5 186.5t-50.5 186.5t-137 135.5
t-189.5 50t-189.5 -50t-137 -135.5t-50.5 -186.5t50.5 -186.5z" />
    <glyph glyph-name="uni25CF" unicode="&#x25cf;" horiz-adv-x="948" 
d="M236 -40q-109 62 -172.5 168.5t-63.5 231.5t63.5 231.5t172.5 168.5t238 62t238 -62t172.5 -168.5t63.5 -231.5t-63.5 -231.5t-172.5 -168.5t-238 -62t-238 62z" />
    <glyph glyph-name="uni004A0301" horiz-adv-x="547" 
d="M89 52.5q-59 64.5 -59 175.5v40h109v-40q0 -70 29 -106t92 -36t92 36t29 106v492h111v-492q0 -110 -59.5 -175t-172.5 -65q-112 0 -171 64.5zM489 914h128l-137 -146h-88z" />
    <glyph glyph-name="G.ss06" horiz-adv-x="761" 
d="M194 38q-79 50 -119 134.5t-40 187.5t40 187.5t119 134.5t190 50q133 0 217 -69.5t113 -184.5h-114q-24 71 -78.5 112t-137.5 41q-77 0 -129.5 -36t-78 -97.5t-25.5 -137.5t25.5 -137.5t78 -97.5t129.5 -36q100 0 156 56.5t70 150.5h-256v95h371q1 -10 1 -31
q0 -103 -38.5 -187.5t-115.5 -134.5t-188 -50t-190 50z" />
    <glyph glyph-name="uni01F4.ss06" horiz-adv-x="761" 
d="M194 38q-79 50 -119 134.5t-40 187.5t40 187.5t119 134.5t190 50q133 0 217 -69.5t113 -184.5h-114q-24 71 -78.5 112t-137.5 41q-77 0 -129.5 -36t-78 -97.5t-25.5 -137.5t25.5 -137.5t78 -97.5t129.5 -36q100 0 156 56.5t70 150.5h-256v95h371q1 -10 1 -31
q0 -103 -38.5 -187.5t-115.5 -134.5t-188 -50t-190 50zM437 926h128l-137 -146h-88z" />
    <glyph glyph-name="Gbreve.ss06" horiz-adv-x="761" 
d="M194 38q-79 50 -119 134.5t-40 187.5t40 187.5t119 134.5t190 50q133 0 217 -69.5t113 -184.5h-114q-24 71 -78.5 112t-137.5 41q-77 0 -129.5 -36t-78 -97.5t-25.5 -137.5t25.5 -137.5t78 -97.5t129.5 -36q100 0 156 56.5t70 150.5h-256v95h371q1 -10 1 -31
q0 -103 -38.5 -187.5t-115.5 -134.5t-188 -50t-190 50zM270 814.5q-44 40.5 -49 111.5h84q3 -38 24 -57.5t55 -19.5t55 19.5t24 57.5h84q-4 -71 -48.5 -111.5t-114.5 -40.5t-114 40.5z" />
    <glyph glyph-name="Gcaron.ss06" horiz-adv-x="761" 
d="M194 38q-79 50 -119 134.5t-40 187.5t40 187.5t119 134.5t190 50q133 0 217 -69.5t113 -184.5h-114q-24 71 -78.5 112t-137.5 41q-77 0 -129.5 -36t-78 -97.5t-25.5 -137.5t25.5 -137.5t78 -97.5t129.5 -36q100 0 156 56.5t70 150.5h-256v95h371q1 -10 1 -31
q0 -103 -38.5 -187.5t-115.5 -134.5t-188 -50t-190 50zM192 926h99l93 -90l94 90h99l-124 -146h-138z" />
    <glyph glyph-name="Gcircumflex.ss06" horiz-adv-x="761" 
d="M194 38q-79 50 -119 134.5t-40 187.5t40 187.5t119 134.5t190 50q133 0 217 -69.5t113 -184.5h-114q-24 71 -78.5 112t-137.5 41q-77 0 -129.5 -36t-78 -97.5t-25.5 -137.5t25.5 -137.5t78 -97.5t129.5 -36q100 0 156 56.5t70 150.5h-256v95h371q1 -10 1 -31
q0 -103 -38.5 -187.5t-115.5 -134.5t-188 -50t-190 50zM577 780h-99l-94 90l-93 -90h-99l123 146h138z" />
    <glyph glyph-name="Gdotaccent.ss06" horiz-adv-x="761" 
d="M194 38q-79 50 -119 134.5t-40 187.5t40 187.5t119 134.5t190 50q133 0 217 -69.5t113 -184.5h-114q-24 71 -78.5 112t-137.5 41q-77 0 -129.5 -36t-78 -97.5t-25.5 -137.5t25.5 -137.5t78 -97.5t129.5 -36q100 0 156 56.5t70 150.5h-256v95h371q1 -10 1 -31
q0 -103 -38.5 -187.5t-115.5 -134.5t-188 -50t-190 50zM332 890h105v-110h-105v110z" />
    <glyph glyph-name="J.ss07" horiz-adv-x="388" 
d="M30 95h85q61 0 84 27t23 92v506h111v-523q0 -102 -47 -149.5t-143 -47.5h-113v95z" />
    <glyph glyph-name="uni004A0301.ss07" horiz-adv-x="388" 
d="M30 95h85q61 0 84 27t23 92v506h111v-523q0 -102 -47 -149.5t-143 -47.5h-113v95zM331 914h128l-137 -146h-88z" />
    <glyph glyph-name="Jcircumflex.ss07" horiz-adv-x="388" 
d="M30 95h85q61 0 84 27t23 92v506h111v-523q0 -102 -47 -149.5t-143 -47.5h-113v95zM470 768h-99l-94 90l-93 -90h-99l123 146h138z" />
    <glyph glyph-name="R.ss08" horiz-adv-x="659" 
d="M65 720h305q84 0 141.5 -29.5t86 -80.5t28.5 -115q0 -77 -44 -135t-126 -79l192 -281h-129l-179 270h-164v-270h-111v720zM367 367q73 0 109 34t36 94t-36 94.5t-109 34.5h-191v-257h191z" />
    <glyph glyph-name="Racute.ss08" horiz-adv-x="659" 
d="M65 720h305q84 0 141.5 -29.5t86 -80.5t28.5 -115q0 -77 -44 -135t-126 -79l192 -281h-129l-179 270h-164v-270h-111v720zM367 367q73 0 109 34t36 94t-36 94.5t-109 34.5h-191v-257h191zM379 914h128l-137 -146h-88z" />
    <glyph glyph-name="Rcaron.ss08" horiz-adv-x="659" 
d="M65 720h305q84 0 141.5 -29.5t86 -80.5t28.5 -115q0 -77 -44 -135t-126 -79l192 -281h-129l-179 270h-164v-270h-111v720zM367 367q73 0 109 34t36 94t-36 94.5t-109 34.5h-191v-257h191zM134 914h99l93 -90l94 90h99l-124 -146h-138z" />
    <glyph glyph-name="uni1E58.ss08" horiz-adv-x="659" 
d="M65 720h305q84 0 141.5 -29.5t86 -80.5t28.5 -115q0 -77 -44 -135t-126 -79l192 -281h-129l-179 270h-164v-270h-111v720zM367 367q73 0 109 34t36 94t-36 94.5t-109 34.5h-191v-257h191zM274 878h105v-110h-105v110z" />
    <glyph glyph-name="uni006A0301" horiz-adv-x="225" 
d="M137 -171q-32 -29 -101 -29h-93v86h69q28 0 40 12t12 39v583h105v-595q0 -67 -32 -96zM169 732h128l-137 -146h-88z" />
    <glyph glyph-name="a.ss01" horiz-adv-x="603" 
d="M466 0v76q-28 -42 -71 -65t-100 -23q-75 0 -128.5 35t-81 96.5t-27.5 140.5t27.5 140.5t81 96.5t128.5 35q55 0 97 -21.5t70 -60.5v70h105v-520h-101zM204 127.5q38 -49.5 111 -49.5t111 49.5t38 132.5t-38 132.5t-111 49.5t-111 -49.5t-38 -132.5t38 -132.5z" />
    <glyph glyph-name="aacute.ss01" horiz-adv-x="603" 
d="M466 0v76q-28 -42 -71 -65t-100 -23q-75 0 -128.5 35t-81 96.5t-27.5 140.5t27.5 140.5t81 96.5t128.5 35q55 0 97 -21.5t70 -60.5v70h105v-520h-101zM204 127.5q38 -49.5 111 -49.5t111 49.5t38 132.5t-38 132.5t-111 49.5t-111 -49.5t-38 -132.5t38 -132.5zM365 732
h128l-137 -146h-88z" />
    <glyph glyph-name="abreve.ss01" horiz-adv-x="603" 
d="M466 0v76q-28 -42 -71 -65t-100 -23q-75 0 -128.5 35t-81 96.5t-27.5 140.5t27.5 140.5t81 96.5t128.5 35q55 0 97 -21.5t70 -60.5v70h105v-520h-101zM204 127.5q38 -49.5 111 -49.5t111 49.5t38 132.5t-38 132.5t-111 49.5t-111 -49.5t-38 -132.5t38 -132.5zM198 620.5
q-44 40.5 -49 111.5h84q3 -38 24 -57.5t55 -19.5t55 19.5t24 57.5h84q-4 -71 -48.5 -111.5t-114.5 -40.5t-114 40.5z" />
    <glyph glyph-name="uni01CE.ss01" horiz-adv-x="603" 
d="M466 0v76q-28 -42 -71 -65t-100 -23q-75 0 -128.5 35t-81 96.5t-27.5 140.5t27.5 140.5t81 96.5t128.5 35q55 0 97 -21.5t70 -60.5v70h105v-520h-101zM204 127.5q38 -49.5 111 -49.5t111 49.5t38 132.5t-38 132.5t-111 49.5t-111 -49.5t-38 -132.5t38 -132.5zM120 732h99
l93 -90l94 90h99l-124 -146h-138z" />
    <glyph glyph-name="acircumflex.ss01" horiz-adv-x="603" 
d="M466 0v76q-28 -42 -71 -65t-100 -23q-75 0 -128.5 35t-81 96.5t-27.5 140.5t27.5 140.5t81 96.5t128.5 35q55 0 97 -21.5t70 -60.5v70h105v-520h-101zM204 127.5q38 -49.5 111 -49.5t111 49.5t38 132.5t-38 132.5t-111 49.5t-111 -49.5t-38 -132.5t38 -132.5zM505 586
h-99l-94 90l-93 -90h-99l123 146h138z" />
    <glyph glyph-name="adieresis.ss01" horiz-adv-x="603" 
d="M466 0v76q-28 -42 -71 -65t-100 -23q-75 0 -128.5 35t-81 96.5t-27.5 140.5t27.5 140.5t81 96.5t128.5 35q55 0 97 -21.5t70 -60.5v70h105v-520h-101zM204 127.5q38 -49.5 111 -49.5t111 49.5t38 132.5t-38 132.5t-111 49.5t-111 -49.5t-38 -132.5t38 -132.5zM167 720
h105v-110h-105v110zM354 720h105v-110h-105v110z" />
    <glyph glyph-name="uni0227.ss01" horiz-adv-x="603" 
d="M466 0v76q-28 -42 -71 -65t-100 -23q-75 0 -128.5 35t-81 96.5t-27.5 140.5t27.5 140.5t81 96.5t128.5 35q55 0 97 -21.5t70 -60.5v70h105v-520h-101zM204 127.5q38 -49.5 111 -49.5t111 49.5t38 132.5t-38 132.5t-111 49.5t-111 -49.5t-38 -132.5t38 -132.5zM260 720
h105v-110h-105v110z" />
    <glyph glyph-name="agrave.ss01" horiz-adv-x="603" 
d="M466 0v76q-28 -42 -71 -65t-100 -23q-75 0 -128.5 35t-81 96.5t-27.5 140.5t27.5 140.5t81 96.5t128.5 35q55 0 97 -21.5t70 -60.5v70h105v-520h-101zM204 127.5q38 -49.5 111 -49.5t111 49.5t38 132.5t-38 132.5t-111 49.5t-111 -49.5t-38 -132.5t38 -132.5zM268 586
l-137 146h128l97 -146h-88z" />
    <glyph glyph-name="aogonek.ss01" horiz-adv-x="603" 
d="M566 0q-101 -54 -101 -96q0 -21 14 -31t39 -10q24 0 48 9v-73q-32 -11 -72 -11q-54 0 -87 24t-33 70q0 37 29 67.5t75 50.5h-12v76q-28 -42 -71 -65t-100 -23q-75 0 -128.5 35t-81 96.5t-27.5 140.5t27.5 140.5t81 96.5t128.5 35q55 0 97 -21.5t70 -60.5v70h105v-520h-1z
M204 127.5q38 -49.5 111 -49.5t111 49.5t38 132.5t-38 132.5t-111 49.5t-111 -49.5t-38 -132.5t38 -132.5z" />
    <glyph glyph-name="aring.ss01" horiz-adv-x="603" 
d="M466 0v76q-28 -42 -71 -65t-100 -23q-75 0 -128.5 35t-81 96.5t-27.5 140.5t27.5 140.5t81 96.5t128.5 35q55 0 97 -21.5t70 -60.5v70h105v-520h-101zM204 127.5q38 -49.5 111 -49.5t111 49.5t38 132.5t-38 132.5t-111 49.5t-111 -49.5t-38 -132.5t38 -132.5z
M243.5 597.5q-31.5 17.5 -49.5 47.5t-18 65q0 36 18 66t49.5 47.5t68.5 17.5t68.5 -17.5t50 -47.5t18.5 -66q0 -35 -18.5 -65t-50 -47.5t-68.5 -17.5t-68.5 17.5zM268.5 667q17.5 -17 43.5 -17q27 0 44.5 17t17.5 43q0 27 -17.5 44t-44.5 17q-26 0 -43.5 -17t-17.5 -44
q0 -26 17.5 -43z" />
    <glyph glyph-name="atilde.ss01" horiz-adv-x="603" 
d="M466 0v76q-28 -42 -71 -65t-100 -23q-75 0 -128.5 35t-81 96.5t-27.5 140.5t27.5 140.5t81 96.5t128.5 35q55 0 97 -21.5t70 -60.5v70h105v-520h-101zM204 127.5q38 -49.5 111 -49.5t111 49.5t38 132.5t-38 132.5t-111 49.5t-111 -49.5t-38 -132.5t38 -132.5zM239 732
q17 0 32.5 -5.5t41.5 -17.5l29 -14.5t34 -10.5q18 0 26 10.5t8 37.5h79q0 -132 -103 -132q-27 0 -73 22q-8 4 -29.5 15t-34.5 11q-18 0 -25.5 -10.5t-7.5 -37.5h-80q0 132 103 132z" />
    <glyph glyph-name="l.ss02" horiz-adv-x="221" 
d="M58 720h105v-720h-105v720z" />
    <glyph glyph-name="lacute.ss02" horiz-adv-x="221" 
d="M58 720h105v-720h-105v720zM163 932h128l-137 -146h-88z" />
    <glyph glyph-name="lcaron.ss02" horiz-adv-x="221" 
d="M58 720h105v-720h-105v720zM232 720h115l-68 -170h-76z" />
    <glyph glyph-name="lslash.ss02" horiz-adv-x="221" 
d="M58 301l-84 -38v86l84 38v333h105v-284l84 38v-86l-84 -38v-350h-105v301z" />
    <glyph glyph-name="t.ss03" horiz-adv-x="358" 
d="M110 434h-93v86h93v160h105v-160h116v-86h-116v-434h-105v434z" />
    <glyph glyph-name="tcaron.ss03" horiz-adv-x="358" 
d="M110 434h-93v86h93v160h105v-160h116v-86h-116v-434h-105v434zM276 720h115l-68 -170h-76z" />
    <glyph glyph-name="uni0163.ss03" horiz-adv-x="358" 
d="M110 434h-93v86h93v160h105v-160h116v-86h-116v-434h-17l-42 -45h6q48 0 77.5 -22.5t29.5 -59.5q0 -41 -35.5 -69t-103.5 -28q-43 0 -76 8v52q33 -6 56 -6q37 0 54 11.5t17 31.5q0 38 -61 38q-21 0 -31 -2v41l38 50h-17v434z" />
    <glyph glyph-name="uni1E6B.ss03" horiz-adv-x="358" 
d="M110 434h-93v86h93v160h105v-160h116v-86h-116v-434h-105v434zM110 880h105v-110h-105v110z" />
    <glyph glyph-name="u.ss04" 
d="M115.5 46q-57.5 58 -57.5 150v324h104v-316q0 -60 31 -94t91 -34q59 0 90 34t31 94v316h105v-324q0 -92 -57.5 -150t-168.5 -58t-168.5 58z" />
    <glyph glyph-name="uacute.ss04" 
d="M115.5 46q-57.5 58 -57.5 150v324h104v-316q0 -60 31 -94t91 -34q59 0 90 34t31 94v316h105v-324q0 -92 -57.5 -150t-168.5 -58t-168.5 58zM337 732h128l-137 -146h-88z" />
    <glyph glyph-name="ubreve.ss04" 
d="M115.5 46q-57.5 58 -57.5 150v324h104v-316q0 -60 31 -94t91 -34q59 0 90 34t31 94v316h105v-324q0 -92 -57.5 -150t-168.5 -58t-168.5 58zM170 620.5q-44 40.5 -49 111.5h84q3 -38 24 -57.5t55 -19.5t55 19.5t24 57.5h84q-4 -71 -48.5 -111.5t-114.5 -40.5t-114 40.5z
" />
    <glyph glyph-name="uni01D4.ss04" 
d="M115.5 46q-57.5 58 -57.5 150v324h104v-316q0 -60 31 -94t91 -34q59 0 90 34t31 94v316h105v-324q0 -92 -57.5 -150t-168.5 -58t-168.5 58zM91 732h99l93 -90l94 90h99l-124 -146h-138z" />
    <glyph glyph-name="ucircumflex.ss04" 
d="M115.5 46q-57.5 58 -57.5 150v324h104v-316q0 -60 31 -94t91 -34q59 0 90 34t31 94v316h105v-324q0 -92 -57.5 -150t-168.5 -58t-168.5 58zM476 586h-99l-94 90l-93 -90h-99l123 146h138z" />
    <glyph glyph-name="udieresis.ss04" 
d="M115.5 46q-57.5 58 -57.5 150v324h104v-316q0 -60 31 -94t91 -34q59 0 90 34t31 94v316h105v-324q0 -92 -57.5 -150t-168.5 -58t-168.5 58zM138 720h105v-110h-105v110zM325 720h105v-110h-105v110z" />
    <glyph glyph-name="ugrave.ss04" 
d="M115.5 46q-57.5 58 -57.5 150v324h104v-316q0 -60 31 -94t91 -34q59 0 90 34t31 94v316h105v-324q0 -92 -57.5 -150t-168.5 -58t-168.5 58zM240 586l-137 146h128l97 -146h-88z" />
    <glyph glyph-name="uogonek.ss04" 
d="M212 -188q-33 24 -33 70q0 33 22 60t59 47q-99 6 -150.5 63t-51.5 144v324h104v-316q0 -60 31 -94t91 -34q59 0 90 34t31 94v316h105v-324q0 -71 -35.5 -123.5t-104.5 -73.5q-100 -53 -100 -95q0 -21 14 -31t39 -10q24 0 48 9v-73q-32 -11 -72 -11q-54 0 -87 24z" />
    <glyph glyph-name="uring.ss04" 
d="M115.5 46q-57.5 58 -57.5 150v324h104v-316q0 -60 31 -94t91 -34q59 0 90 34t31 94v316h105v-324q0 -92 -57.5 -150t-168.5 -58t-168.5 58zM214.5 597.5q-31.5 17.5 -49.5 47.5t-18 65q0 36 18 66t49.5 47.5t68.5 17.5t68.5 -17.5t50 -47.5t18.5 -66q0 -35 -18.5 -65
t-50 -47.5t-68.5 -17.5t-68.5 17.5zM239.5 667q17.5 -17 43.5 -17q27 0 44.5 17t17.5 43q0 27 -17.5 44t-44.5 17q-26 0 -43.5 -17t-17.5 -44q0 -26 17.5 -43z" />
    <glyph glyph-name="utilde.ss04" 
d="M115.5 46q-57.5 58 -57.5 150v324h104v-316q0 -60 31 -94t91 -34q59 0 90 34t31 94v316h105v-324q0 -92 -57.5 -150t-168.5 -58t-168.5 58zM210 732q17 0 32.5 -5.5t41.5 -17.5l29 -14.5t34 -10.5q18 0 26 10.5t8 37.5h79q0 -132 -103 -132q-27 0 -73 22q-8 4 -29.5 15
t-34.5 11q-18 0 -25.5 -10.5t-7.5 -37.5h-80q0 132 103 132z" />
    <glyph glyph-name="y.ss05" horiz-adv-x="536" 
d="M218 11l-211 509h113l149 -387l147 387h113l-292 -720h-103z" />
    <glyph glyph-name="yacute.ss05" horiz-adv-x="536" 
d="M218 11l-211 509h113l149 -387l147 387h113l-292 -720h-103zM321 732h128l-137 -146h-88z" />
    <glyph glyph-name="ycircumflex.ss05" horiz-adv-x="536" 
d="M218 11l-211 509h113l149 -387l147 387h113l-292 -720h-103zM460 586h-99l-94 90l-93 -90h-99l123 146h138z" />
    <glyph glyph-name="ydieresis.ss05" horiz-adv-x="536" 
d="M218 11l-211 509h113l149 -387l147 387h113l-292 -720h-103zM122 720h105v-110h-105v110zM309 720h105v-110h-105v110z" />
    <glyph glyph-name="uni1E8F.ss05" horiz-adv-x="536" 
d="M218 11l-211 509h113l149 -387l147 387h113l-292 -720h-103zM215 720h105v-110h-105v110z" />
    <glyph glyph-name="ygrave.ss05" horiz-adv-x="536" 
d="M218 11l-211 509h113l149 -387l147 387h113l-292 -720h-103zM224 586l-137 146h128l97 -146h-88z" />
    <glyph glyph-name="uni1EF9.ss05" horiz-adv-x="536" 
d="M218 11l-211 509h113l149 -387l147 387h113l-292 -720h-103zM194 732q17 0 32.5 -5.5t41.5 -17.5l29 -14.5t34 -10.5q18 0 26 10.5t8 37.5h79q0 -132 -103 -132q-27 0 -73 22q-8 4 -29.5 15t-34.5 11q-18 0 -25.5 -10.5t-7.5 -37.5h-80q0 132 103 132z" />
    <glyph glyph-name="three.ss09" horiz-adv-x="585" 
d="M113.5 48.5q-67.5 60.5 -68.5 169.5h109q2 -65 39 -100t105 -35q65 0 102.5 37t37.5 95q0 72 -47 107.5t-148 35.5h-41v79l195 186h-331v97h466v-90l-196 -190q105 -17 159 -74t54 -153q0 -62 -30.5 -113.5t-87 -81.5t-132.5 -30q-118 0 -185.5 60.5z" />
    <glyph glyph-name="six.ss09" horiz-adv-x="581" 
d="M162.5 19.5q-55.5 31.5 -85 86.5t-29.5 126q0 89 44 150h-1l247 338h124l-180 -244h11q75 0 130.5 -31t84.5 -86.5t29 -126.5t-29 -126t-84.5 -86.5t-130.5 -31.5t-130.5 31.5zM195 123.5q36 -41.5 98 -41.5q61 0 97 41.5t36 108.5q0 68 -35.5 109t-97.5 41t-98 -41
t-36 -109q0 -67 36 -108.5z" />
    <glyph glyph-name="nine.ss09" horiz-adv-x="581" 
d="M418.5 700.5q55.5 -31.5 85 -86.5t29.5 -126q0 -89 -44 -150h1l-247 -338h-124l180 244h-11q-75 0 -130.5 31t-84.5 86.5t-29 126.5t29 126t84.5 86.5t130.5 31.5t130.5 -31.5zM190.5 379q35.5 -41 97.5 -41t98 41t36 109q0 67 -36 108.5t-98 41.5q-61 0 -97 -41.5
t-36 -108.5q0 -68 35.5 -109z" />
    <glyph glyph-name="one.ss10" horiz-adv-x="340" 
d="M164 623h-121v97h232v-720h-111v623z" />
    <glyph glyph-name="four.ss10" horiz-adv-x="611" 
d="M30 262l311 458h116l-312 -465h236v185h108v-185h98v-97h-96v-158h-112v158h-349v104z" />
    <glyph glyph-name="at.ss11" horiz-adv-x="920" 
d="M242.5 -62q-97.5 54 -152.5 150.5t-55 219.5t55 219.5t152.5 150.5t221.5 54t219.5 -50t148.5 -140.5t53 -209.5q0 -115 -53.5 -184.5t-147.5 -69.5q-44 0 -73.5 19.5t-41.5 55.5q-22 -36 -55.5 -55.5t-77.5 -19.5q-57 0 -99.5 29.5t-65 81t-22.5 116.5t23 116.5t65 81
t99 29.5q76 0 123 -61v49h91v-292q0 -39 13.5 -53.5t42.5 -14.5q44 0 66.5 47.5t22.5 124.5q0 99 -41.5 171t-116.5 110t-173 38q-97 0 -174.5 -42t-121 -120t-43.5 -181t43.5 -181t121 -120.5t174.5 -42.5q114 0 209 63v-90q-96 -53 -209 -53q-124 0 -221.5 54z
M372.5 198.5q27.5 -39.5 79.5 -39.5t80.5 40t28.5 106t-29 106t-80 40q-52 0 -79.5 -39.5t-27.5 -106.5t27.5 -106.5z" />
    <glyph glyph-name="copyright.ss13" horiz-adv-x="593" 
d="M203.5 373.5q-36.5 40.5 -36.5 103.5t36.5 103.5t97.5 40.5q55 0 87 -28.5t38 -76.5h-63q-4 25 -20.5 38.5t-41.5 13.5q-34 0 -52 -25t-18 -66t18 -66t52 -25q25 0 41.5 14.5t20.5 39.5h63q-6 -48 -39 -77.5t-86 -29.5q-61 0 -97.5 40.5zM71 609q34 58 93.5 90.5
t132.5 32.5t132.5 -32.5t93 -90.5t33.5 -132t-33.5 -132t-93 -90.5t-132.5 -32.5t-132.5 32.5t-93.5 90.5t-34 132t34 132zM153.5 334q54.5 -53 143.5 -53q88 0 142.5 53t54.5 143t-54.5 143t-142.5 53q-89 0 -143.5 -53t-54.5 -143t54.5 -143z" />
    <glyph glyph-name="registered.ss13" horiz-adv-x="593" 
d="M188 615h126q49 0 73.5 -22t24.5 -60q0 -21 -11 -38.5t-31 -28.5q31 -15 36 -52l11 -75h-59l-9 64q-2 22 -13 32t-31 10h-60v-106h-57v276zM71 609q34 58 93.5 90.5t132.5 32.5t132.5 -32.5t93 -90.5t33.5 -132t-33.5 -132t-93 -90.5t-132.5 -32.5t-132.5 32.5
t-93.5 90.5t-34 132t34 132zM153.5 334q54.5 -53 143.5 -53q88 0 142.5 53t54.5 143t-54.5 143t-142.5 53q-89 0 -143.5 -53t-54.5 -143t54.5 -143zM305 490q48 0 48 39q0 38 -48 38h-60v-77h60z" />
    <glyph glyph-name="uni2117.ss13" horiz-adv-x="593" 
d="M202 615h119q50 0 77 -25.5t27 -65.5t-27 -65t-77 -25h-60v-95h-59v276zM71 609q34 58 93.5 90.5t132.5 32.5t132.5 -32.5t93 -90.5t33.5 -132t-33.5 -132t-93 -90.5t-132.5 -32.5t-132.5 32.5t-93.5 90.5t-34 132t34 132zM153.5 334q54.5 -53 143.5 -53q88 0 142.5 53
t54.5 143t-54.5 143t-142.5 53q-89 0 -143.5 -53t-54.5 -143t54.5 -143zM318 484q48 0 48 40q0 41 -48 41h-57v-81h57z" />
    <glyph glyph-name="trademark.ss14" horiz-adv-x="830" 
d="M387 479h89l45 -155l45 155h89v-238h-57v172l-52 -172h-50l-52 172v-172h-57v238zM86 552q49 85 135.5 132.5t193.5 47.5t193.5 -47.5t136 -132.5t49.5 -192t-49.5 -192t-136 -132.5t-193.5 -47.5t-193.5 47.5t-135.5 132.5t-49 192t49 192zM155 203.5
q38 -67.5 105.5 -104t154.5 -36.5t155 36.5t106 104t38 156.5t-38 156.5t-106 104t-155 36.5t-154.5 -36.5t-105.5 -104t-38 -156.5t38 -156.5zM165 479h203v-52h-72v-186h-59v186h-72v52z" />
    <glyph glyph-name="uni2120.ss14" horiz-adv-x="830" 
d="M390 479h88l46 -157l45 157h88v-238h-56v175l-53 -175h-49l-53 172v-172h-56v238zM86 552q49 85 135.5 132.5t193.5 47.5t193.5 -47.5t136 -132.5t49.5 -192t-49.5 -192t-136 -132.5t-193.5 -47.5t-193.5 47.5t-135.5 132.5t-49 192t49 192zM155 203.5
q38 -67.5 105.5 -104t154.5 -36.5t155 36.5t106 104t38 156.5t-38 156.5t-106 104t-155 36.5t-154.5 -36.5t-105.5 -104t-38 -156.5t38 -156.5zM219 320q0 -22 13.5 -30t36.5 -8q18 0 28.5 6.5t10.5 19.5q0 10 -10.5 16t-42.5 12q-48 7 -69 26t-21 52q0 32 26 51.5t71 19.5
q47 0 73.5 -21t27.5 -61h-57q-1 35 -44 35q-17 0 -26 -6t-9 -16q0 -11 10 -17.5t39 -11.5q53 -9 73.5 -26.5t20.5 -49.5q0 -37 -28.5 -56.5t-75.5 -19.5q-50 0 -78 23t-28 62h59z" />
    <glyph glyph-name="cent.ss12" horiz-adv-x="547" 
d="M247 -9q-96 13 -152.5 87t-56.5 182t56.5 182t152.5 87v105h75v-104q84 -9 135 -59.5t62 -131.5h-107q-10 48 -42.5 75.5t-82.5 27.5q-68 0 -104.5 -49.5t-36.5 -132.5t36.5 -132.5t104.5 -49.5q50 0 83 28.5t42 78.5h107q-11 -81 -63 -133t-134 -62v-104h-75v105z" />
    <glyph glyph-name="dollar.ss12" horiz-adv-x="636" 
d="M273 -9q-110 13 -175.5 76.5t-68.5 174.5h112q3 -86 56 -122.5t137 -36.5q73 0 117 30t44 86q0 31 -15 51.5t-56 37.5t-120 33q-132 26 -192.5 74.5t-60.5 142.5q0 80 61.5 132.5t160.5 60.5v103h93v-105q112 -14 168.5 -76.5t59.5 -158.5h-110q-5 72 -47.5 107.5
t-130.5 35.5q-63 0 -101.5 -26t-38.5 -71q0 -33 13 -53.5t51.5 -37t115.5 -31.5q103 -21 160.5 -50t80.5 -69t23 -97q0 -92 -66.5 -148.5t-177.5 -64.5v-103h-93v105z" />
    <glyph glyph-name="Euro.ss12" horiz-adv-x="630" 
d="M265.5 57.5q-82.5 69.5 -110.5 184.5h-129v74h117q-2 28 -2 44t2 46h-117v74h129q28 114 111 183t214 69q67 0 124 -18v-102q-53 20 -118 20q-85 0 -138 -40.5t-75 -111.5h331v-74h-346q-2 -30 -2 -46t2 -44h346v-74h-332q22 -71 75.5 -112.5t138.5 -41.5q65 0 118 20
v-102q-57 -18 -124 -18q-132 0 -214.5 69.5z" />
    <glyph glyph-name="sterling.ss12" horiz-adv-x="581" 
d="M20 97h176q-5 85 -49 194h-109v74h77q-24 54 -36.5 92t-12.5 72q0 56 29 102.5t82.5 73.5t123.5 27q114 0 179 -64t66 -178h-109q1 71 -36.5 108t-99.5 37q-59 0 -93 -29t-34 -80q0 -31 12 -66t39 -95h229v-74h-198q41 -101 46 -194h253v-97h-535v97z" />
    <glyph glyph-name="uni030C.alt" horiz-adv-x="0" 
d="M29 720h115l-68 -170h-76z" />
    <glyph glyph-name="uni0308.case" horiz-adv-x="0" 
d="M0 720h105v-110h-105v110zM187 720h105v-110h-105v110z" />
    <glyph glyph-name="uni0307.case" horiz-adv-x="0" 
d="M0 720h105v-110h-105v110z" />
    <glyph glyph-name="gravecomb.case" horiz-adv-x="0" 
d="M137 586l-137 146h128l97 -146h-88z" />
    <glyph glyph-name="acutecomb.case" horiz-adv-x="0" 
d="M97 732h128l-137 -146h-88z" />
    <glyph glyph-name="uni0302.case" horiz-adv-x="0" 
d="M385 586h-99l-94 90l-93 -90h-99l123 146h138z" />
    <glyph glyph-name="uni030C.case" horiz-adv-x="0" 
d="M0 732h99l93 -90l94 90h99l-124 -146h-138z" />
    <glyph glyph-name="uni0306.case" horiz-adv-x="0" 
d="M49 620.5q-44 40.5 -49 111.5h84q3 -38 24 -57.5t55 -19.5t55 19.5t24 57.5h84q-4 -71 -48.5 -111.5t-114.5 -40.5t-114 40.5z" />
    <glyph glyph-name="uni030A.case" horiz-adv-x="0" 
d="M67.5 597.5q-31.5 17.5 -49.5 47.5t-18 65q0 36 18 66t49.5 47.5t68.5 17.5t68.5 -17.5t50 -47.5t18.5 -66q0 -35 -18.5 -65t-50 -47.5t-68.5 -17.5t-68.5 17.5zM92.5 667q17.5 -17 43.5 -17q27 0 44.5 17t17.5 43q0 27 -17.5 44t-44.5 17q-26 0 -43.5 -17t-17.5 -44
q0 -26 17.5 -43z" />
    <glyph glyph-name="tildecomb.case" horiz-adv-x="0" 
d="M103 732q17 0 32.5 -5.5t41.5 -17.5l29 -14.5t34 -10.5q18 0 26 10.5t8 37.5h79q0 -132 -103 -132q-27 0 -73 22q-8 4 -29.5 15t-34.5 11q-18 0 -25.5 -10.5t-7.5 -37.5h-80q0 132 103 132z" />
    <glyph glyph-name="dieresis.case" horiz-adv-x="292" 
d="M0 720h105v-110h-105v110zM187 720h105v-110h-105v110z" />
    <glyph glyph-name="dotaccent.case" horiz-adv-x="105" 
d="M0 720h105v-110h-105v110z" />
    <glyph glyph-name="grave.case" horiz-adv-x="225" 
d="M137 586l-137 146h128l97 -146h-88z" />
    <glyph glyph-name="acute.case" horiz-adv-x="225" 
d="M97 732h128l-137 -146h-88z" />
    <glyph glyph-name="circumflex.case" horiz-adv-x="385" 
d="M385 586h-99l-94 90l-93 -90h-99l123 146h138z" />
    <glyph glyph-name="caron.case" horiz-adv-x="385" 
d="M0 732h99l93 -90l94 90h99l-124 -146h-138z" />
    <glyph glyph-name="breve.case" horiz-adv-x="326" 
d="M49 620.5q-44 40.5 -49 111.5h84q3 -38 24 -57.5t55 -19.5t55 19.5t24 57.5h84q-4 -71 -48.5 -111.5t-114.5 -40.5t-114 40.5z" />
    <glyph glyph-name="ring.case" horiz-adv-x="273" 
d="M67.5 597.5q-31.5 17.5 -49.5 47.5t-18 65q0 36 18 66t49.5 47.5t68.5 17.5t68.5 -17.5t50 -47.5t18.5 -66q0 -35 -18.5 -65t-50 -47.5t-68.5 -17.5t-68.5 17.5zM92.5 667q17.5 -17 43.5 -17q27 0 44.5 17t17.5 43q0 27 -17.5 44t-44.5 17q-26 0 -43.5 -17t-17.5 -44
q0 -26 17.5 -43z" />
    <glyph glyph-name="tilde.case" horiz-adv-x="353" 
d="M103 732q17 0 32.5 -5.5t41.5 -17.5l29 -14.5t34 -10.5q18 0 26 10.5t8 37.5h79q0 -132 -103 -132q-27 0 -73 22q-8 4 -29.5 15t-34.5 11q-18 0 -25.5 -10.5t-7.5 -37.5h-80q0 132 103 132z" />
  </font>
</defs>
</svg>
