<?xml version="1.0" standalone="no"?>
<!DOCTYPE svg PUBLIC "-//W3C//DTD SVG 1.1//EN" "http://www.w3.org/Graphics/SVG/1.1/DTD/svg11.dtd" >
<svg xmlns="http://www.w3.org/2000/svg" xmlns:xlink="http://www.w3.org/1999/xlink" version="1.1">
<metadata>
Created by FontForge 20201107 at Mon Sep 19 21:02:22 2022
 By 
Copyright (c) 2022 Ivo Dolenc
</metadata>
<defs>
<font id="Aspekta-550" horiz-adv-x="573" >
  <font-face 
    font-family="Aspekta 550"
    font-weight="550"
    font-stretch="normal"
    units-per-em="1000"
    panose-1="0 0 0 0 0 0 0 0 0 0"
    ascent="800"
    descent="-200"
    x-height="520"
    cap-height="720"
    bbox="-84 -236 1264 932"
    underline-thickness="50"
    underline-position="-155"
    unicode-range="U+0020-25CF"
  />
<missing-glyph horiz-adv-x="671" 
d="M70 720h531v-720h-531v720z" />
    <glyph glyph-name=".notdef" horiz-adv-x="671" 
d="M70 720h531v-720h-531v720z" />
    <glyph glyph-name=".null" horiz-adv-x="0" 
 />
    <glyph glyph-name="nonmarkingreturn" horiz-adv-x="333" 
 />
    <glyph glyph-name="space" unicode=" " horiz-adv-x="212" 
 />
    <glyph glyph-name="space" unicode="&#xa0;" horiz-adv-x="212" 
 />
    <glyph glyph-name="exclam" unicode="!" horiz-adv-x="210" 
d="M44 500v220h123v-220l-27 -287h-69zM39 147h133v-147h-133v147z" />
    <glyph glyph-name="quotedbl" unicode="&#x22;" horiz-adv-x="449" 
d="M185 720l-17 -291h-87l-18 291h122zM385 720l-17 -291h-87l-18 291h122z" />
    <glyph glyph-name="numbersign" unicode="#" horiz-adv-x="716" 
d="M400 189h-151l-37 -189h-108l37 189h-100l19 96h99l30 151h-99l18 96h99l37 188h108l-37 -188h151l37 188h109l-37 -188h100l-19 -96h-99l-30 -151h99l-18 -96h-99l-37 -189h-109zM418 285l30 151h-151l-30 -151h151z" />
    <glyph glyph-name="dollar" unicode="$" horiz-adv-x="641" 
d="M284 -10q-116 11 -184.5 75t-71.5 177h122q4 -127 134 -147v224q-123 26 -179.5 75t-56.5 141q0 83 65 136.5t171 59.5v103h76v-104q117 -12 176.5 -75.5t62.5 -162.5h-120q-3 58 -32 91t-87 42v-206q100 -20 155.5 -49t78 -68.5t22.5 -96.5q0 -95 -70 -152.5t-186 -63.5
v-103h-76v104zM182.5 494.5q8.5 -17.5 32 -31.5t69.5 -27v192q-51 -5 -80.5 -29t-29.5 -61q0 -26 8.5 -43.5zM455 124.5q35 27.5 35 75.5q0 26 -10.5 43.5t-38.5 31.5t-81 27v-210q60 5 95 32.5z" />
    <glyph glyph-name="percent" unicode="%" horiz-adv-x="898" 
d="M67 360q-45 60 -45 156t45 156t129 60q85 0 129.5 -60t44.5 -156t-44.5 -156t-129.5 -60q-84 0 -129 60zM196 378q79 0 79 138t-79 138t-79 -138t79 -138zM595 720h90l-382 -720h-90zM573 360q45 60 129 60q85 0 129.5 -60t44.5 -156t-44.5 -156t-129.5 -60
q-84 0 -129 60t-45 156t45 156zM702 66q79 0 79 138t-79 138t-79 -138t79 -138z" />
    <glyph glyph-name="ampersand" unicode="&#x26;" horiz-adv-x="693" 
d="M144 14.5q-56 26.5 -85.5 73.5t-29.5 106q0 74 42 122.5t115 86.5q-42 46 -60 79.5t-18 82.5q0 78 55.5 122.5t139.5 44.5q85 0 140 -44.5t55 -122.5q0 -64 -38.5 -106.5t-107.5 -80.5l143 -158q34 65 35 144h105q-3 -130 -67 -225l125 -139h-143l-54 60
q-92 -72 -218 -72q-78 0 -134 26.5zM184.5 120q34.5 -31 96.5 -31q83 0 145 48l-171 189q-50 -28 -77.5 -58.5t-27.5 -71.5q0 -45 34.5 -76zM238.5 510.5q13.5 -22.5 45.5 -58.5q50 26 76.5 51t26.5 59t-23 54t-58 20t-58 -20t-23 -54q0 -29 13.5 -51.5z" />
    <glyph glyph-name="quotesingle" unicode="'" horiz-adv-x="249" 
d="M185 720l-17 -291h-87l-18 291h122z" />
    <glyph glyph-name="parenleft" unicode="(" horiz-adv-x="311" 
d="M49.5 50.5q-36.5 120.5 -36.5 249.5t36.5 249.5t109.5 250.5h107q-72 -133 -104 -251t-32 -249t32 -249t104 -251h-107q-73 130 -109.5 250.5z" />
    <glyph glyph-name="parenright" unicode=")" horiz-adv-x="309" 
d="M112 51q32 118 32 249t-32 249t-104 251h107q73 -130 109.5 -250.5t36.5 -249.5t-36.5 -249.5t-109.5 -250.5h-107q72 133 104 251z" />
    <glyph glyph-name="asterisk" unicode="*" horiz-adv-x="477" 
d="M239 448l-97 -127l-66 50l93 124l-136 41l24 79l140 -43v148h83v-147l140 42l24 -79l-136 -41l93 -124l-66 -50z" />
    <glyph glyph-name="plus" unicode="+" horiz-adv-x="540" 
d="M38 410h181v182h101v-182h182v-101h-182v-181h-101v181h-181v101z" />
    <glyph glyph-name="comma" unicode="," horiz-adv-x="251" 
d="M208 147l-96 -291h-93l59 291h130z" />
    <glyph glyph-name="hyphen" unicode="-" horiz-adv-x="376" 
d="M38 340h301v-100h-301v100z" />
    <glyph glyph-name="period" unicode="." horiz-adv-x="219" 
d="M43 147h133v-147h-133v147z" />
    <glyph glyph-name="slash" unicode="/" horiz-adv-x="394" 
d="M272 720h112l-262 -720h-112z" />
    <glyph glyph-name="zero" unicode="0" horiz-adv-x="628" 
d="M109 87.5q-64 99.5 -64 272.5t64 272.5t205 99.5t205.5 -99.5t64.5 -272.5t-64.5 -272.5t-205.5 -99.5t-205 99.5zM205 162q32 -68 109 -68q78 0 110 68t32 198t-32 198t-110 68q-77 0 -109 -68t-32 -198t32 -198z" />
    <glyph glyph-name="one" unicode="1" horiz-adv-x="382" 
d="M196 583l-156 -111v131l164 117h115v-720h-123v583z" />
    <glyph glyph-name="two" unicode="2" horiz-adv-x="576" 
d="M43 101l286 266q39 38 61 76t22 80q0 48 -32 75.5t-88 27.5q-60 0 -95.5 -35t-34.5 -103h-119q0 115 66 179.5t183 64.5q71 0 125.5 -27t84.5 -73.5t30 -103.5q0 -117 -124 -231l-205 -191h337v-106h-497v101z" />
    <glyph glyph-name="three" unicode="3" horiz-adv-x="593" 
d="M111 48.5q-66 60.5 -68 171.5h120q5 -129 138 -129q62 0 98.5 31.5t36.5 84.5q0 61 -39 86.5t-116 25.5h-59v96h49q71 0 108.5 29t37.5 83q0 48 -33.5 75t-87.5 27q-123 0 -126 -126h-119q3 110 64.5 169.5t183.5 59.5q74 0 128 -27t82.5 -72.5t28.5 -98.5
q0 -48 -26.5 -91.5t-80.5 -68.5q63 -21 95 -65t32 -105q0 -62 -30.5 -111t-88 -77t-136.5 -28q-126 0 -192 60.5z" />
    <glyph glyph-name="four" unicode="4" horiz-adv-x="631" 
d="M31 269l344 451h133v-460h98v-106h-98v-154h-123v154h-354v115zM387 260v322l-241 -322h241z" />
    <glyph glyph-name="five" unicode="5" horiz-adv-x="576" 
d="M115.5 46q-65.5 58 -73.5 154h119q5 -51 39.5 -80.5t88.5 -29.5q61 0 97 40t36 105t-36 104.5t-97 39.5q-46 0 -74 -19.5t-47 -56.5h-114l61 417h395v-106h-298l-27 -179q50 39 122 39q77 0 130 -32t79.5 -86t26.5 -121q0 -72 -31.5 -128t-89 -87.5t-133.5 -31.5
q-108 0 -173.5 58z" />
    <glyph glyph-name="six" unicode="6" horiz-adv-x="603" 
d="M227 1q-37 13 -69 38q-61 47 -87 126.5t-26 186.5q0 179 69 279.5t198 100.5q92 0 156.5 -54t78.5 -147h-115q-10 49 -42 75.5t-77 26.5q-72 0 -111.5 -61.5t-41.5 -179.5q28 38 69.5 59t94.5 21q77 0 130.5 -32t80 -86t26.5 -120q0 -72 -30 -128t-86.5 -87t-132.5 -31
q-48 0 -85 13zM217.5 129.5q34.5 -39.5 94.5 -39.5t95 39.5t35 102.5q0 64 -35 103.5t-95 39.5t-94.5 -40t-34.5 -103t34.5 -102.5z" />
    <glyph glyph-name="seven" unicode="7" horiz-adv-x="514" 
d="M372 614h-353v106h476v-98l-268 -622h-126z" />
    <glyph glyph-name="eight" unicode="8" horiz-adv-x="591" 
d="M159 15q-60 27 -93 77t-33 115q0 62 31.5 107t88.5 69q-43 23 -67.5 61t-24.5 91q0 61 31 105.5t84.5 68t119.5 23.5t119.5 -23.5t84.5 -68t31 -105.5q0 -53 -24.5 -91t-67.5 -61q56 -24 88 -69t32 -107q0 -65 -33.5 -114.5t-93 -77t-136.5 -27.5t-137 27zM193.5 123
q37.5 -33 102.5 -33t102.5 33t37.5 90t-38 90.5t-102 33.5t-102 -33.5t-38 -90.5t37.5 -90zM209.5 453q33.5 -28 86.5 -28t86.5 28t33.5 76t-34 77t-86 29q-53 0 -86.5 -28.5t-33.5 -77.5q0 -48 33.5 -76z" />
    <glyph glyph-name="nine" unicode="9" horiz-adv-x="603" 
d="M376 719q37 -13 69 -38q61 -47 87 -126.5t26 -186.5q0 -179 -69 -279.5t-198 -100.5q-92 0 -156.5 54t-78.5 147h115q10 -49 42 -75.5t77 -26.5q72 0 111.5 61.5t41.5 179.5q-28 -38 -69.5 -59t-94.5 -21q-77 0 -130.5 32t-80 86t-26.5 120q0 72 30 128t86.5 87t132.5 31
q48 0 85 -13zM196 384.5q35 -39.5 95 -39.5t94.5 40t34.5 103t-34.5 102.5t-94.5 39.5t-95 -39.5t-35 -102.5q0 -64 35 -103.5z" />
    <glyph glyph-name="colon" unicode=":" horiz-adv-x="219" 
d="M43 500h133v-147h-133v147zM43 147h133v-147h-133v147z" />
    <glyph glyph-name="semicolon" unicode=";" horiz-adv-x="253" 
d="M77 500h133v-147h-133v147zM208 147l-96 -291h-93l59 291h130z" />
    <glyph glyph-name="less" unicode="&#x3c;" horiz-adv-x="540" 
d="M502 610v-118l-350 -132l350 -132v-117l-464 191v116z" />
    <glyph glyph-name="equal" unicode="=" horiz-adv-x="540" 
d="M38 505h464v-101h-464v101zM38 317h464v-101h-464v101z" />
    <glyph glyph-name="greater" unicode="&#x3e;" horiz-adv-x="540" 
d="M38 111v117l350 132l-350 132v118l464 -192v-116z" />
    <glyph glyph-name="question" unicode="?" horiz-adv-x="536" 
d="M208 300.5q10 33.5 32.5 60t66.5 60.5q42 31 61 56t19 65q0 39 -31.5 63.5t-88.5 24.5q-59 0 -91.5 -33t-32.5 -97h-118q0 113 62.5 172.5t179.5 59.5q75 0 130 -23.5t84.5 -65.5t29.5 -97q0 -59 -23.5 -97t-81.5 -81q-40 -30 -59.5 -49.5t-28.5 -43.5t-9 -62h-111
q0 54 10 87.5zM187 147h133v-147h-133v147z" />
    <glyph glyph-name="at" unicode="@" horiz-adv-x="921" 
d="M242 -62q-98 54 -153 150.5t-55 219.5t55 219.5t153 150.5t223 54t221 -49.5t149 -140.5t53 -210q0 -75 -25 -132.5t-71.5 -89.5t-110.5 -32q-44 0 -74 17t-44 50q-51 -67 -142 -67q-72 0 -115 34.5t-43 96.5q0 57 40.5 89t121.5 47l124 23v24q0 30 -18.5 44t-59.5 14
q-39 0 -64.5 -16.5t-26.5 -52.5h-100q0 75 55 113t136 38q87 0 132 -34.5t45 -95.5v-169q0 -38 14 -52.5t44 -14.5q42 0 64.5 46.5t22.5 119.5q0 99 -41 170t-115.5 108t-171.5 37t-173.5 -41.5t-120 -118.5t-43.5 -179t43.5 -179.5t120 -119.5t173.5 -42q115 0 211 62v-92
q-98 -53 -211 -53q-125 0 -223 54zM439 158q46 0 78 25t32 75v35l-105 -21q-42 -8 -60 -20.5t-18 -39.5q0 -54 73 -54z" />
    <glyph glyph-name="A" unicode="A" horiz-adv-x="731" 
d="M524 174h-319l-65 -174h-128l282 720h141l284 -720h-130zM484 281l-119 322l-120 -322h239z" />
    <glyph glyph-name="B" unicode="B" horiz-adv-x="661" 
d="M63 720h284q127 0 193 -52.5t66 -140.5q0 -101 -87 -149q58 -24 87.5 -68t29.5 -103q0 -97 -65.5 -152t-193.5 -55h-314v720zM377 105q133 0 133 105q0 106 -133 106h-191v-211h191zM351 418q67 0 100 26t33 73q0 46 -33 72t-100 26h-165v-197h165z" />
    <glyph glyph-name="C" unicode="C" horiz-adv-x="735" 
d="M194 38q-80 50 -120.5 134.5t-40.5 187.5t40.5 187.5t120.5 134.5t192 50q85 0 151.5 -33.5t107.5 -92.5t53 -134h-124q-15 67 -64.5 108t-123.5 41q-111 0 -168 -73.5t-57 -187.5t57 -187.5t168 -73.5q79 0 129.5 47t62.5 123h124q-10 -81 -50.5 -144.5t-108.5 -100
t-157 -36.5q-112 0 -192 50z" />
    <glyph glyph-name="D" unicode="D" horiz-adv-x="715" 
d="M63 720h259q119 0 199.5 -47t120.5 -128t40 -185t-40 -185t-120.5 -128t-199.5 -47h-259v720zM322 108q117 0 174.5 69.5t57.5 182.5t-57.5 182.5t-174.5 69.5h-136v-504h136z" />
    <glyph glyph-name="E" unicode="E" horiz-adv-x="613" 
d="M63 720h522v-111h-399v-184h370v-107h-370v-207h396v-111h-519v720z" />
    <glyph glyph-name="F" unicode="F" horiz-adv-x="584" 
d="M63 720h502v-111h-379v-184h360v-107h-360v-318h-123v720z" />
    <glyph glyph-name="G" unicode="G" horiz-adv-x="778" 
d="M190.5 38q-77.5 50 -117.5 134.5t-40 187.5t40.5 187.5t120.5 134.5t192 50q91 0 161 -33t113 -91.5t56 -132.5h-126q-15 66 -68.5 106.5t-135.5 40.5q-111 0 -168 -74t-57 -188t57 -188t168 -74q88 0 141.5 48.5t72.5 134.5h-244v102h368v-383h-95v126
q-75 -138 -255 -138q-106 0 -183.5 50z" />
    <glyph glyph-name="H" unicode="H" horiz-adv-x="722" 
d="M536 314h-350v-314h-123v720h123v-294h350v294h123v-720h-123v314z" />
    <glyph glyph-name="I" unicode="I" horiz-adv-x="249" 
d="M63 720h123v-720h-123v720z" />
    <glyph glyph-name="J" unicode="J" horiz-adv-x="553" 
d="M89 53q-60 65 -60 176v40h120v-40q0 -66 27.5 -99.5t86.5 -33.5t86.5 33.5t27.5 99.5v491h123v-491q0 -111 -61.5 -176t-175.5 -65t-174 65z" />
    <glyph glyph-name="K" unicode="K" horiz-adv-x="706" 
d="M63 720h123v-362l352 362h156l-292 -292l292 -428h-148l-230 341l-130 -130v-211h-123v720z" />
    <glyph glyph-name="L" unicode="L" horiz-adv-x="554" 
d="M63 720h123v-609h349v-111h-472v720z" />
    <glyph glyph-name="M" unicode="M" horiz-adv-x="879" 
d="M182 550v-550h-119v720h174l203 -575l203 575h173v-720h-118v551l-205 -551h-107z" />
    <glyph glyph-name="N" unicode="N" horiz-adv-x="729" 
d="M183 553v-553h-120v720h139l344 -552v552h120v-720h-139z" />
    <glyph glyph-name="O" unicode="O" horiz-adv-x="772" 
d="M194 38q-80 50 -120.5 134.5t-40.5 187.5t40.5 187.5t120.5 134.5t192 50t192 -50t120.5 -134.5t40.5 -187.5t-40.5 -187.5t-120.5 -134.5t-192 -50t-192 50zM218 172.5q57 -73.5 168 -73.5q112 0 168.5 73.5t56.5 187.5t-56.5 187.5t-168.5 73.5q-111 0 -168 -73.5
t-57 -187.5t57 -187.5z" />
    <glyph glyph-name="P" unicode="P" horiz-adv-x="654" 
d="M63 720h300q84 0 142.5 -30t87.5 -82t29 -118t-29 -117.5t-87.5 -81.5t-142.5 -30h-177v-261h-123v720zM358 368q69 0 104 32.5t35 89.5t-35 89.5t-104 32.5h-172v-244h172z" />
    <glyph glyph-name="Q" unicode="Q" horiz-adv-x="772" 
d="M507 6q-54 -18 -121 -18q-112 0 -192 50t-120.5 134.5t-40.5 187.5t40.5 187.5t120.5 134.5t192 50t192 -50t120.5 -134.5t40.5 -187.5q0 -97 -36.5 -178.5t-105.5 -130.5l92 -132h-122zM218 172.5q57 -73.5 168 -73.5q25 0 53 5l-97 139h122l66 -95q41 34 61 89t20 123
q0 114 -56.5 187.5t-168.5 73.5q-111 0 -168 -73.5t-57 -187.5t57 -187.5z" />
    <glyph glyph-name="R" unicode="R" horiz-adv-x="669" 
d="M63 720h316q126 0 189.5 -56.5t63.5 -153.5q0 -54 -29 -98.5t-83 -74.5q41 -17 63 -49.5t29 -78.5l32 -209h-127l-24 177q-9 60 -39 87t-87 27h-181v-291h-123v720zM366 392q70 0 104.5 29t34.5 83t-34.5 83t-104.5 29h-180v-224h180z" />
    <glyph glyph-name="S" unicode="S" horiz-adv-x="641" 
d="M113.5 53q-82.5 65 -85.5 189h122q3 -82 53.5 -116.5t131.5 -34.5q70 0 112.5 28t42.5 81q0 29 -15 48.5t-55 35.5t-117 31q-133 26 -194 75.5t-61 144.5q0 58 33 103t92 69.5t136 24.5q142 0 214.5 -65t75.5 -175h-120q-4 70 -45 103.5t-125 33.5q-61 0 -98 -24.5
t-37 -66.5q0 -31 12.5 -50.5t50 -35.5t112.5 -31q104 -20 162 -49t81.5 -69t23.5 -98q0 -67 -36 -116t-100 -75t-148 -26q-136 0 -218.5 65z" />
    <glyph glyph-name="T" unicode="T" horiz-adv-x="626" 
d="M250 609h-233v111h592v-111h-234v-609h-125v609z" />
    <glyph glyph-name="U" unicode="U" horiz-adv-x="694" 
d="M131.5 62q-78.5 74 -78.5 210v448h123v-448q0 -89 44 -132t127 -43q171 0 171 175v448h123v-448q0 -136 -78.5 -210t-215.5 -74t-215.5 74z" />
    <glyph glyph-name="V" unicode="V" horiz-adv-x="703" 
d="M12 720h131l210 -602l207 602h131l-269 -720h-141z" />
    <glyph glyph-name="W" unicode="W" horiz-adv-x="995" 
d="M497 563l-142 -563h-137l-206 720h129l150 -564l142 564h129l142 -565l149 565h130l-206 -720h-138z" />
    <glyph glyph-name="X" unicode="X" horiz-adv-x="670" 
d="M333 267l-183 -267h-138l252 367l-242 353h143l170 -248l170 248h138l-239 -349l254 -371h-143z" />
    <glyph glyph-name="Y" unicode="Y" horiz-adv-x="703" 
d="M292 282l-280 438h141l200 -326l201 326h137l-277 -438v-282h-122v282z" />
    <glyph glyph-name="Z" unicode="Z" horiz-adv-x="630" 
d="M28 103l413 509l-171 -3h-226v111h553v-100l-416 -512l173 3h248v-111h-574v103z" />
    <glyph glyph-name="bracketleft" unicode="[" horiz-adv-x="352" 
d="M23 800h266v-99h-154v-802h154v-99h-266v1000z" />
    <glyph glyph-name="backslash" unicode="\" horiz-adv-x="394" 
d="M272 0l-262 720h112l262 -720h-112z" />
    <glyph glyph-name="bracketright" unicode="]" horiz-adv-x="348" 
d="M19 -101h154v802h-154v99h266v-1000h-266v99z" />
    <glyph glyph-name="underscore" unicode="_" horiz-adv-x="511" 
d="M-2 -89h515v-91h-515v91z" />
    <glyph glyph-name="grave" unicode="`" horiz-adv-x="234" 
d="M138 586l-138 146h137l97 -146h-96z" />
    <glyph glyph-name="a" unicode="a" horiz-adv-x="533" 
d="M382 61q-32 -39 -73 -56t-92 -17q-87 0 -138 41t-51 115q0 67 48 105t148 56l154 28v33q0 38 -24 56.5t-75 18.5q-49 0 -81 -20.5t-34 -64.5h-114q2 88 66 132t162 44q106 0 159.5 -40.5t53.5 -113.5v-378h-109v61zM169.5 95.5q23.5 -19.5 69.5 -19.5q57 0 98 32t41 95
v49l-133 -27q-52 -11 -75.5 -26.5t-23.5 -50.5q0 -33 23.5 -52.5z" />
    <glyph glyph-name="b" unicode="b" horiz-adv-x="603" 
d="M56 720h115v-267q58 79 163 79q75 0 128 -35t80.5 -97t27.5 -140t-27.5 -140t-80.5 -97t-128 -35q-109 0 -167 85v-73h-111v720zM204.5 133q35.5 -47 105.5 -47t106 47t36 127t-36 127t-106 47t-105.5 -47t-35.5 -127t35.5 -127z" />
    <glyph glyph-name="c" unicode="c" horiz-adv-x="550" 
d="M154.5 23.5q-57.5 35.5 -88 97t-30.5 139.5t30.5 139.5t88 97t133.5 35.5q101 0 162.5 -53t73.5 -142h-116q-9 45 -40.5 71t-79.5 26q-65 0 -99.5 -47t-34.5 -127t34.5 -127t99.5 -47q49 0 80.5 27.5t39.5 75.5h116q-11 -91 -74 -146t-162 -55q-76 0 -133.5 35.5z" />
    <glyph glyph-name="d" unicode="d" horiz-adv-x="603" 
d="M436 0v73q-58 -85 -167 -85q-75 0 -128 35t-80.5 97t-27.5 140t27.5 140t80.5 97t128 35q105 0 163 -79v267h115v-720h-111zM187 133q36 -47 106 -47t105.5 47t35.5 127t-35.5 127t-105.5 47t-106 -47t-36 -127t36 -127z" />
    <glyph glyph-name="e" unicode="e" 
d="M152.5 23.5q-57.5 35.5 -88.5 97t-31 139.5t31 139.5t88.5 97t134.5 35.5t134.5 -35t88 -98.5t30.5 -145.5v-30h-391q8 -66 43.5 -104t94.5 -38q47 0 79.5 20.5t49.5 57.5h114q-25 -79 -89.5 -125t-153.5 -46q-77 0 -134.5 35.5zM422 309q-10 61 -45 95.5t-90 34.5
q-56 0 -91 -34.5t-45 -95.5h271z" />
    <glyph glyph-name="f" unicode="f" horiz-adv-x="384" 
d="M143 691q34 29 104 29h111v-91h-83q-28 0 -39.5 -12t-11.5 -38v-59h134v-91h-134v-429h-115v429h-93v91h93v71q0 71 34 100z" />
    <glyph glyph-name="g" unicode="g" horiz-adv-x="603" 
d="M122.5 -165q-59.5 47 -66.5 132h113q12 -87 123 -87q140 0 140 134v62q-57 -78 -163 -78q-75 0 -128 34.5t-80.5 95t-27.5 137.5t27.5 137.5t80.5 95t128 34.5q109 0 167 -84v72h111v-506q0 -112 -71.5 -169t-186.5 -57q-107 0 -166.5 47zM187 140q36 -46 106 -46
t105.5 46t35.5 125t-35.5 125t-105.5 46t-106 -46t-36 -125t36 -125z" />
    <glyph glyph-name="h" unicode="h" 
d="M56 720h115v-267q63 79 161 79q89 0 137 -55.5t48 -145.5v-331h-114v318q0 52 -26 82.5t-79 30.5q-27 0 -56 -12.5t-50 -45t-21 -86.5v-287h-115v720z" />
    <glyph glyph-name="i" unicode="i" horiz-adv-x="224" 
d="M55 520h115v-520h-115v520zM55 720h115v-113h-115v113z" />
    <glyph glyph-name="j" unicode="j" horiz-adv-x="232" 
d="M142.5 -171q-34.5 -29 -104.5 -29h-96v91h69q27 0 39 12t12 39v578h115v-591q0 -71 -34.5 -100zM62 720h115v-113h-115v113z" />
    <glyph glyph-name="k" unicode="k" horiz-adv-x="547" 
d="M56 720h117v-423l215 223h141l-198 -201l213 -319h-136l-157 238l-78 -79v-159h-117v720z" />
    <glyph glyph-name="l" unicode="l" horiz-adv-x="317" 
d="M171 720v-578q0 -27 12 -39t39 -12h69v-91h-96q-70 0 -104.5 29t-34.5 100v591h115z" />
    <glyph glyph-name="m" unicode="m" horiz-adv-x="878" 
d="M683 400q-24 31 -70 31q-43 0 -79.5 -32.5t-36.5 -111.5v-287h-116v318q0 51 -23.5 82t-69.5 31q-43 0 -80 -32.5t-37 -111.5v-287h-115v520h111v-74q54 86 155 86q55 0 94.5 -26t60.5 -72q28 45 70.5 71.5t99.5 26.5q82 0 128.5 -56t46.5 -145v-331h-115v318
q0 51 -24 82z" />
    <glyph glyph-name="n" unicode="n" 
d="M377 400.5q-26 30.5 -79 30.5q-27 0 -56 -12.5t-50 -45t-21 -86.5v-287h-115v520h111v-73q29 39 70.5 62t94.5 23q89 0 137 -55.5t48 -145.5v-331h-114v318q0 52 -26 82.5z" />
    <glyph glyph-name="o" unicode="o" horiz-adv-x="587" 
d="M154 23q-59 35 -90 97t-31 140t31 140t90 97t140 35q80 0 139 -35t90 -97t31 -140t-31 -140t-90 -97t-139 -35q-81 0 -140 35zM187 133q36 -47 107 -47q70 0 106 47t36 127t-36 127t-106 47q-71 0 -107 -47t-36 -127t36 -127z" />
    <glyph glyph-name="p" unicode="p" horiz-adv-x="603" 
d="M167 520v-73q58 85 167 85q75 0 128 -35t80.5 -97t27.5 -140t-27.5 -140t-80.5 -97t-128 -35q-105 0 -163 79v-267h-115v720h111zM204.5 133q35.5 -47 105.5 -47t106 47t36 127t-36 127t-106 47t-105.5 -47t-35.5 -127t35.5 -127z" />
    <glyph glyph-name="q" unicode="q" horiz-adv-x="603" 
d="M547 -200h-115v267q-58 -79 -163 -79q-75 0 -128 35t-80.5 97t-27.5 140t27.5 140t80.5 97t128 35q109 0 167 -85v73h111v-720zM187 133q36 -47 106 -47t105.5 47t35.5 127t-35.5 127t-105.5 47t-106 -47t-36 -127t36 -127z" />
    <glyph glyph-name="r" unicode="r" horiz-adv-x="393" 
d="M56 520h111v-92q50 98 160 98h40v-107h-45q-72 0 -111.5 -36.5t-39.5 -124.5v-258h-115v520z" />
    <glyph glyph-name="s" unicode="s" horiz-adv-x="499" 
d="M87.5 32.5q-61.5 44.5 -67.5 138.5h113q6 -53 36.5 -75t87.5 -22q49 0 78 17.5t29 48.5q0 21 -9 34t-35.5 22.5t-80.5 18.5q-116 19 -161 58t-45 105q0 71 57.5 112.5t151.5 41.5q107 0 165 -46.5t60 -129.5h-109q-2 50 -33 70t-83 20q-42 0 -68.5 -17t-26.5 -47
q0 -21 10.5 -33.5t38 -21.5t80.5 -18q78 -13 122 -34t62.5 -52t18.5 -76q0 -75 -62 -117t-163 -42q-105 0 -166.5 44.5z" />
    <glyph glyph-name="t" unicode="t" horiz-adv-x="384" 
d="M224 680v-160h134v-91h-134v-287q0 -27 11.5 -39t39.5 -12h83v-91h-111q-69 0 -103.5 29t-34.5 100v300h-93v91h93v160h115z" />
    <glyph glyph-name="u" unicode="u" 
d="M196 119.5q26 -30.5 79 -30.5q27 0 56 12.5t50 45t21 86.5v287h115v-520h-111v73q-29 -39 -70.5 -62t-94.5 -23q-89 0 -137 55.5t-48 145.5v331h114v-318q0 -52 26 -82.5z" />
    <glyph glyph-name="v" unicode="v" horiz-adv-x="541" 
d="M6 520h125l141 -408l139 408h124l-200 -520h-128z" />
    <glyph glyph-name="w" unicode="w" horiz-adv-x="838" 
d="M419 376l-110 -376h-119l-184 520h125l122 -383l110 383h112l109 -382l123 382h124l-183 -520h-120z" />
    <glyph glyph-name="x" unicode="x" horiz-adv-x="523" 
d="M261 175l-126 -175h-131l191 267l-181 253h132l115 -161l115 161h131l-180 -252l191 -268h-132z" />
    <glyph glyph-name="y" unicode="y" horiz-adv-x="527" 
d="M29 -104h82q36 0 50.5 12.5t27.5 49.5l14 38l-197 524h125l133 -402l133 402h124l-218 -586q-24 -67 -57.5 -100.5t-98.5 -33.5h-118v96z" />
    <glyph glyph-name="z" unicode="z" horiz-adv-x="511" 
d="M38 80l284 347h-277v93h418v-80l-283 -347h293v-93h-435v80z" />
    <glyph glyph-name="braceleft" unicode="{" horiz-adv-x="409" 
d="M145.5 -166q-39.5 34 -39.5 105v248q0 34 -19 49t-68 15v98q49 0 68 15t19 49v248q0 71 39.5 105t108.5 34h118v-97h-95q-27 0 -44 -17t-17 -43v-248q0 -44 -19.5 -66t-59.5 -29q40 -7 59.5 -29t19.5 -66v-247q0 -27 17 -44t44 -17h95v-97h-118q-69 0 -108.5 34z" />
    <glyph glyph-name="bar" unicode="|" horiz-adv-x="227" 
d="M64 810h99v-1030h-99v1030z" />
    <glyph glyph-name="braceright" unicode="}" horiz-adv-x="409" 
d="M19 -103h95q27 0 44 17t17 44v247q0 44 19.5 66t59.5 29q-40 7 -59.5 29t-19.5 66v248q0 26 -17 43t-44 17h-95v97h118q69 0 108.5 -34t39.5 -105v-248q0 -34 19 -49t68 -15v-98q-49 0 -68 -15t-19 -49v-248q0 -71 -39.5 -105t-108.5 -34h-118v97z" />
    <glyph glyph-name="exclamdown" unicode="&#xa1;" horiz-adv-x="210" 
d="M140 307l27 -287v-220h-123v220l27 287h69zM39 520h133v-147h-133v147z" />
    <glyph glyph-name="cent" unicode="&#xa2;" horiz-adv-x="550" 
d="M249 -9q-98 13 -155.5 87t-57.5 182t57.5 182t155.5 87v105h75v-104q86 -10 137 -61t63 -132h-116q-7 36 -29 60t-55 33v-340q34 9 55.5 34.5t28.5 64.5h116q-11 -82 -63.5 -135.5t-136.5 -63.5v-104h-75v105zM178.5 148.5q24.5 -44.5 70.5 -57.5v338
q-46 -13 -70.5 -57.5t-24.5 -111.5t24.5 -111.5z" />
    <glyph glyph-name="sterling" unicode="&#xa3;" horiz-adv-x="589" 
d="M123 167.5q26 35.5 26 76.5q0 19 -7 47h-116v75h86q-23 47 -34.5 81t-11.5 81q0 57 29.5 103.5t84 73.5t125.5 27q118 0 184 -64.5t66 -179.5h-120q1 68 -34.5 103t-95.5 35q-55 0 -87 -27.5t-32 -75.5q0 -34 10.5 -65t31.5 -73l9 -19h225v-75h-198q3 -18 3 -35
q0 -42 -17.5 -81t-51.5 -69h366v-106h-525v101q58 31 84 66.5z" />
    <glyph glyph-name="yen" unicode="&#xa5;" horiz-adv-x="703" 
d="M121 348h129l-238 372h141l200 -326l201 326h137l-235 -372h126v-75h-168v-74h168v-75h-168v-124h-122v124h-171v75h171v74h-171v75z" />
    <glyph glyph-name="dieresis" unicode="&#xa8;" horiz-adv-x="308" 
d="M0 720h115v-113h-115v113zM193 720h115v-113h-115v113z" />
    <glyph glyph-name="copyright" unicode="&#xa9;" horiz-adv-x="830" 
d="M318 177q-44 27 -67.5 75t-23.5 108t23.5 108t67.5 75t103 27q78 0 125.5 -41.5t56.5 -110.5h-91q-7 35 -30.5 55t-60.5 20q-50 0 -76 -36t-26 -97t26 -97t76 -36q38 0 62 21t29 58h91q-8 -70 -57 -113t-125 -43q-59 0 -103 27zM84.5 552q49.5 85 136.5 132.5t194 47.5
t193.5 -47.5t136 -132.5t49.5 -192t-49.5 -192t-136 -132.5t-193.5 -47.5t-194 47.5t-136.5 132.5t-49.5 192t49.5 192zM163 209q37 -65 102.5 -100.5t149.5 -35.5t149.5 35.5t102.5 100.5t37 151t-37 151t-102.5 100.5t-149.5 35.5t-149.5 -35.5t-102.5 -100.5t-37 -151
t37 -151z" />
    <glyph glyph-name="registered" unicode="&#xae;" horiz-adv-x="830" 
d="M259 559h183q71 0 106.5 -32t35.5 -86q0 -60 -61 -97q44 -21 52 -75l16 -108h-85l-13 93q-5 31 -20.5 45.5t-43.5 14.5h-86v-153h-84v398zM84.5 552q49.5 85 136.5 132.5t194 47.5t193.5 -47.5t136 -132.5t49.5 -192t-49.5 -192t-136 -132.5t-193.5 -47.5t-194 47.5
t-136.5 132.5t-49.5 192t49.5 192zM163 209q37 -65 102.5 -100.5t149.5 -35.5t149.5 35.5t102.5 100.5t37 151t-37 151t-102.5 100.5t-149.5 35.5t-149.5 -35.5t-102.5 -100.5t-37 -151t37 -151zM429 380q35 0 52 13.5t17 42.5q0 55 -69 55h-86v-111h86z" />
    <glyph glyph-name="degree" unicode="&#xb0;" horiz-adv-x="353" 
d="M104 476q-33 18 -52 49.5t-19 69.5t19 69.5t52 49.5t72 18t72 -18t52.5 -49.5t19.5 -69.5t-19.5 -69.5t-52.5 -49.5t-72 -18t-72 18zM132.5 551.5q17.5 -17.5 43.5 -17.5t44 17.5t18 43.5t-18 44t-44 18t-43.5 -18t-17.5 -44t17.5 -43.5z" />
    <glyph glyph-name="acute" unicode="&#xb4;" horiz-adv-x="234" 
d="M97 732h137l-138 -146h-96z" />
    <glyph glyph-name="periodcentered" unicode="&#xb7;" horiz-adv-x="219" 
d="M43 433h133v-147h-133v147z" />
    <glyph glyph-name="cedilla" unicode="&#xb8;" horiz-adv-x="215" 
d="M0 -216v54q33 -6 56 -6q70 0 70 41q0 38 -60 38q-21 0 -31 -2v41l42 56h73l-47 -51h6q50 0 80 -22t30 -60q0 -41 -36.5 -69t-106.5 -28q-43 0 -76 8z" />
    <glyph glyph-name="questiondown" unicode="&#xbf;" horiz-adv-x="536" 
d="M328 219.5q-10 -33.5 -32.5 -60t-66.5 -60.5q-42 -31 -61 -56t-19 -65q0 -39 31.5 -63.5t88.5 -24.5q59 0 91.5 33t32.5 97h118q0 -113 -62.5 -172.5t-179.5 -59.5q-75 0 -130 23.5t-84.5 65.5t-29.5 97q0 59 23.5 97t81.5 81q40 30 59.5 49.5t28.5 43.5t9 62h111
q0 -54 -10 -87.5zM216 520h133v-147h-133v147z" />
    <glyph glyph-name="Agrave" unicode="&#xc0;" horiz-adv-x="731" 
d="M524 174h-319l-65 -174h-128l282 720h141l284 -720h-130zM484 281l-119 322l-120 -322h239zM316 768l-138 146h137l97 -146h-96z" />
    <glyph glyph-name="Aacute" unicode="&#xc1;" horiz-adv-x="731" 
d="M524 174h-319l-65 -174h-128l282 720h141l284 -720h-130zM484 281l-119 322l-120 -322h239zM413 914h137l-138 -146h-96z" />
    <glyph glyph-name="Acircumflex" unicode="&#xc2;" horiz-adv-x="731" 
d="M524 174h-319l-65 -174h-128l282 720h141l284 -720h-130zM484 281l-119 322l-120 -322h239zM561 768h-106l-90 86l-90 -86h-107l124 146h145z" />
    <glyph glyph-name="Atilde" unicode="&#xc3;" horiz-adv-x="731" 
d="M524 174h-319l-65 -174h-128l282 720h141l284 -720h-130zM484 281l-119 322l-120 -322h239zM290 903q17 0 34 -5.5t40 -16.5q7 -3 29 -14t35 -11q17 0 24.5 10.5t7.5 36.5h84q0 -68 -27 -101.5t-78 -33.5q-17 0 -34.5 6t-40.5 17q-8 3 -29 13.5t-34 10.5
q-18 0 -25.5 -10.5t-7.5 -36.5h-83q0 135 105 135z" />
    <glyph glyph-name="Adieresis" unicode="&#xc4;" horiz-adv-x="731" 
d="M524 174h-319l-65 -174h-128l282 720h141l284 -720h-130zM484 281l-119 322l-120 -322h239zM210 881h115v-113h-115v113zM403 881h115v-113h-115v113z" />
    <glyph glyph-name="Aring" unicode="&#xc5;" horiz-adv-x="731" 
d="M524 174h-319l-65 -174h-128l264 675q-24 18 -38 45.5t-14 59.5q0 37 18.5 67.5t51 48t70.5 17.5t70.5 -17.5t51 -48t18.5 -67.5q0 -31 -13.5 -58.5t-37.5 -46.5l266 -675h-130zM484 281l-119 322l-120 -322h239zM321 737q17 -17 43 -17t43.5 17t17.5 43q0 25 -17.5 42
t-43.5 17t-43 -16.5t-17 -42.5t17 -43z" />
    <glyph glyph-name="Ccedilla" unicode="&#xc7;" horiz-adv-x="735" 
d="M277 -228v54q33 -6 56 -6q70 0 70 41q0 38 -60 38q-21 0 -31 -2v41l39 51q-101 8 -173 59.5t-108.5 133t-36.5 178.5q0 103 40.5 187.5t120.5 134.5t192 50q85 0 151.5 -33.5t107.5 -92.5t53 -134h-124q-15 67 -64.5 108t-123.5 41q-111 0 -168 -73.5t-57 -187.5
t57 -187.5t168 -73.5q79 0 129.5 47t62.5 123h124q-14 -115 -87.5 -191.5t-191.5 -87.5l-43 -47h6q50 0 80 -22t30 -60q0 -41 -36.5 -69t-106.5 -28q-43 0 -76 8z" />
    <glyph glyph-name="Egrave" unicode="&#xc8;" horiz-adv-x="613" 
d="M63 720h522v-111h-399v-184h370v-107h-370v-207h396v-111h-519v720zM276 768l-138 146h137l97 -146h-96z" />
    <glyph glyph-name="Eacute" unicode="&#xc9;" horiz-adv-x="613" 
d="M63 720h522v-111h-399v-184h370v-107h-370v-207h396v-111h-519v720zM373 914h137l-138 -146h-96z" />
    <glyph glyph-name="Ecircumflex" unicode="&#xca;" horiz-adv-x="613" 
d="M63 720h522v-111h-399v-184h370v-107h-370v-207h396v-111h-519v720zM521 768h-106l-90 86l-90 -86h-107l124 146h145z" />
    <glyph glyph-name="Edieresis" unicode="&#xcb;" horiz-adv-x="613" 
d="M63 720h522v-111h-399v-184h370v-107h-370v-207h396v-111h-519v720zM170 881h115v-113h-115v113zM363 881h115v-113h-115v113z" />
    <glyph glyph-name="Igrave" unicode="&#xcc;" horiz-adv-x="249" 
d="M63 720h123v-720h-123v720zM76 768l-138 146h137l97 -146h-96z" />
    <glyph glyph-name="Iacute" unicode="&#xcd;" horiz-adv-x="249" 
d="M63 720h123v-720h-123v720zM174 914h137l-138 -146h-96z" />
    <glyph glyph-name="Icircumflex" unicode="&#xce;" horiz-adv-x="249" 
d="M63 720h123v-720h-123v720zM321 768h-106l-90 86l-90 -86h-107l124 146h145z" />
    <glyph glyph-name="Idieresis" unicode="&#xcf;" horiz-adv-x="249" 
d="M63 720h123v-720h-123v720zM-30 881h115v-113h-115v113zM163 881h115v-113h-115v113z" />
    <glyph glyph-name="Ntilde" unicode="&#xd1;" horiz-adv-x="729" 
d="M183 553v-553h-120v720h139l344 -552v552h120v-720h-139zM290 903q17 0 34 -5.5t40 -16.5q7 -3 29 -14t35 -11q17 0 24.5 10.5t7.5 36.5h84q0 -68 -27 -101.5t-78 -33.5q-17 0 -34.5 6t-40.5 17q-8 3 -29 13.5t-34 10.5q-18 0 -25.5 -10.5t-7.5 -36.5h-83q0 135 105 135z
" />
    <glyph glyph-name="Ograve" unicode="&#xd2;" horiz-adv-x="772" 
d="M194 38q-80 50 -120.5 134.5t-40.5 187.5t40.5 187.5t120.5 134.5t192 50t192 -50t120.5 -134.5t40.5 -187.5t-40.5 -187.5t-120.5 -134.5t-192 -50t-192 50zM218 172.5q57 -73.5 168 -73.5q112 0 168.5 73.5t56.5 187.5t-56.5 187.5t-168.5 73.5q-111 0 -168 -73.5
t-57 -187.5t57 -187.5zM338 780l-138 146h137l97 -146h-96z" />
    <glyph glyph-name="Oacute" unicode="&#xd3;" horiz-adv-x="772" 
d="M194 38q-80 50 -120.5 134.5t-40.5 187.5t40.5 187.5t120.5 134.5t192 50t192 -50t120.5 -134.5t40.5 -187.5t-40.5 -187.5t-120.5 -134.5t-192 -50t-192 50zM218 172.5q57 -73.5 168 -73.5q112 0 168.5 73.5t56.5 187.5t-56.5 187.5t-168.5 73.5q-111 0 -168 -73.5
t-57 -187.5t57 -187.5zM435 926h137l-138 -146h-96z" />
    <glyph glyph-name="Ocircumflex" unicode="&#xd4;" horiz-adv-x="772" 
d="M194 38q-80 50 -120.5 134.5t-40.5 187.5t40.5 187.5t120.5 134.5t192 50t192 -50t120.5 -134.5t40.5 -187.5t-40.5 -187.5t-120.5 -134.5t-192 -50t-192 50zM218 172.5q57 -73.5 168 -73.5q112 0 168.5 73.5t56.5 187.5t-56.5 187.5t-168.5 73.5q-111 0 -168 -73.5
t-57 -187.5t57 -187.5zM582 780h-106l-90 86l-90 -86h-107l124 146h145z" />
    <glyph glyph-name="Otilde" unicode="&#xd5;" horiz-adv-x="772" 
d="M194 38q-80 50 -120.5 134.5t-40.5 187.5t40.5 187.5t120.5 134.5t192 50t192 -50t120.5 -134.5t40.5 -187.5t-40.5 -187.5t-120.5 -134.5t-192 -50t-192 50zM218 172.5q57 -73.5 168 -73.5q112 0 168.5 73.5t56.5 187.5t-56.5 187.5t-168.5 73.5q-111 0 -168 -73.5
t-57 -187.5t57 -187.5zM312 915q17 0 34 -5.5t40 -16.5q7 -3 29 -14t35 -11q17 0 24.5 10.5t7.5 36.5h84q0 -68 -27 -101.5t-78 -33.5q-17 0 -34.5 6t-40.5 17q-8 3 -29 13.5t-34 10.5q-18 0 -25.5 -10.5t-7.5 -36.5h-83q0 135 105 135z" />
    <glyph glyph-name="Odieresis" unicode="&#xd6;" horiz-adv-x="772" 
d="M194 38q-80 50 -120.5 134.5t-40.5 187.5t40.5 187.5t120.5 134.5t192 50t192 -50t120.5 -134.5t40.5 -187.5t-40.5 -187.5t-120.5 -134.5t-192 -50t-192 50zM218 172.5q57 -73.5 168 -73.5q112 0 168.5 73.5t56.5 187.5t-56.5 187.5t-168.5 73.5q-111 0 -168 -73.5
t-57 -187.5t57 -187.5zM232 893h115v-113h-115v113zM425 893h115v-113h-115v113z" />
    <glyph glyph-name="multiply" unicode="&#xd7;" horiz-adv-x="512" 
d="M128 560l128 -128l128 128l72 -71l-128 -128l128 -129l-72 -71l-128 128l-128 -128l-72 71l129 129l-129 128z" />
    <glyph glyph-name="Ugrave" unicode="&#xd9;" horiz-adv-x="694" 
d="M131.5 62q-78.5 74 -78.5 210v448h123v-448q0 -89 44 -132t127 -43q171 0 171 175v448h123v-448q0 -136 -78.5 -210t-215.5 -74t-215.5 74zM299 768l-138 146h137l97 -146h-96z" />
    <glyph glyph-name="Uacute" unicode="&#xda;" horiz-adv-x="694" 
d="M131.5 62q-78.5 74 -78.5 210v448h123v-448q0 -89 44 -132t127 -43q171 0 171 175v448h123v-448q0 -136 -78.5 -210t-215.5 -74t-215.5 74zM396 914h137l-138 -146h-96z" />
    <glyph glyph-name="Ucircumflex" unicode="&#xdb;" horiz-adv-x="694" 
d="M131.5 62q-78.5 74 -78.5 210v448h123v-448q0 -89 44 -132t127 -43q171 0 171 175v448h123v-448q0 -136 -78.5 -210t-215.5 -74t-215.5 74zM544 768h-106l-90 86l-90 -86h-107l124 146h145z" />
    <glyph glyph-name="Udieresis" unicode="&#xdc;" horiz-adv-x="694" 
d="M131.5 62q-78.5 74 -78.5 210v448h123v-448q0 -89 44 -132t127 -43q171 0 171 175v448h123v-448q0 -136 -78.5 -210t-215.5 -74t-215.5 74zM193 881h115v-113h-115v113zM386 881h115v-113h-115v113z" />
    <glyph glyph-name="Yacute" unicode="&#xdd;" horiz-adv-x="703" 
d="M292 282l-280 438h141l200 -326l201 326h137l-277 -438v-282h-122v282zM403 914h137l-138 -146h-96z" />
    <glyph glyph-name="germandbls" unicode="&#xdf;" horiz-adv-x="577" 
d="M115 673.5q59 58.5 166 58.5q66 0 116 -25.5t77 -70t27 -99.5q0 -48 -21.5 -85.5t-60.5 -62.5q61 -24 92.5 -70.5t31.5 -111.5q0 -100 -64.5 -159.5t-186.5 -59.5q-28 0 -61 5v96q25 -5 58 -5q65 0 100 33.5t35 89.5q0 58 -35 91t-103 33h-40v90h35q51 0 80 28.5t29 76.5
q0 46 -29.5 75.5t-79.5 29.5q-51 0 -80.5 -31.5t-29.5 -86.5v-513h-115v513q0 102 59 160.5z" />
    <glyph glyph-name="agrave" unicode="&#xe0;" horiz-adv-x="533" 
d="M382 61q-32 -39 -73 -56t-92 -17q-87 0 -138 41t-51 115q0 67 48 105t148 56l154 28v33q0 38 -24 56.5t-75 18.5q-49 0 -81 -20.5t-34 -64.5h-114q2 88 66 132t162 44q106 0 159.5 -40.5t53.5 -113.5v-378h-109v61zM169.5 95.5q23.5 -19.5 69.5 -19.5q57 0 98 32t41 95
v49l-133 -27q-52 -11 -75.5 -26.5t-23.5 -50.5q0 -33 23.5 -52.5zM222 586l-138 146h137l97 -146h-96z" />
    <glyph glyph-name="aacute" unicode="&#xe1;" horiz-adv-x="533" 
d="M382 61q-32 -39 -73 -56t-92 -17q-87 0 -138 41t-51 115q0 67 48 105t148 56l154 28v33q0 38 -24 56.5t-75 18.5q-49 0 -81 -20.5t-34 -64.5h-114q2 88 66 132t162 44q106 0 159.5 -40.5t53.5 -113.5v-378h-109v61zM169.5 95.5q23.5 -19.5 69.5 -19.5q57 0 98 32t41 95
v49l-133 -27q-52 -11 -75.5 -26.5t-23.5 -50.5q0 -33 23.5 -52.5zM319 732h137l-138 -146h-96z" />
    <glyph glyph-name="acircumflex" unicode="&#xe2;" horiz-adv-x="533" 
d="M382 61q-32 -39 -73 -56t-92 -17q-87 0 -138 41t-51 115q0 67 48 105t148 56l154 28v33q0 38 -24 56.5t-75 18.5q-49 0 -81 -20.5t-34 -64.5h-114q2 88 66 132t162 44q106 0 159.5 -40.5t53.5 -113.5v-378h-109v61zM169.5 95.5q23.5 -19.5 69.5 -19.5q57 0 98 32t41 95
v49l-133 -27q-52 -11 -75.5 -26.5t-23.5 -50.5q0 -33 23.5 -52.5zM467 586h-106l-90 86l-90 -86h-107l124 146h145z" />
    <glyph glyph-name="atilde" unicode="&#xe3;" horiz-adv-x="533" 
d="M382 61q-32 -39 -73 -56t-92 -17q-87 0 -138 41t-51 115q0 67 48 105t148 56l154 28v33q0 38 -24 56.5t-75 18.5q-49 0 -81 -20.5t-34 -64.5h-114q2 88 66 132t162 44q106 0 159.5 -40.5t53.5 -113.5v-378h-109v61zM169.5 95.5q23.5 -19.5 69.5 -19.5q57 0 98 32t41 95
v49l-133 -27q-52 -11 -75.5 -26.5t-23.5 -50.5q0 -33 23.5 -52.5zM196 732q17 0 34 -5.5t40 -16.5q7 -3 29 -14t35 -11q17 0 24.5 10.5t7.5 36.5h84q0 -68 -27 -101.5t-78 -33.5q-17 0 -34.5 6t-40.5 17q-8 3 -29 13.5t-34 10.5q-18 0 -25.5 -10.5t-7.5 -36.5h-83
q0 135 105 135z" />
    <glyph glyph-name="adieresis" unicode="&#xe4;" horiz-adv-x="533" 
d="M382 61q-32 -39 -73 -56t-92 -17q-87 0 -138 41t-51 115q0 67 48 105t148 56l154 28v33q0 38 -24 56.5t-75 18.5q-49 0 -81 -20.5t-34 -64.5h-114q2 88 66 132t162 44q106 0 159.5 -40.5t53.5 -113.5v-378h-109v61zM169.5 95.5q23.5 -19.5 69.5 -19.5q57 0 98 32t41 95
v49l-133 -27q-52 -11 -75.5 -26.5t-23.5 -50.5q0 -33 23.5 -52.5zM116 720h115v-113h-115v113zM309 720h115v-113h-115v113z" />
    <glyph glyph-name="aring" unicode="&#xe5;" horiz-adv-x="533" 
d="M382 61q-32 -39 -73 -56t-92 -17q-87 0 -138 41t-51 115q0 67 48 105t148 56l154 28v33q0 38 -24 56.5t-75 18.5q-49 0 -81 -20.5t-34 -64.5h-114q2 88 66 132t162 44q106 0 159.5 -40.5t53.5 -113.5v-378h-109v61zM169.5 95.5q23.5 -19.5 69.5 -19.5q57 0 98 32t41 95
v49l-133 -27q-52 -11 -75.5 -26.5t-23.5 -50.5q0 -33 23.5 -52.5zM199 597.5q-32 17.5 -50.5 48.5t-18.5 68t18.5 67.5t51 48t70.5 17.5t70.5 -17.5t51 -48t18.5 -67.5t-18.5 -68t-50.5 -48.5t-71 -17.5t-71 17.5zM227 671q17 -17 43 -17t43.5 17t17.5 43q0 25 -17.5 42
t-43.5 17t-43 -16.5t-17 -42.5t17 -43z" />
    <glyph glyph-name="ccedilla" unicode="&#xe7;" horiz-adv-x="550" 
d="M179 -228v54q33 -6 56 -6q70 0 70 41q0 38 -60 38q-21 0 -31 -2v41l39 52q-66 8 -115.5 45t-75.5 95.5t-26 129.5q0 78 30.5 139.5t88 97t133.5 35.5q101 0 162.5 -53t73.5 -142h-116q-9 45 -40.5 71t-79.5 26q-65 0 -99.5 -47t-34.5 -127t34.5 -127t99.5 -47
q49 0 80.5 27.5t39.5 75.5h116q-11 -81 -63 -135t-135 -64l-44 -47h6q50 0 80 -22t30 -60q0 -41 -36.5 -69t-106.5 -28q-43 0 -76 8z" />
    <glyph glyph-name="egrave" unicode="&#xe8;" 
d="M152.5 23.5q-57.5 35.5 -88.5 97t-31 139.5t31 139.5t88.5 97t134.5 35.5t134.5 -35t88 -98.5t30.5 -145.5v-30h-391q8 -66 43.5 -104t94.5 -38q47 0 79.5 20.5t49.5 57.5h114q-25 -79 -89.5 -125t-153.5 -46q-77 0 -134.5 35.5zM422 309q-10 61 -45 95.5t-90 34.5
q-56 0 -91 -34.5t-45 -95.5h271zM238 586l-138 146h137l97 -146h-96z" />
    <glyph glyph-name="eacute" unicode="&#xe9;" 
d="M152.5 23.5q-57.5 35.5 -88.5 97t-31 139.5t31 139.5t88.5 97t134.5 35.5t134.5 -35t88 -98.5t30.5 -145.5v-30h-391q8 -66 43.5 -104t94.5 -38q47 0 79.5 20.5t49.5 57.5h114q-25 -79 -89.5 -125t-153.5 -46q-77 0 -134.5 35.5zM422 309q-10 61 -45 95.5t-90 34.5
q-56 0 -91 -34.5t-45 -95.5h271zM336 732h137l-138 -146h-96z" />
    <glyph glyph-name="ecircumflex" unicode="&#xea;" 
d="M152.5 23.5q-57.5 35.5 -88.5 97t-31 139.5t31 139.5t88.5 97t134.5 35.5t134.5 -35t88 -98.5t30.5 -145.5v-30h-391q8 -66 43.5 -104t94.5 -38q47 0 79.5 20.5t49.5 57.5h114q-25 -79 -89.5 -125t-153.5 -46q-77 0 -134.5 35.5zM422 309q-10 61 -45 95.5t-90 34.5
q-56 0 -91 -34.5t-45 -95.5h271zM483 586h-106l-90 86l-90 -86h-107l124 146h145z" />
    <glyph glyph-name="edieresis" unicode="&#xeb;" 
d="M152.5 23.5q-57.5 35.5 -88.5 97t-31 139.5t31 139.5t88.5 97t134.5 35.5t134.5 -35t88 -98.5t30.5 -145.5v-30h-391q8 -66 43.5 -104t94.5 -38q47 0 79.5 20.5t49.5 57.5h114q-25 -79 -89.5 -125t-153.5 -46q-77 0 -134.5 35.5zM422 309q-10 61 -45 95.5t-90 34.5
q-56 0 -91 -34.5t-45 -95.5h271zM133 720h115v-113h-115v113zM326 720h115v-113h-115v113z" />
    <glyph glyph-name="igrave" unicode="&#xec;" horiz-adv-x="224" 
d="M55 520h115v-520h-115v520zM64 586l-138 146h137l97 -146h-96z" />
    <glyph glyph-name="iacute" unicode="&#xed;" horiz-adv-x="224" 
d="M55 520h115v-520h-115v520zM161 732h137l-138 -146h-96z" />
    <glyph glyph-name="icircumflex" unicode="&#xee;" horiz-adv-x="224" 
d="M55 520h115v-520h-115v520zM309 586h-106l-90 86l-90 -86h-107l124 146h145z" />
    <glyph glyph-name="idieresis" unicode="&#xef;" horiz-adv-x="224" 
d="M55 520h115v-520h-115v520zM-42 720h115v-113h-115v113zM151 720h115v-113h-115v113z" />
    <glyph glyph-name="ntilde" unicode="&#xf1;" 
d="M377 400.5q-26 30.5 -79 30.5q-27 0 -56 -12.5t-50 -45t-21 -86.5v-287h-115v520h111v-73q29 39 70.5 62t94.5 23q89 0 137 -55.5t48 -145.5v-331h-114v318q0 52 -26 82.5zM212 732q17 0 34 -5.5t40 -16.5q7 -3 29 -14t35 -11q17 0 24.5 10.5t7.5 36.5h84
q0 -68 -27 -101.5t-78 -33.5q-17 0 -34.5 6t-40.5 17q-8 3 -29 13.5t-34 10.5q-18 0 -25.5 -10.5t-7.5 -36.5h-83q0 135 105 135z" />
    <glyph glyph-name="ograve" unicode="&#xf2;" horiz-adv-x="587" 
d="M154 23q-59 35 -90 97t-31 140t31 140t90 97t140 35q80 0 139 -35t90 -97t31 -140t-31 -140t-90 -97t-139 -35q-81 0 -140 35zM187 133q36 -47 107 -47q70 0 106 47t36 127t-36 127t-106 47q-71 0 -107 -47t-36 -127t36 -127zM245 586l-138 146h137l97 -146h-96z" />
    <glyph glyph-name="oacute" unicode="&#xf3;" horiz-adv-x="587" 
d="M154 23q-59 35 -90 97t-31 140t31 140t90 97t140 35q80 0 139 -35t90 -97t31 -140t-31 -140t-90 -97t-139 -35q-81 0 -140 35zM187 133q36 -47 107 -47q70 0 106 47t36 127t-36 127t-106 47q-71 0 -107 -47t-36 -127t36 -127zM343 732h137l-138 -146h-96z" />
    <glyph glyph-name="ocircumflex" unicode="&#xf4;" horiz-adv-x="587" 
d="M154 23q-59 35 -90 97t-31 140t31 140t90 97t140 35q80 0 139 -35t90 -97t31 -140t-31 -140t-90 -97t-139 -35q-81 0 -140 35zM187 133q36 -47 107 -47q70 0 106 47t36 127t-36 127t-106 47q-71 0 -107 -47t-36 -127t36 -127zM490 586h-106l-90 86l-90 -86h-107l124 146
h145z" />
    <glyph glyph-name="otilde" unicode="&#xf5;" horiz-adv-x="587" 
d="M154 23q-59 35 -90 97t-31 140t31 140t90 97t140 35q80 0 139 -35t90 -97t31 -140t-31 -140t-90 -97t-139 -35q-81 0 -140 35zM187 133q36 -47 107 -47q70 0 106 47t36 127t-36 127t-106 47q-71 0 -107 -47t-36 -127t36 -127zM219 732q17 0 34 -5.5t40 -16.5q7 -3 29 -14
t35 -11q17 0 24.5 10.5t7.5 36.5h84q0 -68 -27 -101.5t-78 -33.5q-17 0 -34.5 6t-40.5 17q-8 3 -29 13.5t-34 10.5q-18 0 -25.5 -10.5t-7.5 -36.5h-83q0 135 105 135z" />
    <glyph glyph-name="odieresis" unicode="&#xf6;" horiz-adv-x="587" 
d="M154 23q-59 35 -90 97t-31 140t31 140t90 97t140 35q80 0 139 -35t90 -97t31 -140t-31 -140t-90 -97t-139 -35q-81 0 -140 35zM187 133q36 -47 107 -47q70 0 106 47t36 127t-36 127t-106 47q-71 0 -107 -47t-36 -127t36 -127zM139 720h115v-113h-115v113zM332 720h115
v-113h-115v113z" />
    <glyph glyph-name="divide" unicode="&#xf7;" horiz-adv-x="540" 
d="M38 410h464v-101h-464v101zM212 227h115v-113h-115v113zM212 606h115v-113h-115v113z" />
    <glyph glyph-name="ugrave" unicode="&#xf9;" 
d="M196 119.5q26 -30.5 79 -30.5q27 0 56 12.5t50 45t21 86.5v287h115v-520h-111v73q-29 -39 -70.5 -62t-94.5 -23q-89 0 -137 55.5t-48 145.5v331h114v-318q0 -52 26 -82.5zM238 586l-138 146h137l97 -146h-96z" />
    <glyph glyph-name="uacute" unicode="&#xfa;" 
d="M196 119.5q26 -30.5 79 -30.5q27 0 56 12.5t50 45t21 86.5v287h115v-520h-111v73q-29 -39 -70.5 -62t-94.5 -23q-89 0 -137 55.5t-48 145.5v331h114v-318q0 -52 26 -82.5zM336 732h137l-138 -146h-96z" />
    <glyph glyph-name="ucircumflex" unicode="&#xfb;" 
d="M196 119.5q26 -30.5 79 -30.5q27 0 56 12.5t50 45t21 86.5v287h115v-520h-111v73q-29 -39 -70.5 -62t-94.5 -23q-89 0 -137 55.5t-48 145.5v331h114v-318q0 -52 26 -82.5zM483 586h-106l-90 86l-90 -86h-107l124 146h145z" />
    <glyph glyph-name="udieresis" unicode="&#xfc;" 
d="M196 119.5q26 -30.5 79 -30.5q27 0 56 12.5t50 45t21 86.5v287h115v-520h-111v73q-29 -39 -70.5 -62t-94.5 -23q-89 0 -137 55.5t-48 145.5v331h114v-318q0 -52 26 -82.5zM133 720h115v-113h-115v113zM326 720h115v-113h-115v113z" />
    <glyph glyph-name="yacute" unicode="&#xfd;" horiz-adv-x="527" 
d="M29 -104h82q36 0 50.5 12.5t27.5 49.5l14 38l-197 524h125l133 -402l133 402h124l-218 -586q-24 -67 -57.5 -100.5t-98.5 -33.5h-118v96zM313 732h137l-138 -146h-96z" />
    <glyph glyph-name="ydieresis" unicode="&#xff;" horiz-adv-x="527" 
d="M29 -104h82q36 0 50.5 12.5t27.5 49.5l14 38l-197 524h125l133 -402l133 402h124l-218 -586q-24 -67 -57.5 -100.5t-98.5 -33.5h-118v96zM110 720h115v-113h-115v113zM303 720h115v-113h-115v113z" />
    <glyph glyph-name="Abreve" unicode="&#x102;" horiz-adv-x="731" 
d="M524 174h-319l-65 -174h-128l282 720h141l284 -720h-130zM484 281l-119 322l-120 -322h239zM248 802.5q-45 40.5 -51 111.5h91q3 -37 23 -55t53 -18t53 18t23 55h91q-7 -71 -52 -111.5t-115 -40.5q-71 0 -116 40.5z" />
    <glyph glyph-name="abreve" unicode="&#x103;" horiz-adv-x="533" 
d="M382 61q-32 -39 -73 -56t-92 -17q-87 0 -138 41t-51 115q0 67 48 105t148 56l154 28v33q0 38 -24 56.5t-75 18.5q-49 0 -81 -20.5t-34 -64.5h-114q2 88 66 132t162 44q106 0 159.5 -40.5t53.5 -113.5v-378h-109v61zM169.5 95.5q23.5 -19.5 69.5 -19.5q57 0 98 32t41 95
v49l-133 -27q-52 -11 -75.5 -26.5t-23.5 -50.5q0 -33 23.5 -52.5zM154 620.5q-45 40.5 -51 111.5h91q3 -37 23 -55t53 -18t53 18t23 55h91q-7 -71 -52 -111.5t-115 -40.5q-71 0 -116 40.5z" />
    <glyph glyph-name="Aogonek" unicode="&#x104;" horiz-adv-x="731" 
d="M524 174h-319l-65 -174h-128l282 720h141l284 -719l1 -1q-101 -51 -101 -94q0 -20 14.5 -30t38.5 -10q22 0 48 8v-75q-32 -11 -73 -11q-56 0 -90 24t-34 71q0 36 28.5 66.5t73.5 50.5h-36zM484 281l-119 322l-120 -322h239z" />
    <glyph glyph-name="aogonek" unicode="&#x105;" horiz-adv-x="533" 
d="M382 61q-32 -39 -73 -56t-92 -17q-87 0 -138 41t-51 115q0 67 48 105t148 56l154 28v33q0 38 -24 56.5t-75 18.5q-49 0 -81 -20.5t-34 -64.5h-114q2 88 66 132t162 44q106 0 159.5 -40.5t53.5 -113.5v-378q-101 -51 -101 -94q0 -20 14.5 -30t38.5 -10q22 0 48 8v-75
q-32 -11 -73 -11q-56 0 -90 24t-34 71q0 36 28.5 66.5t73.5 50.5h-14v61zM169.5 95.5q23.5 -19.5 69.5 -19.5q57 0 98 32t41 95v49l-133 -27q-52 -11 -75.5 -26.5t-23.5 -50.5q0 -33 23.5 -52.5z" />
    <glyph glyph-name="Cacute" unicode="&#x106;" horiz-adv-x="735" 
d="M194 38q-80 50 -120.5 134.5t-40.5 187.5t40.5 187.5t120.5 134.5t192 50q85 0 151.5 -33.5t107.5 -92.5t53 -134h-124q-15 67 -64.5 108t-123.5 41q-111 0 -168 -73.5t-57 -187.5t57 -187.5t168 -73.5q79 0 129.5 47t62.5 123h124q-10 -81 -50.5 -144.5t-108.5 -100
t-157 -36.5q-112 0 -192 50zM435 926h137l-138 -146h-96z" />
    <glyph glyph-name="cacute" unicode="&#x107;" horiz-adv-x="550" 
d="M154.5 23.5q-57.5 35.5 -88 97t-30.5 139.5t30.5 139.5t88 97t133.5 35.5q101 0 162.5 -53t73.5 -142h-116q-9 45 -40.5 71t-79.5 26q-65 0 -99.5 -47t-34.5 -127t34.5 -127t99.5 -47q49 0 80.5 27.5t39.5 75.5h116q-11 -91 -74 -146t-162 -55q-76 0 -133.5 35.5z
M337 732h137l-138 -146h-96z" />
    <glyph glyph-name="Ccircumflex" unicode="&#x108;" horiz-adv-x="735" 
d="M194 38q-80 50 -120.5 134.5t-40.5 187.5t40.5 187.5t120.5 134.5t192 50q85 0 151.5 -33.5t107.5 -92.5t53 -134h-124q-15 67 -64.5 108t-123.5 41q-111 0 -168 -73.5t-57 -187.5t57 -187.5t168 -73.5q79 0 129.5 47t62.5 123h124q-10 -81 -50.5 -144.5t-108.5 -100
t-157 -36.5q-112 0 -192 50zM582 780h-106l-90 86l-90 -86h-107l124 146h145z" />
    <glyph glyph-name="ccircumflex" unicode="&#x109;" horiz-adv-x="550" 
d="M154.5 23.5q-57.5 35.5 -88 97t-30.5 139.5t30.5 139.5t88 97t133.5 35.5q101 0 162.5 -53t73.5 -142h-116q-9 45 -40.5 71t-79.5 26q-65 0 -99.5 -47t-34.5 -127t34.5 -127t99.5 -47q49 0 80.5 27.5t39.5 75.5h116q-11 -91 -74 -146t-162 -55q-76 0 -133.5 35.5z
M484 586h-106l-90 86l-90 -86h-107l124 146h145z" />
    <glyph glyph-name="Cdotaccent" unicode="&#x10a;" horiz-adv-x="735" 
d="M194 38q-80 50 -120.5 134.5t-40.5 187.5t40.5 187.5t120.5 134.5t192 50q85 0 151.5 -33.5t107.5 -92.5t53 -134h-124q-15 67 -64.5 108t-123.5 41q-111 0 -168 -73.5t-57 -187.5t57 -187.5t168 -73.5q79 0 129.5 47t62.5 123h124q-10 -81 -50.5 -144.5t-108.5 -100
t-157 -36.5q-112 0 -192 50zM329 893h115v-113h-115v113z" />
    <glyph glyph-name="cdotaccent" unicode="&#x10b;" horiz-adv-x="550" 
d="M154.5 23.5q-57.5 35.5 -88 97t-30.5 139.5t30.5 139.5t88 97t133.5 35.5q101 0 162.5 -53t73.5 -142h-116q-9 45 -40.5 71t-79.5 26q-65 0 -99.5 -47t-34.5 -127t34.5 -127t99.5 -47q49 0 80.5 27.5t39.5 75.5h116q-11 -91 -74 -146t-162 -55q-76 0 -133.5 35.5z
M230 720h115v-113h-115v113z" />
    <glyph glyph-name="Ccaron" unicode="&#x10c;" horiz-adv-x="735" 
d="M194 38q-80 50 -120.5 134.5t-40.5 187.5t40.5 187.5t120.5 134.5t192 50q85 0 151.5 -33.5t107.5 -92.5t53 -134h-124q-15 67 -64.5 108t-123.5 41q-111 0 -168 -73.5t-57 -187.5t57 -187.5t168 -73.5q79 0 129.5 47t62.5 123h124q-10 -81 -50.5 -144.5t-108.5 -100
t-157 -36.5q-112 0 -192 50zM189 926h107l90 -86l90 86h106l-124 -146h-145z" />
    <glyph glyph-name="ccaron" unicode="&#x10d;" horiz-adv-x="550" 
d="M154.5 23.5q-57.5 35.5 -88 97t-30.5 139.5t30.5 139.5t88 97t133.5 35.5q101 0 162.5 -53t73.5 -142h-116q-9 45 -40.5 71t-79.5 26q-65 0 -99.5 -47t-34.5 -127t34.5 -127t99.5 -47q49 0 80.5 27.5t39.5 75.5h116q-11 -91 -74 -146t-162 -55q-76 0 -133.5 35.5zM91 732
h107l90 -86l90 86h106l-124 -146h-145z" />
    <glyph glyph-name="Dcaron" unicode="&#x10e;" horiz-adv-x="715" 
d="M63 720h259q119 0 199.5 -47t120.5 -128t40 -185t-40 -185t-120.5 -128t-199.5 -47h-259v720zM322 108q117 0 174.5 69.5t57.5 182.5t-57.5 182.5t-174.5 69.5h-136v-504h136zM141 914h107l90 -86l90 86h106l-124 -146h-145z" />
    <glyph glyph-name="dcaron" unicode="&#x10f;" horiz-adv-x="603" 
d="M436 0v73q-58 -85 -167 -85q-75 0 -128 35t-80.5 97t-27.5 140t27.5 140t80.5 97t128 35q105 0 163 -79v267h115v-720h-111zM187 133q36 -47 106 -47t105.5 47t35.5 127t-35.5 127t-105.5 47t-106 -47t-36 -127t36 -127zM615 720h122l-68 -170h-82z" />
    <glyph glyph-name="Dcroat" unicode="&#x110;" horiz-adv-x="734" 
d="M0 408h82v319h259q119 0 199.5 -47t120.5 -128t40 -185t-40 -185t-120.5 -128t-199.5 -47h-259v323h-82v78zM341 115q117 0 174.5 69.5t57.5 182.5t-57.5 182.5t-174.5 69.5h-136v-211h182v-78h-182v-215h136z" />
    <glyph glyph-name="dcroat" unicode="&#x111;" horiz-adv-x="634" 
d="M324 661h108v59h115v-59h87v-78h-87v-583h-111v73q-58 -85 -167 -85q-75 0 -128 35t-80.5 97t-27.5 140t27.5 140t80.5 97t128 35q105 0 163 -79v130h-108v78zM187 133q36 -47 106 -47t105.5 47t35.5 127t-35.5 127t-105.5 47t-106 -47t-36 -127t36 -127z" />
    <glyph glyph-name="Ebreve" unicode="&#x114;" horiz-adv-x="613" 
d="M63 720h522v-111h-399v-184h370v-107h-370v-207h396v-111h-519v720zM208 802.5q-45 40.5 -51 111.5h91q3 -37 23 -55t53 -18t53 18t23 55h91q-7 -71 -52 -111.5t-115 -40.5q-71 0 -116 40.5z" />
    <glyph glyph-name="ebreve" unicode="&#x115;" 
d="M152.5 23.5q-57.5 35.5 -88.5 97t-31 139.5t31 139.5t88.5 97t134.5 35.5t134.5 -35t88 -98.5t30.5 -145.5v-30h-391q8 -66 43.5 -104t94.5 -38q47 0 79.5 20.5t49.5 57.5h114q-25 -79 -89.5 -125t-153.5 -46q-77 0 -134.5 35.5zM422 309q-10 61 -45 95.5t-90 34.5
q-56 0 -91 -34.5t-45 -95.5h271zM171 620.5q-45 40.5 -51 111.5h91q3 -37 23 -55t53 -18t53 18t23 55h91q-7 -71 -52 -111.5t-115 -40.5q-71 0 -116 40.5z" />
    <glyph glyph-name="Edotaccent" unicode="&#x116;" horiz-adv-x="613" 
d="M63 720h522v-111h-399v-184h370v-107h-370v-207h396v-111h-519v720zM267 881h115v-113h-115v113z" />
    <glyph glyph-name="edotaccent" unicode="&#x117;" 
d="M152.5 23.5q-57.5 35.5 -88.5 97t-31 139.5t31 139.5t88.5 97t134.5 35.5t134.5 -35t88 -98.5t30.5 -145.5v-30h-391q8 -66 43.5 -104t94.5 -38q47 0 79.5 20.5t49.5 57.5h114q-25 -79 -89.5 -125t-153.5 -46q-77 0 -134.5 35.5zM422 309q-10 61 -45 95.5t-90 34.5
q-56 0 -91 -34.5t-45 -95.5h271zM229 720h115v-113h-115v113z" />
    <glyph glyph-name="Eogonek" unicode="&#x118;" horiz-adv-x="613" 
d="M63 720h522v-111h-399v-184h370v-107h-370v-207h396v-110l1 -1q-101 -51 -101 -94q0 -20 14.5 -30t38.5 -10q22 0 48 8v-75q-32 -11 -73 -11q-56 0 -90 24t-34 71q0 36 28.5 66.5t73.5 50.5h-425v720z" />
    <glyph glyph-name="eogonek" unicode="&#x119;" 
d="M208 -188q-34 24 -34 71q0 31 22 58.5t59 48.5q-68 7 -118.5 43.5t-77 95.5t-26.5 131q0 78 31 139.5t88.5 97t134.5 35.5t134.5 -35t88 -98.5t30.5 -145.5v-30h-391q8 -66 43.5 -104t94.5 -38q47 0 79.5 20.5t49.5 57.5h114q-19 -58 -60 -99.5t-99 -59.5
q-101 -51 -101 -94q0 -20 14.5 -30t38.5 -10q22 0 48 8v-75q-32 -11 -73 -11q-56 0 -90 24zM422 309q-10 61 -45 95.5t-90 34.5q-56 0 -91 -34.5t-45 -95.5h271z" />
    <glyph glyph-name="Ecaron" unicode="&#x11a;" horiz-adv-x="613" 
d="M63 720h522v-111h-399v-184h370v-107h-370v-207h396v-111h-519v720zM128 914h107l90 -86l90 86h106l-124 -146h-145z" />
    <glyph glyph-name="ecaron" unicode="&#x11b;" 
d="M152.5 23.5q-57.5 35.5 -88.5 97t-31 139.5t31 139.5t88.5 97t134.5 35.5t134.5 -35t88 -98.5t30.5 -145.5v-30h-391q8 -66 43.5 -104t94.5 -38q47 0 79.5 20.5t49.5 57.5h114q-25 -79 -89.5 -125t-153.5 -46q-77 0 -134.5 35.5zM422 309q-10 61 -45 95.5t-90 34.5
q-56 0 -91 -34.5t-45 -95.5h271zM90 732h107l90 -86l90 86h106l-124 -146h-145z" />
    <glyph glyph-name="Gcircumflex" unicode="&#x11c;" horiz-adv-x="778" 
d="M190.5 38q-77.5 50 -117.5 134.5t-40 187.5t40.5 187.5t120.5 134.5t192 50q91 0 161 -33t113 -91.5t56 -132.5h-126q-15 66 -68.5 106.5t-135.5 40.5q-111 0 -168 -74t-57 -188t57 -188t168 -74q88 0 141.5 48.5t72.5 134.5h-244v102h368v-383h-95v126
q-75 -138 -255 -138q-106 0 -183.5 50zM582 780h-106l-90 86l-90 -86h-107l124 146h145z" />
    <glyph glyph-name="gcircumflex" unicode="&#x11d;" horiz-adv-x="603" 
d="M122.5 -165q-59.5 47 -66.5 132h113q12 -87 123 -87q140 0 140 134v62q-57 -78 -163 -78q-75 0 -128 34.5t-80.5 95t-27.5 137.5t27.5 137.5t80.5 95t128 34.5q109 0 167 -84v72h111v-506q0 -112 -71.5 -169t-186.5 -57q-107 0 -166.5 47zM187 140q36 -46 106 -46
t105.5 46t35.5 125t-35.5 125t-105.5 46t-106 -46t-36 -125t36 -125zM487 586h-106l-90 86l-90 -86h-107l124 146h145z" />
    <glyph glyph-name="Gbreve" unicode="&#x11e;" horiz-adv-x="778" 
d="M190.5 38q-77.5 50 -117.5 134.5t-40 187.5t40.5 187.5t120.5 134.5t192 50q91 0 161 -33t113 -91.5t56 -132.5h-126q-15 66 -68.5 106.5t-135.5 40.5q-111 0 -168 -74t-57 -188t57 -188t168 -74q88 0 141.5 48.5t72.5 134.5h-244v102h368v-383h-95v126
q-75 -138 -255 -138q-106 0 -183.5 50zM270 814.5q-45 40.5 -51 111.5h91q3 -37 23 -55t53 -18t53 18t23 55h91q-7 -71 -52 -111.5t-115 -40.5q-71 0 -116 40.5z" />
    <glyph glyph-name="gbreve" unicode="&#x11f;" horiz-adv-x="603" 
d="M122.5 -165q-59.5 47 -66.5 132h113q12 -87 123 -87q140 0 140 134v62q-57 -78 -163 -78q-75 0 -128 34.5t-80.5 95t-27.5 137.5t27.5 137.5t80.5 95t128 34.5q109 0 167 -84v72h111v-506q0 -112 -71.5 -169t-186.5 -57q-107 0 -166.5 47zM187 140q36 -46 106 -46
t105.5 46t35.5 125t-35.5 125t-105.5 46t-106 -46t-36 -125t36 -125zM174 620.5q-45 40.5 -51 111.5h91q3 -37 23 -55t53 -18t53 18t23 55h91q-7 -71 -52 -111.5t-115 -40.5q-71 0 -116 40.5z" />
    <glyph glyph-name="Gdotaccent" unicode="&#x120;" horiz-adv-x="778" 
d="M190.5 38q-77.5 50 -117.5 134.5t-40 187.5t40.5 187.5t120.5 134.5t192 50q91 0 161 -33t113 -91.5t56 -132.5h-126q-15 66 -68.5 106.5t-135.5 40.5q-111 0 -168 -74t-57 -188t57 -188t168 -74q88 0 141.5 48.5t72.5 134.5h-244v102h368v-383h-95v126
q-75 -138 -255 -138q-106 0 -183.5 50zM329 893h115v-113h-115v113z" />
    <glyph glyph-name="gdotaccent" unicode="&#x121;" horiz-adv-x="603" 
d="M122.5 -165q-59.5 47 -66.5 132h113q12 -87 123 -87q140 0 140 134v62q-57 -78 -163 -78q-75 0 -128 34.5t-80.5 95t-27.5 137.5t27.5 137.5t80.5 95t128 34.5q109 0 167 -84v72h111v-506q0 -112 -71.5 -169t-186.5 -57q-107 0 -166.5 47zM187 140q36 -46 106 -46
t105.5 46t35.5 125t-35.5 125t-105.5 46t-106 -46t-36 -125t36 -125zM233 720h115v-113h-115v113z" />
    <glyph glyph-name="Hcircumflex" unicode="&#x124;" horiz-adv-x="722" 
d="M536 314h-350v-314h-123v720h123v-294h350v294h123v-720h-123v314zM558 768h-106l-90 86l-90 -86h-107l124 146h145z" />
    <glyph glyph-name="hcircumflex" unicode="&#x125;" 
d="M56 720h115v-267q63 79 161 79q89 0 137 -55.5t48 -145.5v-331h-114v318q0 52 -26 82.5t-79 30.5q-27 0 -56 -12.5t-50 -45t-21 -86.5v-287h-115v720zM310 768h-106l-90 86l-90 -86h-107l124 146h145z" />
    <glyph glyph-name="Itilde" unicode="&#x128;" horiz-adv-x="249" 
d="M63 720h123v-720h-123v720zM50 903q17 0 34 -5.5t40 -16.5q7 -3 29 -14t35 -11q17 0 24.5 10.5t7.5 36.5h84q0 -68 -27 -101.5t-78 -33.5q-17 0 -34.5 6t-40.5 17q-8 3 -29 13.5t-34 10.5q-18 0 -25.5 -10.5t-7.5 -36.5h-83q0 135 105 135z" />
    <glyph glyph-name="itilde" unicode="&#x129;" horiz-adv-x="224" 
d="M55 520h115v-520h-115v520zM38 732q17 0 34 -5.5t40 -16.5q7 -3 29 -14t35 -11q17 0 24.5 10.5t7.5 36.5h84q0 -68 -27 -101.5t-78 -33.5q-17 0 -34.5 6t-40.5 17q-8 3 -29 13.5t-34 10.5q-18 0 -25.5 -10.5t-7.5 -36.5h-83q0 135 105 135z" />
    <glyph glyph-name="Ibreve" unicode="&#x12c;" horiz-adv-x="249" 
d="M63 720h123v-720h-123v720zM9 802.5q-45 40.5 -51 111.5h91q3 -37 23 -55t53 -18t53 18t23 55h91q-7 -71 -52 -111.5t-115 -40.5q-71 0 -116 40.5z" />
    <glyph glyph-name="ibreve" unicode="&#x12d;" horiz-adv-x="224" 
d="M55 520h115v-520h-115v520zM-4 620.5q-45 40.5 -51 111.5h91q3 -37 23 -55t53 -18t53 18t23 55h91q-7 -71 -52 -111.5t-115 -40.5q-71 0 -116 40.5z" />
    <glyph glyph-name="Iogonek" unicode="&#x12e;" horiz-adv-x="249" 
d="M63 720h123v-720q-101 -51 -101 -94q0 -20 14.5 -30t38.5 -10q22 0 48 8v-75q-32 -11 -73 -11q-56 0 -90 24t-34 71q0 36 28.5 66.5t73.5 50.5h-28v720z" />
    <glyph glyph-name="iogonek" unicode="&#x12f;" horiz-adv-x="224" 
d="M55 520h115v-520q-101 -51 -101 -94q0 -20 14.5 -30t38.5 -10q22 0 48 8v-75q-32 -11 -73 -11q-56 0 -90 24t-34 71q0 36 28.5 66.5t73.5 50.5h-20v520zM55 720h115v-113h-115v113z" />
    <glyph glyph-name="Idotaccent" unicode="&#x130;" horiz-adv-x="249" 
d="M63 720h123v-720h-123v720zM67 881h115v-113h-115v113z" />
    <glyph glyph-name="dotlessi" unicode="&#x131;" horiz-adv-x="224" 
d="M55 520h115v-520h-115v520z" />
    <glyph glyph-name="Jcircumflex" unicode="&#x134;" horiz-adv-x="553" 
d="M89 53q-60 65 -60 176v40h120v-40q0 -66 27.5 -99.5t86.5 -33.5t86.5 33.5t27.5 99.5v491h123v-491q0 -111 -61.5 -176t-175.5 -65t-174 65zM635 768h-106l-90 86l-90 -86h-107l124 146h145z" />
    <glyph glyph-name="jcircumflex" unicode="&#x135;" horiz-adv-x="232" 
d="M142.5 -171q-34.5 -29 -104.5 -29h-96v91h69q27 0 39 12t12 39v578h115v-591q0 -71 -34.5 -100zM316 586h-106l-90 86l-90 -86h-107l124 146h145z" />
    <glyph glyph-name="Lacute" unicode="&#x139;" horiz-adv-x="554" 
d="M63 720h123v-609h349v-111h-472v720zM174 914h137l-138 -146h-96z" />
    <glyph glyph-name="lacute" unicode="&#x13a;" horiz-adv-x="317" 
d="M171 720v-578q0 -27 12 -39t39 -12h69v-91h-96q-70 0 -104.5 29t-34.5 100v591h115zM163 914h137l-138 -146h-96z" />
    <glyph glyph-name="Lcaron" unicode="&#x13d;" horiz-adv-x="554" 
d="M63 720h123v-609h349v-111h-472v720zM288 720h122l-68 -170h-82z" />
    <glyph glyph-name="lcaron" unicode="&#x13e;" horiz-adv-x="317" 
d="M171 720v-578q0 -27 12 -39t39 -12h69v-91h-96q-70 0 -104.5 29t-34.5 100v591h115zM239 720h122l-68 -170h-82z" />
    <glyph glyph-name="Lslash" unicode="&#x141;" horiz-adv-x="574" 
d="M83 317l-83 -38v89l83 38v314h123v-259l181 82v-89l-181 -82v-261h349v-111h-472v317z" />
    <glyph glyph-name="lslash" unicode="&#x142;" horiz-adv-x="317" 
d="M171 720v-282l83 38v-89l-83 -38v-207q0 -27 12 -39t39 -12h69v-91h-96q-70 0 -104.5 29t-34.5 100v169l-83 -38v89l83 38v333h115z" />
    <glyph glyph-name="Nacute" unicode="&#x143;" horiz-adv-x="729" 
d="M183 553v-553h-120v720h139l344 -552v552h120v-720h-139zM414 914h137l-138 -146h-96z" />
    <glyph glyph-name="nacute" unicode="&#x144;" 
d="M377 400.5q-26 30.5 -79 30.5q-27 0 -56 -12.5t-50 -45t-21 -86.5v-287h-115v520h111v-73q29 39 70.5 62t94.5 23q89 0 137 -55.5t48 -145.5v-331h-114v318q0 52 -26 82.5zM336 732h137l-138 -146h-96z" />
    <glyph glyph-name="Ncaron" unicode="&#x147;" horiz-adv-x="729" 
d="M183 553v-553h-120v720h139l344 -552v552h120v-720h-139zM168 914h107l90 -86l90 86h106l-124 -146h-145z" />
    <glyph glyph-name="ncaron" unicode="&#x148;" 
d="M377 400.5q-26 30.5 -79 30.5q-27 0 -56 -12.5t-50 -45t-21 -86.5v-287h-115v520h111v-73q29 39 70.5 62t94.5 23q89 0 137 -55.5t48 -145.5v-331h-114v318q0 52 -26 82.5zM90 732h107l90 -86l90 86h106l-124 -146h-145z" />
    <glyph glyph-name="Obreve" unicode="&#x14e;" horiz-adv-x="772" 
d="M194 38q-80 50 -120.5 134.5t-40.5 187.5t40.5 187.5t120.5 134.5t192 50t192 -50t120.5 -134.5t40.5 -187.5t-40.5 -187.5t-120.5 -134.5t-192 -50t-192 50zM218 172.5q57 -73.5 168 -73.5q112 0 168.5 73.5t56.5 187.5t-56.5 187.5t-168.5 73.5q-111 0 -168 -73.5
t-57 -187.5t57 -187.5zM270 814.5q-45 40.5 -51 111.5h91q3 -37 23 -55t53 -18t53 18t23 55h91q-7 -71 -52 -111.5t-115 -40.5q-71 0 -116 40.5z" />
    <glyph glyph-name="obreve" unicode="&#x14f;" horiz-adv-x="587" 
d="M154 23q-59 35 -90 97t-31 140t31 140t90 97t140 35q80 0 139 -35t90 -97t31 -140t-31 -140t-90 -97t-139 -35q-81 0 -140 35zM187 133q36 -47 107 -47q70 0 106 47t36 127t-36 127t-106 47q-71 0 -107 -47t-36 -127t36 -127zM178 620.5q-45 40.5 -51 111.5h91
q3 -37 23 -55t53 -18t53 18t23 55h91q-7 -71 -52 -111.5t-115 -40.5q-71 0 -116 40.5z" />
    <glyph glyph-name="Racute" unicode="&#x154;" horiz-adv-x="669" 
d="M63 720h316q126 0 189.5 -56.5t63.5 -153.5q0 -54 -29 -98.5t-83 -74.5q41 -17 63 -49.5t29 -78.5l32 -209h-127l-24 177q-9 60 -39 87t-87 27h-181v-291h-123v720zM366 392q70 0 104.5 29t34.5 83t-34.5 83t-104.5 29h-180v-224h180zM379 914h137l-138 -146h-96z" />
    <glyph glyph-name="racute" unicode="&#x155;" horiz-adv-x="393" 
d="M56 520h111v-92q50 98 160 98h40v-107h-45q-72 0 -111.5 -36.5t-39.5 -124.5v-258h-115v520zM261 732h137l-138 -146h-96z" />
    <glyph glyph-name="Rcaron" unicode="&#x158;" horiz-adv-x="669" 
d="M63 720h316q126 0 189.5 -56.5t63.5 -153.5q0 -54 -29 -98.5t-83 -74.5q41 -17 63 -49.5t29 -78.5l32 -209h-127l-24 177q-9 60 -39 87t-87 27h-181v-291h-123v720zM366 392q70 0 104.5 29t34.5 83t-34.5 83t-104.5 29h-180v-224h180zM133 914h107l90 -86l90 86h106
l-124 -146h-145z" />
    <glyph glyph-name="rcaron" unicode="&#x159;" horiz-adv-x="393" 
d="M56 520h111v-92q50 98 160 98h40v-107h-45q-72 0 -111.5 -36.5t-39.5 -124.5v-258h-115v520zM15 732h107l90 -86l90 86h106l-124 -146h-145z" />
    <glyph glyph-name="Sacute" unicode="&#x15a;" horiz-adv-x="641" 
d="M113.5 53q-82.5 65 -85.5 189h122q3 -82 53.5 -116.5t131.5 -34.5q70 0 112.5 28t42.5 81q0 29 -15 48.5t-55 35.5t-117 31q-133 26 -194 75.5t-61 144.5q0 58 33 103t92 69.5t136 24.5q142 0 214.5 -65t75.5 -175h-120q-4 70 -45 103.5t-125 33.5q-61 0 -98 -24.5
t-37 -66.5q0 -31 12.5 -50.5t50 -35.5t112.5 -31q104 -20 162 -49t81.5 -69t23.5 -98q0 -67 -36 -116t-100 -75t-148 -26q-136 0 -218.5 65zM371 926h137l-138 -146h-96z" />
    <glyph glyph-name="sacute" unicode="&#x15b;" horiz-adv-x="499" 
d="M87.5 32.5q-61.5 44.5 -67.5 138.5h113q6 -53 36.5 -75t87.5 -22q49 0 78 17.5t29 48.5q0 21 -9 34t-35.5 22.5t-80.5 18.5q-116 19 -161 58t-45 105q0 71 57.5 112.5t151.5 41.5q107 0 165 -46.5t60 -129.5h-109q-2 50 -33 70t-83 20q-42 0 -68.5 -17t-26.5 -47
q0 -21 10.5 -33.5t38 -21.5t80.5 -18q78 -13 122 -34t62.5 -52t18.5 -76q0 -75 -62 -117t-163 -42q-105 0 -166.5 44.5zM299 732h137l-138 -146h-96z" />
    <glyph glyph-name="Scircumflex" unicode="&#x15c;" horiz-adv-x="641" 
d="M113.5 53q-82.5 65 -85.5 189h122q3 -82 53.5 -116.5t131.5 -34.5q70 0 112.5 28t42.5 81q0 29 -15 48.5t-55 35.5t-117 31q-133 26 -194 75.5t-61 144.5q0 58 33 103t92 69.5t136 24.5q142 0 214.5 -65t75.5 -175h-120q-4 70 -45 103.5t-125 33.5q-61 0 -98 -24.5
t-37 -66.5q0 -31 12.5 -50.5t50 -35.5t112.5 -31q104 -20 162 -49t81.5 -69t23.5 -98q0 -67 -36 -116t-100 -75t-148 -26q-136 0 -218.5 65zM518 780h-106l-90 86l-90 -86h-107l124 146h145z" />
    <glyph glyph-name="scircumflex" unicode="&#x15d;" horiz-adv-x="499" 
d="M87.5 32.5q-61.5 44.5 -67.5 138.5h113q6 -53 36.5 -75t87.5 -22q49 0 78 17.5t29 48.5q0 21 -9 34t-35.5 22.5t-80.5 18.5q-116 19 -161 58t-45 105q0 71 57.5 112.5t151.5 41.5q107 0 165 -46.5t60 -129.5h-109q-2 50 -33 70t-83 20q-42 0 -68.5 -17t-26.5 -47
q0 -21 10.5 -33.5t38 -21.5t80.5 -18q78 -13 122 -34t62.5 -52t18.5 -76q0 -75 -62 -117t-163 -42q-105 0 -166.5 44.5zM446 586h-106l-90 86l-90 -86h-107l124 146h145z" />
    <glyph glyph-name="Scedilla" unicode="&#x15e;" horiz-adv-x="641" 
d="M213 -228v54q33 -6 56 -6q70 0 70 41q0 38 -60 38q-21 0 -31 -2v41l39 52q-117 10 -186.5 74t-72.5 178h122q3 -82 53.5 -116.5t131.5 -34.5q70 0 112.5 28t42.5 81q0 29 -15 48.5t-55 35.5t-117 31q-133 26 -194 75.5t-61 144.5q0 58 33 103t92 69.5t136 24.5
q142 0 214.5 -65t75.5 -175h-120q-4 70 -45 103.5t-125 33.5q-61 0 -98 -24.5t-37 -66.5q0 -31 12.5 -50.5t50 -35.5t112.5 -31q104 -20 162 -49t81.5 -69t23.5 -98q0 -96 -70.5 -153t-187.5 -63l-42 -46h6q50 0 80 -22t30 -60q0 -41 -36.5 -69t-106.5 -28q-43 0 -76 8z" />
    <glyph glyph-name="scedilla" unicode="&#x15f;" horiz-adv-x="499" 
d="M140 -228v54q33 -6 56 -6q70 0 70 41q0 38 -60 38q-21 0 -31 -2v41l39 52q-88 8 -138.5 52t-55.5 129h113q6 -53 36.5 -75t87.5 -22q49 0 78 17.5t29 48.5q0 21 -9 34t-35.5 22.5t-80.5 18.5q-116 19 -161 58t-45 105q0 71 57.5 112.5t151.5 41.5q107 0 165 -46.5
t60 -129.5h-109q-2 50 -33 70t-83 20q-42 0 -68.5 -17t-26.5 -47q0 -21 10.5 -33.5t38 -21.5t80.5 -18q78 -13 122 -34t62.5 -52t18.5 -76q0 -69 -52.5 -110t-140.5 -48l-43 -46h6q50 0 80 -22t30 -60q0 -41 -36.5 -69t-106.5 -28q-43 0 -76 8z" />
    <glyph glyph-name="Scaron" unicode="&#x160;" horiz-adv-x="641" 
d="M113.5 53q-82.5 65 -85.5 189h122q3 -82 53.5 -116.5t131.5 -34.5q70 0 112.5 28t42.5 81q0 29 -15 48.5t-55 35.5t-117 31q-133 26 -194 75.5t-61 144.5q0 58 33 103t92 69.5t136 24.5q142 0 214.5 -65t75.5 -175h-120q-4 70 -45 103.5t-125 33.5q-61 0 -98 -24.5
t-37 -66.5q0 -31 12.5 -50.5t50 -35.5t112.5 -31q104 -20 162 -49t81.5 -69t23.5 -98q0 -67 -36 -116t-100 -75t-148 -26q-136 0 -218.5 65zM125 926h107l90 -86l90 86h106l-124 -146h-145z" />
    <glyph glyph-name="scaron" unicode="&#x161;" horiz-adv-x="499" 
d="M87.5 32.5q-61.5 44.5 -67.5 138.5h113q6 -53 36.5 -75t87.5 -22q49 0 78 17.5t29 48.5q0 21 -9 34t-35.5 22.5t-80.5 18.5q-116 19 -161 58t-45 105q0 71 57.5 112.5t151.5 41.5q107 0 165 -46.5t60 -129.5h-109q-2 50 -33 70t-83 20q-42 0 -68.5 -17t-26.5 -47
q0 -21 10.5 -33.5t38 -21.5t80.5 -18q78 -13 122 -34t62.5 -52t18.5 -76q0 -75 -62 -117t-163 -42q-105 0 -166.5 44.5zM53 732h107l90 -86l90 86h106l-124 -146h-145z" />
    <glyph glyph-name="uni0162" unicode="&#x162;" horiz-adv-x="626" 
d="M250 609h-233v111h592v-111h-234v-609h-28l-41 -45h6q50 0 80 -22t30 -60q0 -41 -36.5 -69t-106.5 -28q-43 0 -76 8v54q33 -6 56 -6q70 0 70 41q0 38 -60 38q-21 0 -31 -2v41l38 50h-26v609z" />
    <glyph glyph-name="uni0163" unicode="&#x163;" horiz-adv-x="384" 
d="M224 680v-160h134v-91h-134v-287q0 -27 11.5 -39t39.5 -12h83v-91h-81l-41 -45h6q50 0 80 -22t30 -60q0 -41 -36.5 -69t-106.5 -28q-43 0 -76 8v54q33 -6 56 -6q70 0 70 41q0 38 -60 38q-21 0 -31 -2v41l39 53q-49 7 -73.5 36.5t-24.5 89.5v300h-93v91h93v160h115z" />
    <glyph glyph-name="Tcaron" unicode="&#x164;" horiz-adv-x="626" 
d="M250 609h-233v111h592v-111h-234v-609h-125v609zM117 914h107l90 -86l90 86h106l-124 -146h-145z" />
    <glyph glyph-name="tcaron" unicode="&#x165;" horiz-adv-x="384" 
d="M224 680v-160h134v-91h-134v-287q0 -27 11.5 -39t39.5 -12h83v-91h-111q-69 0 -103.5 29t-34.5 100v300h-93v91h93v160h115zM284 720h122l-68 -170h-82z" />
    <glyph glyph-name="Utilde" unicode="&#x168;" horiz-adv-x="694" 
d="M131.5 62q-78.5 74 -78.5 210v448h123v-448q0 -89 44 -132t127 -43q171 0 171 175v448h123v-448q0 -136 -78.5 -210t-215.5 -74t-215.5 74zM273 903q17 0 34 -5.5t40 -16.5q7 -3 29 -14t35 -11q17 0 24.5 10.5t7.5 36.5h84q0 -68 -27 -101.5t-78 -33.5q-17 0 -34.5 6
t-40.5 17q-8 3 -29 13.5t-34 10.5q-18 0 -25.5 -10.5t-7.5 -36.5h-83q0 135 105 135z" />
    <glyph glyph-name="utilde" unicode="&#x169;" 
d="M196 119.5q26 -30.5 79 -30.5q27 0 56 12.5t50 45t21 86.5v287h115v-520h-111v73q-29 -39 -70.5 -62t-94.5 -23q-89 0 -137 55.5t-48 145.5v331h114v-318q0 -52 26 -82.5zM212 732q17 0 34 -5.5t40 -16.5q7 -3 29 -14t35 -11q17 0 24.5 10.5t7.5 36.5h84
q0 -68 -27 -101.5t-78 -33.5q-17 0 -34.5 6t-40.5 17q-8 3 -29 13.5t-34 10.5q-18 0 -25.5 -10.5t-7.5 -36.5h-83q0 135 105 135z" />
    <glyph glyph-name="Ubreve" unicode="&#x16c;" horiz-adv-x="694" 
d="M131.5 62q-78.5 74 -78.5 210v448h123v-448q0 -89 44 -132t127 -43q171 0 171 175v448h123v-448q0 -136 -78.5 -210t-215.5 -74t-215.5 74zM231 802.5q-45 40.5 -51 111.5h91q3 -37 23 -55t53 -18t53 18t23 55h91q-7 -71 -52 -111.5t-115 -40.5q-71 0 -116 40.5z" />
    <glyph glyph-name="ubreve" unicode="&#x16d;" 
d="M196 119.5q26 -30.5 79 -30.5q27 0 56 12.5t50 45t21 86.5v287h115v-520h-111v73q-29 -39 -70.5 -62t-94.5 -23q-89 0 -137 55.5t-48 145.5v331h114v-318q0 -52 26 -82.5zM171 620.5q-45 40.5 -51 111.5h91q3 -37 23 -55t53 -18t53 18t23 55h91q-7 -71 -52 -111.5
t-115 -40.5q-71 0 -116 40.5z" />
    <glyph glyph-name="Uring" unicode="&#x16e;" horiz-adv-x="694" 
d="M131.5 62q-78.5 74 -78.5 210v448h123v-448q0 -89 44 -132t127 -43q171 0 171 175v448h123v-448q0 -136 -78.5 -210t-215.5 -74t-215.5 74zM276 663.5q-32 17.5 -50.5 48.5t-18.5 68t18.5 67.5t51 48t70.5 17.5t70.5 -17.5t51 -48t18.5 -67.5t-18.5 -68t-50.5 -48.5
t-71 -17.5t-71 17.5zM304 737q17 -17 43 -17t43.5 17t17.5 43q0 25 -17.5 42t-43.5 17t-43 -16.5t-17 -42.5t17 -43z" />
    <glyph glyph-name="uring" unicode="&#x16f;" 
d="M196 119.5q26 -30.5 79 -30.5q27 0 56 12.5t50 45t21 86.5v287h115v-520h-111v73q-29 -39 -70.5 -62t-94.5 -23q-89 0 -137 55.5t-48 145.5v331h114v-318q0 -52 26 -82.5zM216 597.5q-32 17.5 -50.5 48.5t-18.5 68t18.5 67.5t51 48t70.5 17.5t70.5 -17.5t51 -48
t18.5 -67.5t-18.5 -68t-50.5 -48.5t-71 -17.5t-71 17.5zM244 671q17 -17 43 -17t43.5 17t17.5 43q0 25 -17.5 42t-43.5 17t-43 -16.5t-17 -42.5t17 -43z" />
    <glyph glyph-name="Uogonek" unicode="&#x172;" horiz-adv-x="694" 
d="M284 -188q-34 24 -34 71q0 31 21.5 58t57.5 47q-129 5 -202.5 78.5t-73.5 205.5v448h123v-448q0 -89 44 -132t127 -43q171 0 171 175v448h123v-448q0 -109 -51 -178.5t-143 -93.5q-101 -51 -101 -94q0 -20 14.5 -30t38.5 -10q22 0 48 8v-75q-32 -11 -73 -11q-56 0 -90 24
z" />
    <glyph glyph-name="uogonek" unicode="&#x173;" 
d="M196 119.5q26 -30.5 79 -30.5q27 0 56 12.5t50 45t21 86.5v287h115v-519l1 -1q-101 -51 -101 -94q0 -20 14.5 -30t38.5 -10q22 0 48 8v-75q-32 -11 -73 -11q-56 0 -90 24t-34 71q0 36 28.5 66.5t73.5 50.5h-17v73q-29 -39 -70.5 -62t-94.5 -23q-89 0 -137 55.5t-48 145.5
v331h114v-318q0 -52 26 -82.5z" />
    <glyph glyph-name="Wcircumflex" unicode="&#x174;" horiz-adv-x="995" 
d="M497 563l-142 -563h-137l-206 720h129l150 -564l142 564h129l142 -565l149 565h130l-206 -720h-138zM694 768h-106l-90 86l-90 -86h-107l124 146h145z" />
    <glyph glyph-name="wcircumflex" unicode="&#x175;" horiz-adv-x="838" 
d="M419 376l-110 -376h-119l-184 520h125l122 -383l110 383h112l109 -382l123 382h124l-183 -520h-120zM616 586h-106l-90 86l-90 -86h-107l124 146h145z" />
    <glyph glyph-name="Ycircumflex" unicode="&#x176;" horiz-adv-x="703" 
d="M292 282l-280 438h141l200 -326l201 326h137l-277 -438v-282h-122v282zM550 768h-106l-90 86l-90 -86h-107l124 146h145z" />
    <glyph glyph-name="ycircumflex" unicode="&#x177;" horiz-adv-x="527" 
d="M29 -104h82q36 0 50.5 12.5t27.5 49.5l14 38l-197 524h125l133 -402l133 402h124l-218 -586q-24 -67 -57.5 -100.5t-98.5 -33.5h-118v96zM460 586h-106l-90 86l-90 -86h-107l124 146h145z" />
    <glyph glyph-name="Ydieresis" unicode="&#x178;" horiz-adv-x="703" 
d="M292 282l-280 438h141l200 -326l201 326h137l-277 -438v-282h-122v282zM199 881h115v-113h-115v113zM392 881h115v-113h-115v113z" />
    <glyph glyph-name="Zacute" unicode="&#x179;" horiz-adv-x="630" 
d="M28 103l413 509l-171 -3h-226v111h553v-100l-416 -512l173 3h248v-111h-574v103zM369 914h137l-138 -146h-96z" />
    <glyph glyph-name="zacute" unicode="&#x17a;" horiz-adv-x="511" 
d="M38 80l284 347h-277v93h418v-80l-283 -347h293v-93h-435v80zM305 732h137l-138 -146h-96z" />
    <glyph glyph-name="Zdotaccent" unicode="&#x17b;" horiz-adv-x="630" 
d="M28 103l413 509l-171 -3h-226v111h553v-100l-416 -512l173 3h248v-111h-574v103zM263 881h115v-113h-115v113z" />
    <glyph glyph-name="zdotaccent" unicode="&#x17c;" horiz-adv-x="511" 
d="M38 80l284 347h-277v93h418v-80l-283 -347h293v-93h-435v80zM198 720h115v-113h-115v113z" />
    <glyph glyph-name="Zcaron" unicode="&#x17d;" horiz-adv-x="630" 
d="M28 103l413 509l-171 -3h-226v111h553v-100l-416 -512l173 3h248v-111h-574v103zM124 914h107l90 -86l90 86h106l-124 -146h-145z" />
    <glyph glyph-name="zcaron" unicode="&#x17e;" horiz-adv-x="511" 
d="M38 80l284 347h-277v93h418v-80l-283 -347h293v-93h-435v80zM59 732h107l90 -86l90 86h106l-124 -146h-145z" />
    <glyph glyph-name="uni01CD" unicode="&#x1cd;" horiz-adv-x="731" 
d="M524 174h-319l-65 -174h-128l282 720h141l284 -720h-130zM484 281l-119 322l-120 -322h239zM168 914h107l90 -86l90 86h106l-124 -146h-145z" />
    <glyph glyph-name="uni01CE" unicode="&#x1ce;" horiz-adv-x="533" 
d="M382 61q-32 -39 -73 -56t-92 -17q-87 0 -138 41t-51 115q0 67 48 105t148 56l154 28v33q0 38 -24 56.5t-75 18.5q-49 0 -81 -20.5t-34 -64.5h-114q2 88 66 132t162 44q106 0 159.5 -40.5t53.5 -113.5v-378h-109v61zM169.5 95.5q23.5 -19.5 69.5 -19.5q57 0 98 32t41 95
v49l-133 -27q-52 -11 -75.5 -26.5t-23.5 -50.5q0 -33 23.5 -52.5zM74 732h107l90 -86l90 86h106l-124 -146h-145z" />
    <glyph glyph-name="uni01CF" unicode="&#x1cf;" horiz-adv-x="249" 
d="M63 720h123v-720h-123v720zM-72 914h107l90 -86l90 86h106l-124 -146h-145z" />
    <glyph glyph-name="uni01D0" unicode="&#x1d0;" horiz-adv-x="224" 
d="M55 520h115v-520h-115v520zM-84 732h107l90 -86l90 86h106l-124 -146h-145z" />
    <glyph glyph-name="uni01D1" unicode="&#x1d1;" horiz-adv-x="772" 
d="M194 38q-80 50 -120.5 134.5t-40.5 187.5t40.5 187.5t120.5 134.5t192 50t192 -50t120.5 -134.5t40.5 -187.5t-40.5 -187.5t-120.5 -134.5t-192 -50t-192 50zM218 172.5q57 -73.5 168 -73.5q112 0 168.5 73.5t56.5 187.5t-56.5 187.5t-168.5 73.5q-111 0 -168 -73.5
t-57 -187.5t57 -187.5zM189 926h107l90 -86l90 86h106l-124 -146h-145z" />
    <glyph glyph-name="uni01D2" unicode="&#x1d2;" horiz-adv-x="587" 
d="M154 23q-59 35 -90 97t-31 140t31 140t90 97t140 35q80 0 139 -35t90 -97t31 -140t-31 -140t-90 -97t-139 -35q-81 0 -140 35zM187 133q36 -47 107 -47q70 0 106 47t36 127t-36 127t-106 47q-71 0 -107 -47t-36 -127t36 -127zM97 732h107l90 -86l90 86h106l-124 -146
h-145z" />
    <glyph glyph-name="uni01D3" unicode="&#x1d3;" horiz-adv-x="694" 
d="M131.5 62q-78.5 74 -78.5 210v448h123v-448q0 -89 44 -132t127 -43q171 0 171 175v448h123v-448q0 -136 -78.5 -210t-215.5 -74t-215.5 74zM151 914h107l90 -86l90 86h106l-124 -146h-145z" />
    <glyph glyph-name="uni01D4" unicode="&#x1d4;" 
d="M196 119.5q26 -30.5 79 -30.5q27 0 56 12.5t50 45t21 86.5v287h115v-520h-111v73q-29 -39 -70.5 -62t-94.5 -23q-89 0 -137 55.5t-48 145.5v331h114v-318q0 -52 26 -82.5zM90 732h107l90 -86l90 86h106l-124 -146h-145z" />
    <glyph glyph-name="Gcaron" unicode="&#x1e6;" horiz-adv-x="778" 
d="M190.5 38q-77.5 50 -117.5 134.5t-40 187.5t40.5 187.5t120.5 134.5t192 50q91 0 161 -33t113 -91.5t56 -132.5h-126q-15 66 -68.5 106.5t-135.5 40.5q-111 0 -168 -74t-57 -188t57 -188t168 -74q88 0 141.5 48.5t72.5 134.5h-244v102h368v-383h-95v126
q-75 -138 -255 -138q-106 0 -183.5 50zM189 926h107l90 -86l90 86h106l-124 -146h-145z" />
    <glyph glyph-name="gcaron" unicode="&#x1e7;" horiz-adv-x="603" 
d="M122.5 -165q-59.5 47 -66.5 132h113q12 -87 123 -87q140 0 140 134v62q-57 -78 -163 -78q-75 0 -128 34.5t-80.5 95t-27.5 137.5t27.5 137.5t80.5 95t128 34.5q109 0 167 -84v72h111v-506q0 -112 -71.5 -169t-186.5 -57q-107 0 -166.5 47zM187 140q36 -46 106 -46
t105.5 46t35.5 125t-35.5 125t-105.5 46t-106 -46t-36 -125t36 -125zM94 732h107l90 -86l90 86h106l-124 -146h-145z" />
    <glyph glyph-name="uni01E8" unicode="&#x1e8;" horiz-adv-x="706" 
d="M63 720h123v-362l352 362h156l-292 -292l292 -428h-148l-230 341l-130 -130v-211h-123v720zM166 914h107l90 -86l90 86h106l-124 -146h-145z" />
    <glyph glyph-name="uni01E9" unicode="&#x1e9;" horiz-adv-x="547" 
d="M56 720h117v-423l215 223h141l-198 -201l213 -319h-136l-157 238l-78 -79v-159h-117v720zM-82 914h107l90 -86l90 86h106l-124 -146h-145z" />
    <glyph glyph-name="uni01EA" unicode="&#x1ea;" horiz-adv-x="772" 
d="M554.5 172.5q56.5 73.5 56.5 187.5t-56.5 187.5t-168.5 73.5q-111 0 -168 -73.5t-57 -187.5t57 -187.5t168 -73.5q112 0 168.5 73.5zM73.5 547.5q40.5 84.5 120.5 134.5t192 50t192 -50t120.5 -134.5t40.5 -187.5q0 -86 -29 -160.5t-85.5 -127t-137.5 -72.5
q-101 -51 -101 -94q0 -20 14.5 -30t38.5 -10q22 0 48 8v-75q-32 -11 -73 -11q-56 0 -90 24t-34 71q0 31 21.5 58t57.5 47q-107 4 -183 54.5t-114.5 133.5t-38.5 184q0 103 40.5 187.5z" />
    <glyph glyph-name="uni01EB" unicode="&#x1eb;" horiz-adv-x="587" 
d="M400 133q36 47 36 127t-36 127t-106 47q-71 0 -107 -47t-36 -127t36 -127t107 -47q70 0 106 47zM64 400q31 62 90 97t140 35q80 0 139 -35t90 -97t31 -140q0 -96 -46 -165.5t-128 -94.5q-101 -51 -101 -94q0 -20 14.5 -30t38.5 -10q22 0 48 8v-75q-32 -11 -73 -11
q-56 0 -90 24t-34 71q0 31 22 58.5t59 47.5q-72 7 -124 43.5t-79.5 95.5t-27.5 132q0 78 31 140z" />
    <glyph glyph-name="uni01F4" unicode="&#x1f4;" horiz-adv-x="778" 
d="M190.5 38q-77.5 50 -117.5 134.5t-40 187.5t40.5 187.5t120.5 134.5t192 50q91 0 161 -33t113 -91.5t56 -132.5h-126q-15 66 -68.5 106.5t-135.5 40.5q-111 0 -168 -74t-57 -188t57 -188t168 -74q88 0 141.5 48.5t72.5 134.5h-244v102h368v-383h-95v126
q-75 -138 -255 -138q-106 0 -183.5 50zM435 926h137l-138 -146h-96z" />
    <glyph glyph-name="uni01F5" unicode="&#x1f5;" horiz-adv-x="603" 
d="M122.5 -165q-59.5 47 -66.5 132h113q12 -87 123 -87q140 0 140 134v62q-57 -78 -163 -78q-75 0 -128 34.5t-80.5 95t-27.5 137.5t27.5 137.5t80.5 95t128 34.5q109 0 167 -84v72h111v-506q0 -112 -71.5 -169t-186.5 -57q-107 0 -166.5 47zM187 140q36 -46 106 -46
t105.5 46t35.5 125t-35.5 125t-105.5 46t-106 -46t-36 -125t36 -125zM340 732h137l-138 -146h-96z" />
    <glyph glyph-name="uni01F8" unicode="&#x1f8;" horiz-adv-x="729" 
d="M183 553v-553h-120v720h139l344 -552v552h120v-720h-139zM316 768l-138 146h137l97 -146h-96z" />
    <glyph glyph-name="uni01F9" unicode="&#x1f9;" 
d="M377 400.5q-26 30.5 -79 30.5q-27 0 -56 -12.5t-50 -45t-21 -86.5v-287h-115v520h111v-73q29 39 70.5 62t94.5 23q89 0 137 -55.5t48 -145.5v-331h-114v318q0 52 -26 82.5zM238 586l-138 146h137l97 -146h-96z" />
    <glyph glyph-name="uni0226" unicode="&#x226;" horiz-adv-x="731" 
d="M524 174h-319l-65 -174h-128l282 720h141l284 -720h-130zM484 281l-119 322l-120 -322h239zM307 881h115v-113h-115v113z" />
    <glyph glyph-name="uni0227" unicode="&#x227;" horiz-adv-x="533" 
d="M382 61q-32 -39 -73 -56t-92 -17q-87 0 -138 41t-51 115q0 67 48 105t148 56l154 28v33q0 38 -24 56.5t-75 18.5q-49 0 -81 -20.5t-34 -64.5h-114q2 88 66 132t162 44q106 0 159.5 -40.5t53.5 -113.5v-378h-109v61zM169.5 95.5q23.5 -19.5 69.5 -19.5q57 0 98 32t41 95
v49l-133 -27q-52 -11 -75.5 -26.5t-23.5 -50.5q0 -33 23.5 -52.5zM213 720h115v-113h-115v113z" />
    <glyph glyph-name="uni0228" unicode="&#x228;" horiz-adv-x="613" 
d="M63 720h522v-111h-399v-184h370v-107h-370v-207h396v-111h-223l-41 -45h6q50 0 80 -22t30 -60q0 -41 -36.5 -69t-106.5 -28q-43 0 -76 8v54q33 -6 56 -6q70 0 70 41q0 38 -60 38q-21 0 -31 -2v41l38 50h-225v720z" />
    <glyph glyph-name="uni0229" unicode="&#x229;" 
d="M178 -228v54q33 -6 56 -6q70 0 70 41q0 38 -60 38q-21 0 -31 -2v41l39 52q-67 8 -116.5 44.5t-76 95t-26.5 130.5q0 78 31 139.5t88.5 97t134.5 35.5t134.5 -35t88 -98.5t30.5 -145.5v-30h-391q8 -66 43.5 -104t94.5 -38q47 0 79.5 20.5t49.5 57.5h114
q-22 -70 -76 -114.5t-129 -54.5l-44 -47h6q50 0 80 -22t30 -60q0 -41 -36.5 -69t-106.5 -28q-43 0 -76 8zM422 309q-10 61 -45 95.5t-90 34.5q-56 0 -91 -34.5t-45 -95.5h271z" />
    <glyph glyph-name="uni022E" unicode="&#x22e;" horiz-adv-x="772" 
d="M194 38q-80 50 -120.5 134.5t-40.5 187.5t40.5 187.5t120.5 134.5t192 50t192 -50t120.5 -134.5t40.5 -187.5t-40.5 -187.5t-120.5 -134.5t-192 -50t-192 50zM218 172.5q57 -73.5 168 -73.5q112 0 168.5 73.5t56.5 187.5t-56.5 187.5t-168.5 73.5q-111 0 -168 -73.5
t-57 -187.5t57 -187.5zM329 893h115v-113h-115v113z" />
    <glyph glyph-name="uni022F" unicode="&#x22f;" horiz-adv-x="587" 
d="M154 23q-59 35 -90 97t-31 140t31 140t90 97t140 35q80 0 139 -35t90 -97t31 -140t-31 -140t-90 -97t-139 -35q-81 0 -140 35zM187 133q36 -47 107 -47q70 0 106 47t36 127t-36 127t-106 47q-71 0 -107 -47t-36 -127t36 -127zM236 720h115v-113h-115v113z" />
    <glyph glyph-name="uni0237" unicode="&#x237;" horiz-adv-x="232" 
d="M142.5 -171q-34.5 -29 -104.5 -29h-96v91h69q27 0 39 12t12 39v578h115v-591q0 -71 -34.5 -100z" />
    <glyph glyph-name="circumflex" unicode="&#x2c6;" horiz-adv-x="393" 
d="M393 586h-106l-90 86l-90 -86h-107l124 146h145z" />
    <glyph glyph-name="caron" unicode="&#x2c7;" horiz-adv-x="393" 
d="M0 732h107l90 -86l90 86h106l-124 -146h-145z" />
    <glyph glyph-name="breve" unicode="&#x2d8;" horiz-adv-x="334" 
d="M51 620.5q-45 40.5 -51 111.5h91q3 -37 23 -55t53 -18t53 18t23 55h91q-7 -71 -52 -111.5t-115 -40.5q-71 0 -116 40.5z" />
    <glyph glyph-name="dotaccent" unicode="&#x2d9;" horiz-adv-x="115" 
d="M0 720h115v-113h-115v113z" />
    <glyph glyph-name="ring" unicode="&#x2da;" horiz-adv-x="280" 
d="M69 597.5q-32 17.5 -50.5 48.5t-18.5 68t18.5 67.5t51 48t70.5 17.5t70.5 -17.5t51 -48t18.5 -67.5t-18.5 -68t-50.5 -48.5t-71 -17.5t-71 17.5zM97 671q17 -17 43 -17t43.5 17t17.5 43q0 25 -17.5 42t-43.5 17t-43 -16.5t-17 -42.5t17 -43z" />
    <glyph glyph-name="ogonek" unicode="&#x2db;" horiz-adv-x="196" 
d="M34 -188q-34 24 -34 71q0 39 33 71.5t84 51.5h71l9 -6q-101 -51 -101 -94q0 -20 14.5 -30t38.5 -10q22 0 48 8v-75q-32 -11 -73 -11q-56 0 -90 24z" />
    <glyph glyph-name="tilde" unicode="&#x2dc;" horiz-adv-x="359" 
d="M105 732q17 0 34 -5.5t40 -16.5q7 -3 29 -14t35 -11q17 0 24.5 10.5t7.5 36.5h84q0 -68 -27 -101.5t-78 -33.5q-17 0 -34.5 6t-40.5 17q-8 3 -29 13.5t-34 10.5q-18 0 -25.5 -10.5t-7.5 -36.5h-83q0 135 105 135z" />
    <glyph glyph-name="gravecomb" unicode="&#x300;" horiz-adv-x="0" 
d="M138 586l-138 146h137l97 -146h-96z" />
    <glyph glyph-name="acutecomb" unicode="&#x301;" horiz-adv-x="0" 
d="M97 732h137l-138 -146h-96z" />
    <glyph glyph-name="uni0302" unicode="&#x302;" horiz-adv-x="0" 
d="M393 586h-106l-90 86l-90 -86h-107l124 146h145z" />
    <glyph glyph-name="tildecomb" unicode="&#x303;" horiz-adv-x="0" 
d="M105 732q17 0 34 -5.5t40 -16.5q7 -3 29 -14t35 -11q17 0 24.5 10.5t7.5 36.5h84q0 -68 -27 -101.5t-78 -33.5q-17 0 -34.5 6t-40.5 17q-8 3 -29 13.5t-34 10.5q-18 0 -25.5 -10.5t-7.5 -36.5h-83q0 135 105 135z" />
    <glyph glyph-name="uni0306" unicode="&#x306;" horiz-adv-x="0" 
d="M51 620.5q-45 40.5 -51 111.5h91q3 -37 23 -55t53 -18t53 18t23 55h91q-7 -71 -52 -111.5t-115 -40.5q-71 0 -116 40.5z" />
    <glyph glyph-name="uni0307" unicode="&#x307;" horiz-adv-x="0" 
d="M0 720h115v-113h-115v113z" />
    <glyph glyph-name="uni0308" unicode="&#x308;" horiz-adv-x="0" 
d="M0 720h115v-113h-115v113zM193 720h115v-113h-115v113z" />
    <glyph glyph-name="uni030A" unicode="&#x30a;" horiz-adv-x="0" 
d="M69 597.5q-32 17.5 -50.5 48.5t-18.5 68t18.5 67.5t51 48t70.5 17.5t70.5 -17.5t51 -48t18.5 -67.5t-18.5 -68t-50.5 -48.5t-71 -17.5t-71 17.5zM97 671q17 -17 43 -17t43.5 17t17.5 43q0 25 -17.5 42t-43.5 17t-43 -16.5t-17 -42.5t17 -43z" />
    <glyph glyph-name="uni030C" unicode="&#x30c;" horiz-adv-x="0" 
d="M0 732h107l90 -86l90 86h106l-124 -146h-145z" />
    <glyph glyph-name="dotbelowcomb" unicode="&#x323;" horiz-adv-x="0" 
d="M0 -87h115v-113h-115v113z" />
    <glyph glyph-name="uni0327" unicode="&#x327;" horiz-adv-x="0" 
d="M0 -216v54q33 -6 56 -6q70 0 70 41q0 38 -60 38q-21 0 -31 -2v41l42 56h73l-47 -51h6q50 0 80 -22t30 -60q0 -41 -36.5 -69t-106.5 -28q-43 0 -76 8z" />
    <glyph glyph-name="uni0328" unicode="&#x328;" horiz-adv-x="0" 
d="M34 -188q-34 24 -34 71q0 39 33 71.5t84 51.5h71l9 -6q-101 -51 -101 -94q0 -20 14.5 -30t38.5 -10q22 0 48 8v-75q-32 -11 -73 -11q-56 0 -90 24z" />
    <glyph glyph-name="uni1E02" unicode="&#x1e02;" horiz-adv-x="661" 
d="M63 720h284q127 0 193 -52.5t66 -140.5q0 -101 -87 -149q58 -24 87.5 -68t29.5 -103q0 -97 -65.5 -152t-193.5 -55h-314v720zM377 105q133 0 133 105q0 106 -133 106h-191v-211h191zM351 418q67 0 100 26t33 73q0 46 -33 72t-100 26h-165v-197h165zM261 881h115v-113
h-115v113z" />
    <glyph glyph-name="uni1E03" unicode="&#x1e03;" horiz-adv-x="603" 
d="M56 720h115v-267q58 79 163 79q75 0 128 -35t80.5 -97t27.5 -140t-27.5 -140t-80.5 -97t-128 -35q-109 0 -167 85v-73h-111v720zM204.5 133q35.5 -47 105.5 -47t106 47t36 127t-36 127t-106 47t-105.5 -47t-35.5 -127t35.5 -127zM56 881h115v-113h-115v113z" />
    <glyph glyph-name="uni1E0A" unicode="&#x1e0a;" horiz-adv-x="715" 
d="M63 720h259q119 0 199.5 -47t120.5 -128t40 -185t-40 -185t-120.5 -128t-199.5 -47h-259v720zM322 108q117 0 174.5 69.5t57.5 182.5t-57.5 182.5t-174.5 69.5h-136v-504h136zM280 881h115v-113h-115v113z" />
    <glyph glyph-name="uni1E0B" unicode="&#x1e0b;" horiz-adv-x="603" 
d="M436 0v73q-58 -85 -167 -85q-75 0 -128 35t-80.5 97t-27.5 140t27.5 140t80.5 97t128 35q105 0 163 -79v267h115v-720h-111zM187 133q36 -47 106 -47t105.5 47t35.5 127t-35.5 127t-105.5 47t-106 -47t-36 -127t36 -127zM432 881h115v-113h-115v113z" />
    <glyph glyph-name="uni1E1E" unicode="&#x1e1e;" horiz-adv-x="584" 
d="M63 720h502v-111h-379v-184h360v-107h-360v-318h-123v720zM257 881h115v-113h-115v113z" />
    <glyph glyph-name="uni1E1F" unicode="&#x1e1f;" horiz-adv-x="384" 
d="M143 691q34 29 104 29h111v-91h-83q-28 0 -39.5 -12t-11.5 -38v-59h134v-91h-134v-429h-115v429h-93v91h93v71q0 71 34 100zM176 920h115v-113h-115v113z" />
    <glyph glyph-name="uni1E22" unicode="&#x1e22;" horiz-adv-x="722" 
d="M536 314h-350v-314h-123v720h123v-294h350v294h123v-720h-123v314zM304 881h115v-113h-115v113z" />
    <glyph glyph-name="uni1E23" unicode="&#x1e23;" 
d="M56 720h115v-267q63 79 161 79q89 0 137 -55.5t48 -145.5v-331h-114v318q0 52 -26 82.5t-79 30.5q-27 0 -56 -12.5t-50 -45t-21 -86.5v-287h-115v720zM56 881h115v-113h-115v113z" />
    <glyph glyph-name="uni1E28" unicode="&#x1e28;" horiz-adv-x="722" 
d="M536 314h-350v-314h-27l-41 -45h6q50 0 80 -22t30 -60q0 -41 -36.5 -69t-106.5 -28q-43 0 -76 8v54q33 -6 56 -6q70 0 70 41q0 38 -60 38q-21 0 -31 -2v41l38 50h-25v720h123v-294h350v294h123v-720h-123v314z" />
    <glyph glyph-name="uni1E29" unicode="&#x1e29;" 
d="M56 720h115v-267q63 79 161 79q89 0 137 -55.5t48 -145.5v-331h-114v318q0 52 -26 82.5t-79 30.5q-27 0 -56 -12.5t-50 -45t-21 -86.5v-287h-23l-41 -45h6q50 0 80 -22t30 -60q0 -41 -36.5 -69t-106.5 -28q-43 0 -76 8v54q33 -6 56 -6q70 0 70 41q0 38 -60 38
q-21 0 -31 -2v41l38 50h-21v720z" />
    <glyph glyph-name="uni1E30" unicode="&#x1e30;" horiz-adv-x="706" 
d="M63 720h123v-362l352 362h156l-292 -292l292 -428h-148l-230 341l-130 -130v-211h-123v720zM411 914h137l-138 -146h-96z" />
    <glyph glyph-name="uni1E31" unicode="&#x1e31;" horiz-adv-x="547" 
d="M56 720h117v-423l215 223h141l-198 -201l213 -319h-136l-157 238l-78 -79v-159h-117v720zM164 914h137l-138 -146h-96z" />
    <glyph glyph-name="uni1E3E" unicode="&#x1e3e;" horiz-adv-x="879" 
d="M182 550v-550h-119v720h174l203 -575l203 575h173v-720h-118v551l-205 -551h-107zM489 914h137l-138 -146h-96z" />
    <glyph glyph-name="uni1E3F" unicode="&#x1e3f;" horiz-adv-x="878" 
d="M683 400q-24 31 -70 31q-43 0 -79.5 -32.5t-36.5 -111.5v-287h-116v318q0 51 -23.5 82t-69.5 31q-43 0 -80 -32.5t-37 -111.5v-287h-115v520h111v-74q54 86 155 86q55 0 94.5 -26t60.5 -72q28 45 70.5 71.5t99.5 26.5q82 0 128.5 -56t46.5 -145v-331h-115v318
q0 51 -24 82zM488 732h137l-138 -146h-96z" />
    <glyph glyph-name="uni1E40" unicode="&#x1e40;" horiz-adv-x="879" 
d="M182 550v-550h-119v720h174l203 -575l203 575h173v-720h-118v551l-205 -551h-107zM382 881h115v-113h-115v113z" />
    <glyph glyph-name="uni1E41" unicode="&#x1e41;" horiz-adv-x="878" 
d="M683 400q-24 31 -70 31q-43 0 -79.5 -32.5t-36.5 -111.5v-287h-116v318q0 51 -23.5 82t-69.5 31q-43 0 -80 -32.5t-37 -111.5v-287h-115v520h111v-74q54 86 155 86q55 0 94.5 -26t60.5 -72q28 45 70.5 71.5t99.5 26.5q82 0 128.5 -56t46.5 -145v-331h-115v318
q0 51 -24 82zM381 720h115v-113h-115v113z" />
    <glyph glyph-name="uni1E44" unicode="&#x1e44;" horiz-adv-x="729" 
d="M183 553v-553h-120v720h139l344 -552v552h120v-720h-139zM307 881h115v-113h-115v113z" />
    <glyph glyph-name="uni1E45" unicode="&#x1e45;" 
d="M377 400.5q-26 30.5 -79 30.5q-27 0 -56 -12.5t-50 -45t-21 -86.5v-287h-115v520h111v-73q29 39 70.5 62t94.5 23q89 0 137 -55.5t48 -145.5v-331h-114v318q0 52 -26 82.5zM229 720h115v-113h-115v113z" />
    <glyph glyph-name="uni1E56" unicode="&#x1e56;" horiz-adv-x="654" 
d="M63 720h300q84 0 142.5 -30t87.5 -82t29 -118t-29 -117.5t-87.5 -81.5t-142.5 -30h-177v-261h-123v720zM358 368q69 0 104 32.5t35 89.5t-35 89.5t-104 32.5h-172v-244h172zM267 881h115v-113h-115v113z" />
    <glyph glyph-name="uni1E57" unicode="&#x1e57;" horiz-adv-x="603" 
d="M167 520v-73q58 85 167 85q75 0 128 -35t80.5 -97t27.5 -140t-27.5 -140t-80.5 -97t-128 -35q-105 0 -163 79v-267h-115v720h111zM204.5 133q35.5 -47 105.5 -47t106 47t36 127t-36 127t-106 47t-105.5 -47t-35.5 -127t35.5 -127zM256 720h115v-113h-115v113z" />
    <glyph glyph-name="uni1E58" unicode="&#x1e58;" horiz-adv-x="669" 
d="M63 720h316q126 0 189.5 -56.5t63.5 -153.5q0 -54 -29 -98.5t-83 -74.5q41 -17 63 -49.5t29 -78.5l32 -209h-127l-24 177q-9 60 -39 87t-87 27h-181v-291h-123v720zM366 392q70 0 104.5 29t34.5 83t-34.5 83t-104.5 29h-180v-224h180zM272 881h115v-113h-115v113z" />
    <glyph glyph-name="uni1E59" unicode="&#x1e59;" horiz-adv-x="393" 
d="M56 520h111v-92q50 98 160 98h40v-107h-45q-72 0 -111.5 -36.5t-39.5 -124.5v-258h-115v520zM154 720h115v-113h-115v113z" />
    <glyph glyph-name="uni1E60" unicode="&#x1e60;" horiz-adv-x="641" 
d="M113.5 53q-82.5 65 -85.5 189h122q3 -82 53.5 -116.5t131.5 -34.5q70 0 112.5 28t42.5 81q0 29 -15 48.5t-55 35.5t-117 31q-133 26 -194 75.5t-61 144.5q0 58 33 103t92 69.5t136 24.5q142 0 214.5 -65t75.5 -175h-120q-4 70 -45 103.5t-125 33.5q-61 0 -98 -24.5
t-37 -66.5q0 -31 12.5 -50.5t50 -35.5t112.5 -31q104 -20 162 -49t81.5 -69t23.5 -98q0 -67 -36 -116t-100 -75t-148 -26q-136 0 -218.5 65zM264 893h115v-113h-115v113z" />
    <glyph glyph-name="uni1E61" unicode="&#x1e61;" horiz-adv-x="499" 
d="M87.5 32.5q-61.5 44.5 -67.5 138.5h113q6 -53 36.5 -75t87.5 -22q49 0 78 17.5t29 48.5q0 21 -9 34t-35.5 22.5t-80.5 18.5q-116 19 -161 58t-45 105q0 71 57.5 112.5t151.5 41.5q107 0 165 -46.5t60 -129.5h-109q-2 50 -33 70t-83 20q-42 0 -68.5 -17t-26.5 -47
q0 -21 10.5 -33.5t38 -21.5t80.5 -18q78 -13 122 -34t62.5 -52t18.5 -76q0 -75 -62 -117t-163 -42q-105 0 -166.5 44.5zM192 720h115v-113h-115v113z" />
    <glyph glyph-name="uni1E6A" unicode="&#x1e6a;" horiz-adv-x="626" 
d="M250 609h-233v111h592v-111h-234v-609h-125v609zM256 881h115v-113h-115v113z" />
    <glyph glyph-name="uni1E6B" unicode="&#x1e6b;" horiz-adv-x="384" 
d="M224 680v-160h134v-91h-134v-287q0 -27 11.5 -39t39.5 -12h83v-91h-111q-69 0 -103.5 29t-34.5 100v300h-93v91h93v160h115zM109 880h115v-113h-115v113z" />
    <glyph glyph-name="uni1E7C" unicode="&#x1e7c;" horiz-adv-x="703" 
d="M12 720h131l210 -602l207 602h131l-269 -720h-141zM277 903q17 0 34 -5.5t40 -16.5q7 -3 29 -14t35 -11q17 0 24.5 10.5t7.5 36.5h84q0 -68 -27 -101.5t-78 -33.5q-17 0 -34.5 6t-40.5 17q-8 3 -29 13.5t-34 10.5q-18 0 -25.5 -10.5t-7.5 -36.5h-83q0 135 105 135z" />
    <glyph glyph-name="uni1E7D" unicode="&#x1e7d;" horiz-adv-x="541" 
d="M6 520h125l141 -408l139 408h124l-200 -520h-128zM196 732q17 0 34 -5.5t40 -16.5q7 -3 29 -14t35 -11q17 0 24.5 10.5t7.5 36.5h84q0 -68 -27 -101.5t-78 -33.5q-17 0 -34.5 6t-40.5 17q-8 3 -29 13.5t-34 10.5q-18 0 -25.5 -10.5t-7.5 -36.5h-83q0 135 105 135z" />
    <glyph glyph-name="Wgrave" unicode="&#x1e80;" horiz-adv-x="995" 
d="M497 563l-142 -563h-137l-206 720h129l150 -564l142 564h129l142 -565l149 565h130l-206 -720h-138zM449 768l-138 146h137l97 -146h-96z" />
    <glyph glyph-name="wgrave" unicode="&#x1e81;" horiz-adv-x="838" 
d="M419 376l-110 -376h-119l-184 520h125l122 -383l110 383h112l109 -382l123 382h124l-183 -520h-120zM371 586l-138 146h137l97 -146h-96z" />
    <glyph glyph-name="Wacute" unicode="&#x1e82;" horiz-adv-x="995" 
d="M497 563l-142 -563h-137l-206 720h129l150 -564l142 564h129l142 -565l149 565h130l-206 -720h-138zM546 914h137l-138 -146h-96z" />
    <glyph glyph-name="wacute" unicode="&#x1e83;" horiz-adv-x="838" 
d="M419 376l-110 -376h-119l-184 520h125l122 -383l110 383h112l109 -382l123 382h124l-183 -520h-120zM468 732h137l-138 -146h-96z" />
    <glyph glyph-name="Wdieresis" unicode="&#x1e84;" horiz-adv-x="995" 
d="M497 563l-142 -563h-137l-206 720h129l150 -564l142 564h129l142 -565l149 565h130l-206 -720h-138zM343 881h115v-113h-115v113zM536 881h115v-113h-115v113z" />
    <glyph glyph-name="wdieresis" unicode="&#x1e85;" horiz-adv-x="838" 
d="M419 376l-110 -376h-119l-184 520h125l122 -383l110 383h112l109 -382l123 382h124l-183 -520h-120zM265 720h115v-113h-115v113zM458 720h115v-113h-115v113z" />
    <glyph glyph-name="uni1E86" unicode="&#x1e86;" horiz-adv-x="995" 
d="M497 563l-142 -563h-137l-206 720h129l150 -564l142 564h129l142 -565l149 565h130l-206 -720h-138zM440 881h115v-113h-115v113z" />
    <glyph glyph-name="uni1E87" unicode="&#x1e87;" horiz-adv-x="838" 
d="M419 376l-110 -376h-119l-184 520h125l122 -383l110 383h112l109 -382l123 382h124l-183 -520h-120zM362 720h115v-113h-115v113z" />
    <glyph glyph-name="uni1E8A" unicode="&#x1e8a;" horiz-adv-x="670" 
d="M333 267l-183 -267h-138l252 367l-242 353h143l170 -248l170 248h138l-239 -349l254 -371h-143zM278 881h115v-113h-115v113z" />
    <glyph glyph-name="uni1E8B" unicode="&#x1e8b;" horiz-adv-x="523" 
d="M261 175l-126 -175h-131l191 267l-181 253h132l115 -161l115 161h131l-180 -252l191 -268h-132zM204 720h115v-113h-115v113z" />
    <glyph glyph-name="uni1E8E" unicode="&#x1e8e;" horiz-adv-x="703" 
d="M292 282l-280 438h141l200 -326l201 326h137l-277 -438v-282h-122v282zM296 881h115v-113h-115v113z" />
    <glyph glyph-name="uni1E8F" unicode="&#x1e8f;" horiz-adv-x="527" 
d="M29 -104h82q36 0 50.5 12.5t27.5 49.5l14 38l-197 524h125l133 -402l133 402h124l-218 -586q-24 -67 -57.5 -100.5t-98.5 -33.5h-118v96zM206 720h115v-113h-115v113z" />
    <glyph glyph-name="uni1EBC" unicode="&#x1ebc;" horiz-adv-x="613" 
d="M63 720h522v-111h-399v-184h370v-107h-370v-207h396v-111h-519v720zM250 903q17 0 34 -5.5t40 -16.5q7 -3 29 -14t35 -11q17 0 24.5 10.5t7.5 36.5h84q0 -68 -27 -101.5t-78 -33.5q-17 0 -34.5 6t-40.5 17q-8 3 -29 13.5t-34 10.5q-18 0 -25.5 -10.5t-7.5 -36.5h-83
q0 135 105 135z" />
    <glyph glyph-name="uni1EBD" unicode="&#x1ebd;" 
d="M152.5 23.5q-57.5 35.5 -88.5 97t-31 139.5t31 139.5t88.5 97t134.5 35.5t134.5 -35t88 -98.5t30.5 -145.5v-30h-391q8 -66 43.5 -104t94.5 -38q47 0 79.5 20.5t49.5 57.5h114q-25 -79 -89.5 -125t-153.5 -46q-77 0 -134.5 35.5zM422 309q-10 61 -45 95.5t-90 34.5
q-56 0 -91 -34.5t-45 -95.5h271zM212 732q17 0 34 -5.5t40 -16.5q7 -3 29 -14t35 -11q17 0 24.5 10.5t7.5 36.5h84q0 -68 -27 -101.5t-78 -33.5q-17 0 -34.5 6t-40.5 17q-8 3 -29 13.5t-34 10.5q-18 0 -25.5 -10.5t-7.5 -36.5h-83q0 135 105 135z" />
    <glyph glyph-name="Ygrave" unicode="&#x1ef2;" horiz-adv-x="703" 
d="M292 282l-280 438h141l200 -326l201 326h137l-277 -438v-282h-122v282zM305 768l-138 146h137l97 -146h-96z" />
    <glyph glyph-name="ygrave" unicode="&#x1ef3;" horiz-adv-x="527" 
d="M29 -104h82q36 0 50.5 12.5t27.5 49.5l14 38l-197 524h125l133 -402l133 402h124l-218 -586q-24 -67 -57.5 -100.5t-98.5 -33.5h-118v96zM215 586l-138 146h137l97 -146h-96z" />
    <glyph glyph-name="uni1EF8" unicode="&#x1ef8;" horiz-adv-x="703" 
d="M292 282l-280 438h141l200 -326l201 326h137l-277 -438v-282h-122v282zM279 903q17 0 34 -5.5t40 -16.5q7 -3 29 -14t35 -11q17 0 24.5 10.5t7.5 36.5h84q0 -68 -27 -101.5t-78 -33.5q-17 0 -34.5 6t-40.5 17q-8 3 -29 13.5t-34 10.5q-18 0 -25.5 -10.5t-7.5 -36.5h-83
q0 135 105 135z" />
    <glyph glyph-name="uni1EF9" unicode="&#x1ef9;" horiz-adv-x="527" 
d="M29 -104h82q36 0 50.5 12.5t27.5 49.5l14 38l-197 524h125l133 -402l133 402h124l-218 -586q-24 -67 -57.5 -100.5t-98.5 -33.5h-118v96zM189 732q17 0 34 -5.5t40 -16.5q7 -3 29 -14t35 -11q17 0 24.5 10.5t7.5 36.5h84q0 -68 -27 -101.5t-78 -33.5q-17 0 -34.5 6
t-40.5 17q-8 3 -29 13.5t-34 10.5q-18 0 -25.5 -10.5t-7.5 -36.5h-83q0 135 105 135z" />
    <glyph glyph-name="endash" unicode="&#x2013;" horiz-adv-x="540" 
d="M38 339h464v-101h-464v101z" />
    <glyph glyph-name="emdash" unicode="&#x2014;" horiz-adv-x="979" 
d="M38 340h903v-100h-903v100z" />
    <glyph glyph-name="quoteleft" unicode="&#x2018;" horiz-adv-x="245" 
d="M44 429l95 291h87l-60 -291h-122z" />
    <glyph glyph-name="quoteright" unicode="&#x2019;" horiz-adv-x="245" 
d="M201 720l-95 -291h-87l60 291h122z" />
    <glyph glyph-name="quotesinglbase" unicode="&#x201a;" horiz-adv-x="245" 
d="M201 147l-95 -291h-87l60 291h122z" />
    <glyph glyph-name="quotedblleft" unicode="&#x201c;" horiz-adv-x="409" 
d="M208 429l95 291h87l-60 -291h-122zM139 720h87l-60 -291h-122z" />
    <glyph glyph-name="quotedblright" unicode="&#x201d;" horiz-adv-x="409" 
d="M201 720l-95 -291h-87l60 291h122zM366 720l-95 -291h-87l60 291h122z" />
    <glyph glyph-name="quotedblbase" unicode="&#x201e;" horiz-adv-x="409" 
d="M201 147l-95 -291h-87l60 291h122zM366 147l-95 -291h-87l60 291h122z" />
    <glyph glyph-name="dagger" unicode="&#x2020;" horiz-adv-x="595" 
d="M236 412h-217v108h217v200h123v-200h217v-108h-217v-612h-123v612z" />
    <glyph glyph-name="daggerdbl" unicode="&#x2021;" horiz-adv-x="595" 
d="M236 0h-217v108h217v304h-217v108h217v200h123v-200h217v-108h-217v-304h217v-108h-217v-200h-123v200z" />
    <glyph glyph-name="ellipsis" unicode="&#x2026;" horiz-adv-x="714" 
d="M43 147h133v-147h-133v147zM290 147h133v-147h-133v147zM538 147h133v-147h-133v147z" />
    <glyph glyph-name="perthousand" unicode="&#x2030;" horiz-adv-x="1287" 
d="M67 360q-45 60 -45 156t45 156t129 60q85 0 129.5 -60t44.5 -156t-44.5 -156t-129.5 -60q-84 0 -129 60zM196 378q79 0 79 138t-79 138t-79 -138t79 -138zM595 720h90l-382 -720h-90zM573 360q45 60 129 60q85 0 129.5 -60t44.5 -156t-44.5 -156t-129.5 -60
q-84 0 -129 60t-45 156t45 156zM702 66q79 0 79 138t-79 138t-79 -138t79 -138zM961 360q45 60 129 60q85 0 129.5 -60t44.5 -156t-44.5 -156t-129.5 -60q-84 0 -129 60t-45 156t45 156zM1090 66q79 0 79 138t-79 138t-79 -138t79 -138z" />
    <glyph glyph-name="Euro" unicode="&#x20ac;" horiz-adv-x="721" 
d="M190 62.5q-78 74.5 -101 197.5h-89v75h81q-1 8 -1 25q0 16 2 44h-82v75h93q26 115 103 184t200 69q124 0 198.5 -69t93.5 -177h-123q-16 61 -57.5 98t-111.5 37q-133 0 -174 -142h195v-75h-207q-2 -28 -2 -44q0 -17 1 -25h208v-75h-199q16 -75 59.5 -118t118.5 -43
q76 0 118.5 43.5t54.5 113.5h123q-15 -118 -90.5 -193t-205.5 -75q-128 0 -206 74.5z" />
    <glyph glyph-name="uni20BF" unicode="&#x20bf;" horiz-adv-x="661" 
d="M195 0h-132v720h132v114h75v-114h76v114h76v-120q90 -15 137 -64.5t47 -122.5q0 -101 -87 -149q58 -24 87.5 -68t29.5 -103q0 -88 -54 -141.5t-160 -63.5v-116h-76v114h-76v-114h-75v114zM377 105q133 0 133 105q0 106 -133 106h-191v-211h191zM351 418q67 0 100 26
t33 73q0 46 -33 72t-100 26h-165v-197h165z" />
    <glyph glyph-name="uni2117" unicode="&#x2117;" horiz-adv-x="830" 
d="M221 35.5q-87 47.5 -136.5 132.5t-49.5 192t49.5 192t136.5 132.5t194 47.5t193.5 -47.5t136 -132.5t49.5 -192t-49.5 -192t-136 -132.5t-193.5 -47.5t-194 47.5zM163 209q37 -65 102.5 -100.5t149.5 -35.5t149.5 35.5t102.5 100.5t37 151t-37 151t-102.5 100.5
t-149.5 35.5t-149.5 -35.5t-102.5 -100.5t-37 -151t37 -151zM278 559h171q72 0 111 -36t39 -94t-39 -94.5t-111 -36.5h-87v-137h-84v398zM445 370q69 0 69 59q0 58 -69 58h-83v-117h83z" />
    <glyph glyph-name="uni2120" unicode="&#x2120;" horiz-adv-x="640" 
d="M301 720h86l69 -213l69 213h87v-288h-57v217l-74 -217h-50l-73 214v-214h-57v288zM86 529q3 -54 68 -54q25 0 40.5 10t15.5 28q0 15 -14 24t-57 16q-54 10 -79 31t-25 59q0 36 30 59t80 23q56 0 86 -26t32 -71h-57q-1 25 -16 37t-45 12q-23 0 -36 -8.5t-13 -23.5
q0 -16 12.5 -25t52.5 -17q62 -10 86 -30.5t24 -56.5q0 -42 -33 -65.5t-86 -23.5q-56 0 -89.5 26.5t-34.5 75.5h58z" />
    <glyph glyph-name="trademark" unicode="&#x2122;" horiz-adv-x="639" 
d="M300 720h86l69 -212l69 212h87v-288h-57v214l-73 -214h-51l-73 214v-214h-57v288zM28 720h242v-53h-91v-235h-60v235h-91v53z" />
    <glyph glyph-name="arrowleft" unicode="&#x2190;" horiz-adv-x="964" 
d="M305 306l274 -306h-147l-322 360l322 360h147l-274 -306h549v-108h-549z" />
    <glyph glyph-name="arrowup" unicode="&#x2191;" horiz-adv-x="940" 
d="M416 -12v549l-306 -274v147l360 322l360 -322v-147l-306 274v-549h-108z" />
    <glyph glyph-name="arrowright" unicode="&#x2192;" horiz-adv-x="964" 
d="M110 414h549l-274 306h147l322 -360l-322 -360h-147l274 306h-549v108z" />
    <glyph glyph-name="arrowdown" unicode="&#x2193;" horiz-adv-x="940" 
d="M524 183l306 274v-147l-360 -322l-360 322v147l306 -274v549h108v-549z" />
    <glyph glyph-name="arrowboth" unicode="&#x2194;" horiz-adv-x="1200" 
d="M110 360l295 360h138l-251 -306h616l-251 306h138l295 -360l-295 -360h-138l251 306h-616l251 -306h-138z" />
    <glyph glyph-name="arrowupdn" unicode="&#x2195;" horiz-adv-x="940" 
d="M524 693v-666l306 251v-138l-360 -295l-360 295v138l306 -251v666l-306 -251v138l360 295l360 -295v-138z" />
    <glyph glyph-name="uni2196" unicode="&#x2196;" horiz-adv-x="959" 
d="M259 503v-472l-109 108v551h550l109 -109h-475l459 -458l-77 -76z" />
    <glyph glyph-name="uni2197" unicode="&#x2197;" horiz-adv-x="959" 
d="M166 123l459 458h-475l109 109h550v-551l-109 -108v472l-457 -456z" />
    <glyph glyph-name="uni2198" unicode="&#x2198;" horiz-adv-x="959" 
d="M700 217v472l109 -108v-551h-550l-109 109h475l-459 458l77 76z" />
    <glyph glyph-name="uni2199" unicode="&#x2199;" horiz-adv-x="959" 
d="M793 597l-459 -458h475l-109 -109h-550v551l109 108v-472l457 456z" />
    <glyph glyph-name="minus" unicode="&#x2212;" horiz-adv-x="540" 
d="M38 410h464v-101h-464v101z" />
    <glyph glyph-name="lessequal" unicode="&#x2264;" horiz-adv-x="540" 
d="M502 601v-109l-349 -122l349 -122v-108l-464 177v107zM38 95h464v-96h-464v96z" />
    <glyph glyph-name="greaterequal" unicode="&#x2265;" horiz-adv-x="540" 
d="M38 140v108l349 122l-349 122v109l464 -177v-107zM38 95h464v-96h-464v96z" />
    <glyph glyph-name="filledbox" unicode="&#x25a0;" horiz-adv-x="924" 
d="M924 810v-900h-924v900h924z" />
    <glyph glyph-name="uni25A1" unicode="&#x25a1;" horiz-adv-x="924" 
d="M0 810h924v-900h-924v900zM820 3v714h-716v-714h716z" />
    <glyph glyph-name="triagup" unicode="&#x25b2;" horiz-adv-x="948" 
d="M474 822l474 -924h-948z" />
    <glyph glyph-name="uni25B3" unicode="&#x25b3;" horiz-adv-x="948" 
d="M474 822l474 -924h-948zM795 -9l-321 628l-321 -628h642z" />
    <glyph glyph-name="uni25B6" unicode="&#x25b6;" horiz-adv-x="948" 
d="M936 360l-924 -474v948z" />
    <glyph glyph-name="uni25B7" unicode="&#x25b7;" horiz-adv-x="948" 
d="M936 360l-924 -474v948zM733 360l-628 321v-642z" />
    <glyph glyph-name="triagdn" unicode="&#x25bc;" horiz-adv-x="948" 
d="M948 822l-474 -924l-474 924h948z" />
    <glyph glyph-name="uni25BD" unicode="&#x25bd;" horiz-adv-x="948" 
d="M948 822l-474 -924l-474 924h948zM474 101l321 628h-642z" />
    <glyph glyph-name="uni25C0" unicode="&#x25c0;" horiz-adv-x="948" 
d="M12 360l924 474v-948z" />
    <glyph glyph-name="uni25C1" unicode="&#x25c1;" horiz-adv-x="948" 
d="M12 360l924 474v-948zM843 39v642l-628 -321z" />
    <glyph glyph-name="circle" unicode="&#x25cb;" horiz-adv-x="948" 
d="M236 -40q-109 62 -172.5 168.5t-63.5 231.5t63.5 231.5t172.5 168.5t238 62t238 -62t172.5 -168.5t63.5 -231.5t-63.5 -231.5t-172.5 -168.5t-238 -62t-238 62zM153.5 177q49.5 -84 134.5 -133t186 -49t186 49t134.5 133t49.5 183t-49.5 183t-134.5 133t-186 49t-186 -49
t-134.5 -133t-49.5 -183t49.5 -183z" />
    <glyph glyph-name="uni25CF" unicode="&#x25cf;" horiz-adv-x="948" 
d="M236 -40q-109 62 -172.5 168.5t-63.5 231.5t63.5 231.5t172.5 168.5t238 62t238 -62t172.5 -168.5t63.5 -231.5t-63.5 -231.5t-172.5 -168.5t-238 -62t-238 62z" />
    <glyph glyph-name="uni004A0301" horiz-adv-x="553" 
d="M89 53q-60 65 -60 176v40h120v-40q0 -66 27.5 -99.5t86.5 -33.5t86.5 33.5t27.5 99.5v491h123v-491q0 -111 -61.5 -176t-175.5 -65t-174 65zM488 914h137l-138 -146h-96z" />
    <glyph glyph-name="G.ss06" horiz-adv-x="764" 
d="M194 38q-80 50 -120.5 134.5t-40.5 187.5t40.5 187.5t120.5 134.5t192 50q133 0 218 -69.5t115 -184.5h-126q-23 66 -75.5 104.5t-131.5 38.5q-111 0 -168 -73.5t-57 -187.5t57 -187.5t168 -73.5q94 0 148 52t69 140h-247v103h373q2 -22 2 -34q0 -104 -39 -188.5
t-116.5 -134t-189.5 -49.5t-192 50z" />
    <glyph glyph-name="uni01F4.ss06" horiz-adv-x="764" 
d="M194 38q-80 50 -120.5 134.5t-40.5 187.5t40.5 187.5t120.5 134.5t192 50q133 0 218 -69.5t115 -184.5h-126q-23 66 -75.5 104.5t-131.5 38.5q-111 0 -168 -73.5t-57 -187.5t57 -187.5t168 -73.5q94 0 148 52t69 140h-247v103h373q2 -22 2 -34q0 -104 -39 -188.5
t-116.5 -134t-189.5 -49.5t-192 50zM435 926h137l-138 -146h-96z" />
    <glyph glyph-name="Gbreve.ss06" horiz-adv-x="764" 
d="M194 38q-80 50 -120.5 134.5t-40.5 187.5t40.5 187.5t120.5 134.5t192 50q133 0 218 -69.5t115 -184.5h-126q-23 66 -75.5 104.5t-131.5 38.5q-111 0 -168 -73.5t-57 -187.5t57 -187.5t168 -73.5q94 0 148 52t69 140h-247v103h373q2 -22 2 -34q0 -104 -39 -188.5
t-116.5 -134t-189.5 -49.5t-192 50zM270 814.5q-45 40.5 -51 111.5h91q3 -37 23 -55t53 -18t53 18t23 55h91q-7 -71 -52 -111.5t-115 -40.5q-71 0 -116 40.5z" />
    <glyph glyph-name="Gcaron.ss06" horiz-adv-x="764" 
d="M194 38q-80 50 -120.5 134.5t-40.5 187.5t40.5 187.5t120.5 134.5t192 50q133 0 218 -69.5t115 -184.5h-126q-23 66 -75.5 104.5t-131.5 38.5q-111 0 -168 -73.5t-57 -187.5t57 -187.5t168 -73.5q94 0 148 52t69 140h-247v103h373q2 -22 2 -34q0 -104 -39 -188.5
t-116.5 -134t-189.5 -49.5t-192 50zM189 926h107l90 -86l90 86h106l-124 -146h-145z" />
    <glyph glyph-name="Gcircumflex.ss06" horiz-adv-x="764" 
d="M194 38q-80 50 -120.5 134.5t-40.5 187.5t40.5 187.5t120.5 134.5t192 50q133 0 218 -69.5t115 -184.5h-126q-23 66 -75.5 104.5t-131.5 38.5q-111 0 -168 -73.5t-57 -187.5t57 -187.5t168 -73.5q94 0 148 52t69 140h-247v103h373q2 -22 2 -34q0 -104 -39 -188.5
t-116.5 -134t-189.5 -49.5t-192 50zM582 780h-106l-90 86l-90 -86h-107l124 146h145z" />
    <glyph glyph-name="Gdotaccent.ss06" horiz-adv-x="764" 
d="M194 38q-80 50 -120.5 134.5t-40.5 187.5t40.5 187.5t120.5 134.5t192 50q133 0 218 -69.5t115 -184.5h-126q-23 66 -75.5 104.5t-131.5 38.5q-111 0 -168 -73.5t-57 -187.5t57 -187.5t168 -73.5q94 0 148 52t69 140h-247v103h373q2 -22 2 -34q0 -104 -39 -188.5
t-116.5 -134t-189.5 -49.5t-192 50zM329 893h115v-113h-115v113z" />
    <glyph glyph-name="J.ss07" horiz-adv-x="396" 
d="M29 103h87q59 0 81.5 26t22.5 88v503h123v-520q0 -104 -48.5 -152t-144.5 -48h-121v103z" />
    <glyph glyph-name="uni004A0301.ss07" horiz-adv-x="396" 
d="M29 103h87q59 0 81.5 26t22.5 88v503h123v-520q0 -104 -48.5 -152t-144.5 -48h-121v103zM331 914h137l-138 -146h-96z" />
    <glyph glyph-name="Jcircumflex.ss07" horiz-adv-x="396" 
d="M29 103h87q59 0 81.5 26t22.5 88v503h123v-520q0 -104 -48.5 -152t-144.5 -48h-121v103zM478 768h-106l-90 86l-90 -86h-107l124 146h145z" />
    <glyph glyph-name="R.ss08" horiz-adv-x="665" 
d="M63 720h310q84 0 142.5 -30t87.5 -81t29 -116q0 -76 -43 -133t-123 -80l189 -280h-141l-174 267h-154v-267h-123v720zM368 371q69 0 104 32.5t35 89.5t-35 89.5t-104 32.5h-182v-244h182z" />
    <glyph glyph-name="Racute.ss08" horiz-adv-x="665" 
d="M63 720h310q84 0 142.5 -30t87.5 -81t29 -116q0 -76 -43 -133t-123 -80l189 -280h-141l-174 267h-154v-267h-123v720zM368 371q69 0 104 32.5t35 89.5t-35 89.5t-104 32.5h-182v-244h182zM379 914h137l-138 -146h-96z" />
    <glyph glyph-name="Rcaron.ss08" horiz-adv-x="665" 
d="M63 720h310q84 0 142.5 -30t87.5 -81t29 -116q0 -76 -43 -133t-123 -80l189 -280h-141l-174 267h-154v-267h-123v720zM368 371q69 0 104 32.5t35 89.5t-35 89.5t-104 32.5h-182v-244h182zM133 914h107l90 -86l90 86h106l-124 -146h-145z" />
    <glyph glyph-name="uni1E58.ss08" horiz-adv-x="665" 
d="M63 720h310q84 0 142.5 -30t87.5 -81t29 -116q0 -76 -43 -133t-123 -80l189 -280h-141l-174 267h-154v-267h-123v720zM368 371q69 0 104 32.5t35 89.5t-35 89.5t-104 32.5h-182v-244h182zM272 881h115v-113h-115v113z" />
    <glyph glyph-name="uni006A0301" horiz-adv-x="232" 
d="M142.5 -171q-34.5 -29 -104.5 -29h-96v91h69q27 0 39 12t12 39v578h115v-591q0 -71 -34.5 -100zM169 732h137l-138 -146h-96z" />
    <glyph glyph-name="a.ss01" horiz-adv-x="605" 
d="M459 0v73q-58 -85 -167 -85q-75 0 -128 35t-80.5 97t-27.5 140t27.5 140t80.5 97t128 35q105 0 163 -79v67h115v-520h-111zM210 133q36 -47 106 -47t105.5 47t35.5 127t-35.5 127t-105.5 47t-106 -47t-36 -127t36 -127z" />
    <glyph glyph-name="aacute.ss01" horiz-adv-x="605" 
d="M459 0v73q-58 -85 -167 -85q-75 0 -128 35t-80.5 97t-27.5 140t27.5 140t80.5 97t128 35q105 0 163 -79v67h115v-520h-111zM210 133q36 -47 106 -47t105.5 47t35.5 127t-35.5 127t-105.5 47t-106 -47t-36 -127t36 -127zM362 732h137l-138 -146h-96z" />
    <glyph glyph-name="abreve.ss01" horiz-adv-x="605" 
d="M459 0v73q-58 -85 -167 -85q-75 0 -128 35t-80.5 97t-27.5 140t27.5 140t80.5 97t128 35q105 0 163 -79v67h115v-520h-111zM210 133q36 -47 106 -47t105.5 47t35.5 127t-35.5 127t-105.5 47t-106 -47t-36 -127t36 -127zM197 620.5q-45 40.5 -51 111.5h91q3 -37 23 -55
t53 -18t53 18t23 55h91q-7 -71 -52 -111.5t-115 -40.5q-71 0 -116 40.5z" />
    <glyph glyph-name="uni01CE.ss01" horiz-adv-x="605" 
d="M459 0v73q-58 -85 -167 -85q-75 0 -128 35t-80.5 97t-27.5 140t27.5 140t80.5 97t128 35q105 0 163 -79v67h115v-520h-111zM210 133q36 -47 106 -47t105.5 47t35.5 127t-35.5 127t-105.5 47t-106 -47t-36 -127t36 -127zM116 732h107l90 -86l90 86h106l-124 -146h-145z
" />
    <glyph glyph-name="acircumflex.ss01" horiz-adv-x="605" 
d="M459 0v73q-58 -85 -167 -85q-75 0 -128 35t-80.5 97t-27.5 140t27.5 140t80.5 97t128 35q105 0 163 -79v67h115v-520h-111zM210 133q36 -47 106 -47t105.5 47t35.5 127t-35.5 127t-105.5 47t-106 -47t-36 -127t36 -127zM509 586h-106l-90 86l-90 -86h-107l124 146h145z
" />
    <glyph glyph-name="adieresis.ss01" horiz-adv-x="605" 
d="M459 0v73q-58 -85 -167 -85q-75 0 -128 35t-80.5 97t-27.5 140t27.5 140t80.5 97t128 35q105 0 163 -79v67h115v-520h-111zM210 133q36 -47 106 -47t105.5 47t35.5 127t-35.5 127t-105.5 47t-106 -47t-36 -127t36 -127zM159 720h115v-113h-115v113zM352 720h115v-113
h-115v113z" />
    <glyph glyph-name="uni0227.ss01" horiz-adv-x="605" 
d="M459 0v73q-58 -85 -167 -85q-75 0 -128 35t-80.5 97t-27.5 140t27.5 140t80.5 97t128 35q105 0 163 -79v67h115v-520h-111zM210 133q36 -47 106 -47t105.5 47t35.5 127t-35.5 127t-105.5 47t-106 -47t-36 -127t36 -127zM256 720h115v-113h-115v113z" />
    <glyph glyph-name="agrave.ss01" horiz-adv-x="605" 
d="M459 0v73q-58 -85 -167 -85q-75 0 -128 35t-80.5 97t-27.5 140t27.5 140t80.5 97t128 35q105 0 163 -79v67h115v-520h-111zM210 133q36 -47 106 -47t105.5 47t35.5 127t-35.5 127t-105.5 47t-106 -47t-36 -127t36 -127zM265 586l-138 146h137l97 -146h-96z" />
    <glyph glyph-name="aogonek.ss01" horiz-adv-x="605" 
d="M469 -94q0 -20 14.5 -30t38.5 -10q22 0 48 8v-75q-32 -11 -73 -11q-56 0 -90 24t-34 71q0 36 28.5 66.5t73.5 50.5h-16v73q-58 -85 -167 -85q-75 0 -128 35t-80.5 97t-27.5 140t27.5 140t80.5 97t128 35q105 0 163 -79v67h115v-520q-101 -51 -101 -94zM210 133
q36 -47 106 -47t105.5 47t35.5 127t-35.5 127t-105.5 47t-106 -47t-36 -127t36 -127z" />
    <glyph glyph-name="aring.ss01" horiz-adv-x="605" 
d="M459 0v73q-58 -85 -167 -85q-75 0 -128 35t-80.5 97t-27.5 140t27.5 140t80.5 97t128 35q105 0 163 -79v67h115v-520h-111zM210 133q36 -47 106 -47t105.5 47t35.5 127t-35.5 127t-105.5 47t-106 -47t-36 -127t36 -127zM242 597.5q-32 17.5 -50.5 48.5t-18.5 68
t18.5 67.5t51 48t70.5 17.5t70.5 -17.5t51 -48t18.5 -67.5t-18.5 -68t-50.5 -48.5t-71 -17.5t-71 17.5zM270 671q17 -17 43 -17t43.5 17t17.5 43q0 25 -17.5 42t-43.5 17t-43 -16.5t-17 -42.5t17 -43z" />
    <glyph glyph-name="atilde.ss01" horiz-adv-x="605" 
d="M459 0v73q-58 -85 -167 -85q-75 0 -128 35t-80.5 97t-27.5 140t27.5 140t80.5 97t128 35q105 0 163 -79v67h115v-520h-111zM210 133q36 -47 106 -47t105.5 47t35.5 127t-35.5 127t-105.5 47t-106 -47t-36 -127t36 -127zM239 732q17 0 34 -5.5t40 -16.5q7 -3 29 -14
t35 -11q17 0 24.5 10.5t7.5 36.5h84q0 -68 -27 -101.5t-78 -33.5q-17 0 -34.5 6t-40.5 17q-8 3 -29 13.5t-34 10.5q-18 0 -25.5 -10.5t-7.5 -36.5h-83q0 135 105 135z" />
    <glyph glyph-name="l.ss02" horiz-adv-x="227" 
d="M56 720h115v-720h-115v720z" />
    <glyph glyph-name="lacute.ss02" horiz-adv-x="227" 
d="M56 720h115v-720h-115v720zM163 932h137l-138 -146h-96z" />
    <glyph glyph-name="lcaron.ss02" horiz-adv-x="227" 
d="M56 720h115v-720h-115v720zM239 720h122l-68 -170h-82z" />
    <glyph glyph-name="lslash.ss02" horiz-adv-x="227" 
d="M56 298l-83 -38v89l83 38v333h115v-282l83 38v-89l-83 -38v-349h-115v298z" />
    <glyph glyph-name="t.ss03" horiz-adv-x="364" 
d="M109 429h-93v91h93v160h115v-160h114v-91h-114v-429h-115v429z" />
    <glyph glyph-name="tcaron.ss03" horiz-adv-x="364" 
d="M109 429h-93v91h93v160h115v-160h114v-91h-114v-429h-115v429zM284 720h122l-68 -170h-82z" />
    <glyph glyph-name="uni0163.ss03" horiz-adv-x="364" 
d="M109 429h-93v91h93v160h115v-160h114v-91h-114v-429h-23l-41 -45h6q50 0 80 -22t30 -60q0 -41 -36.5 -69t-106.5 -28q-43 0 -76 8v54q33 -6 56 -6q70 0 70 41q0 38 -60 38q-21 0 -31 -2v41l38 50h-21v429z" />
    <glyph glyph-name="uni1E6B.ss03" horiz-adv-x="364" 
d="M109 429h-93v91h93v160h115v-160h114v-91h-114v-429h-115v429zM109 880h115v-113h-115v113z" />
    <glyph glyph-name="u.ss04" 
d="M115 46q-59 58 -59 155v319h115v-313q0 -58 29 -90.5t87 -32.5q57 0 86.5 32.5t29.5 90.5v313h114v-319q0 -97 -58.5 -155t-171.5 -58t-172 58z" />
    <glyph glyph-name="uacute.ss04" 
d="M115 46q-59 58 -59 155v319h115v-313q0 -58 29 -90.5t87 -32.5q57 0 86.5 32.5t29.5 90.5v313h114v-319q0 -97 -58.5 -155t-171.5 -58t-172 58zM336 732h137l-138 -146h-96z" />
    <glyph glyph-name="ubreve.ss04" 
d="M115 46q-59 58 -59 155v319h115v-313q0 -58 29 -90.5t87 -32.5q57 0 86.5 32.5t29.5 90.5v313h114v-319q0 -97 -58.5 -155t-171.5 -58t-172 58zM171 620.5q-45 40.5 -51 111.5h91q3 -37 23 -55t53 -18t53 18t23 55h91q-7 -71 -52 -111.5t-115 -40.5q-71 0 -116 40.5z" />
    <glyph glyph-name="uni01D4.ss04" 
d="M115 46q-59 58 -59 155v319h115v-313q0 -58 29 -90.5t87 -32.5q57 0 86.5 32.5t29.5 90.5v313h114v-319q0 -97 -58.5 -155t-171.5 -58t-172 58zM90 732h107l90 -86l90 86h106l-124 -146h-145z" />
    <glyph glyph-name="ucircumflex.ss04" 
d="M115 46q-59 58 -59 155v319h115v-313q0 -58 29 -90.5t87 -32.5q57 0 86.5 32.5t29.5 90.5v313h114v-319q0 -97 -58.5 -155t-171.5 -58t-172 58zM483 586h-106l-90 86l-90 -86h-107l124 146h145z" />
    <glyph glyph-name="udieresis.ss04" 
d="M115 46q-59 58 -59 155v319h115v-313q0 -58 29 -90.5t87 -32.5q57 0 86.5 32.5t29.5 90.5v313h114v-319q0 -97 -58.5 -155t-171.5 -58t-172 58zM133 720h115v-113h-115v113zM326 720h115v-113h-115v113z" />
    <glyph glyph-name="ugrave.ss04" 
d="M115 46q-59 58 -59 155v319h115v-313q0 -58 29 -90.5t87 -32.5q57 0 86.5 32.5t29.5 90.5v313h114v-319q0 -97 -58.5 -155t-171.5 -58t-172 58zM238 586l-138 146h137l97 -146h-96z" />
    <glyph glyph-name="uogonek.ss04" 
d="M214 -188q-34 24 -34 71q0 32 22 59t58 47q-100 7 -152 64t-52 148v319h115v-313q0 -58 29 -90.5t87 -32.5q57 0 86.5 32.5t29.5 90.5v313h114v-319q0 -75 -35.5 -127.5t-104.5 -73.5q-101 -51 -101 -94q0 -20 14.5 -30t38.5 -10q22 0 48 8v-75q-32 -11 -73 -11
q-56 0 -90 24z" />
    <glyph glyph-name="uring.ss04" 
d="M115 46q-59 58 -59 155v319h115v-313q0 -58 29 -90.5t87 -32.5q57 0 86.5 32.5t29.5 90.5v313h114v-319q0 -97 -58.5 -155t-171.5 -58t-172 58zM216 597.5q-32 17.5 -50.5 48.5t-18.5 68t18.5 67.5t51 48t70.5 17.5t70.5 -17.5t51 -48t18.5 -67.5t-18.5 -68t-50.5 -48.5
t-71 -17.5t-71 17.5zM244 671q17 -17 43 -17t43.5 17t17.5 43q0 25 -17.5 42t-43.5 17t-43 -16.5t-17 -42.5t17 -43z" />
    <glyph glyph-name="utilde.ss04" 
d="M115 46q-59 58 -59 155v319h115v-313q0 -58 29 -90.5t87 -32.5q57 0 86.5 32.5t29.5 90.5v313h114v-319q0 -97 -58.5 -155t-171.5 -58t-172 58zM212 732q17 0 34 -5.5t40 -16.5q7 -3 29 -14t35 -11q17 0 24.5 10.5t7.5 36.5h84q0 -68 -27 -101.5t-78 -33.5q-17 0 -34.5 6
t-40.5 17q-8 3 -29 13.5t-34 10.5q-18 0 -25.5 -10.5t-7.5 -36.5h-83q0 135 105 135z" />
    <glyph glyph-name="y.ss05" horiz-adv-x="544" 
d="M217 11l-211 509h125l142 -376l141 376h124l-294 -720h-112z" />
    <glyph glyph-name="yacute.ss05" horiz-adv-x="544" 
d="M217 11l-211 509h125l142 -376l141 376h124l-294 -720h-112zM321 732h137l-138 -146h-96z" />
    <glyph glyph-name="ycircumflex.ss05" horiz-adv-x="544" 
d="M217 11l-211 509h125l142 -376l141 376h124l-294 -720h-112zM469 586h-106l-90 86l-90 -86h-107l124 146h145z" />
    <glyph glyph-name="ydieresis.ss05" horiz-adv-x="544" 
d="M217 11l-211 509h125l142 -376l141 376h124l-294 -720h-112zM118 720h115v-113h-115v113zM311 720h115v-113h-115v113z" />
    <glyph glyph-name="uni1E8F.ss05" horiz-adv-x="544" 
d="M217 11l-211 509h125l142 -376l141 376h124l-294 -720h-112zM215 720h115v-113h-115v113z" />
    <glyph glyph-name="ygrave.ss05" horiz-adv-x="544" 
d="M217 11l-211 509h125l142 -376l141 376h124l-294 -720h-112zM224 586l-138 146h137l97 -146h-96z" />
    <glyph glyph-name="uni1EF9.ss05" horiz-adv-x="544" 
d="M217 11l-211 509h125l142 -376l141 376h124l-294 -720h-112zM198 732q17 0 34 -5.5t40 -16.5q7 -3 29 -14t35 -11q17 0 24.5 10.5t7.5 36.5h84q0 -68 -27 -101.5t-78 -33.5q-17 0 -34.5 6t-40.5 17q-8 3 -29 13.5t-34 10.5q-18 0 -25.5 -10.5t-7.5 -36.5h-83
q0 135 105 135z" />
    <glyph glyph-name="three.ss09" horiz-adv-x="591" 
d="M112.5 49q-68.5 61 -69.5 171h120q2 -62 38 -95.5t100 -33.5q61 0 97.5 35t36.5 91q0 68 -45 102t-141 34h-45v84l188 177h-327v106h473v-98l-191 -182q102 -18 155.5 -74.5t53.5 -151.5q0 -62 -30.5 -113.5t-88 -82t-135.5 -30.5q-121 0 -189.5 61z" />
    <glyph glyph-name="six.ss09" horiz-adv-x="586" 
d="M162.5 19q-56.5 31 -86.5 87t-30 128q0 88 43 149l246 337h132l-176 -240h4q76 0 132.5 -31t86.5 -87t30 -128t-30 -128t-86.5 -87t-132.5 -31t-132.5 31zM200.5 129.5q34.5 -39.5 94.5 -39.5t94.5 39.5t34.5 104.5t-34.5 104.5t-94.5 39.5t-94.5 -39.5t-34.5 -104.5
t34.5 -104.5z" />
    <glyph glyph-name="nine.ss09" horiz-adv-x="586" 
d="M423.5 701q56.5 -31 86.5 -87t30 -128q0 -88 -43 -149l-246 -337h-132l176 240h-4q-76 0 -132.5 31t-86.5 87t-30 128t30 128t86.5 87t132.5 31t132.5 -31zM196.5 381.5q34.5 -39.5 94.5 -39.5t94.5 39.5t34.5 104.5t-34.5 104.5t-94.5 39.5t-94.5 -39.5t-34.5 -104.5
t34.5 -104.5z" />
    <glyph glyph-name="one.ss10" horiz-adv-x="346" 
d="M160 614h-120v106h243v-720h-123v614z" />
    <glyph glyph-name="four.ss10" horiz-adv-x="622" 
d="M31 269l306 451h127l-308 -460h226v180h117v-180h98v-106h-95v-154h-123v154h-348v115z" />
    <glyph glyph-name="at.ss11" horiz-adv-x="921" 
d="M242 -62q-98 54 -153 150.5t-55 219.5t55 219.5t153 150.5t223 54t221 -49.5t149 -140.5t53 -210q0 -115 -54 -184.5t-150 -69.5q-46 0 -76 19t-42 56q-46 -75 -133 -75q-57 0 -99 29.5t-64.5 81t-22.5 116.5t22.5 116.5t64.5 81t99 29.5q76 0 122 -59v47h99v-287
q0 -38 13 -52.5t42 -14.5q42 0 63 46t21 120q0 99 -41 170t-115.5 108t-171.5 37t-173.5 -41.5t-120 -118.5t-43.5 -179t43.5 -179.5t120 -119.5t173.5 -42q115 0 211 62v-92q-98 -53 -211 -53q-125 0 -223 54zM377 202q26 -38 76 -38q49 0 76.5 38.5t27.5 102.5
t-27.5 102.5t-76.5 38.5q-50 0 -76 -38t-26 -103t26 -103z" />
    <glyph glyph-name="copyright.ss13" horiz-adv-x="594" 
d="M203.5 373q-35.5 40 -35.5 103q0 62 35.5 102t97.5 40q55 0 87.5 -28t39.5 -76h-67q-5 23 -20.5 35.5t-39.5 12.5q-32 0 -49.5 -23.5t-17.5 -62.5q0 -40 17.5 -63.5t49.5 -23.5q25 0 40.5 13.5t19.5 38.5h67q-7 -49 -40 -78.5t-87 -29.5q-62 0 -97.5 40zM69.5 608
q34.5 58 94 91t133.5 33t133.5 -33t94 -91t34.5 -132t-34.5 -132.5t-94 -91.5t-133.5 -33t-133.5 33t-94 91.5t-34.5 132.5t34.5 132zM156 334q54 -53 141 -53t141 53t54 142q0 88 -54 141t-141 53t-141 -53t-54 -141q0 -89 54 -142z" />
    <glyph glyph-name="registered.ss13" horiz-adv-x="594" 
d="M188 612h127q48 0 72.5 -22t24.5 -59q0 -41 -42 -67q32 -15 37 -52l11 -73h-62l-9 63q-6 41 -43 41h-56v-104h-60v273zM69.5 608q34.5 58 94 91t133.5 33t133.5 -33t94 -91t34.5 -132t-34.5 -132.5t-94 -91.5t-133.5 -33t-133.5 33t-94 91.5t-34.5 132.5t34.5 132z
M156 334q54 -53 141 -53t141 53t54 142q0 88 -54 141t-141 53t-141 -53t-54 -141q0 -89 54 -142zM305 489q45 0 45 37t-45 37h-57v-74h57z" />
    <glyph glyph-name="uni2117.ss13" horiz-adv-x="594" 
d="M202 612h119q50 0 77 -25.5t27 -65.5t-27 -65t-77 -25h-57v-92h-62v273zM69.5 608q34.5 58 94 91t133.5 33t133.5 -33t94 -91t34.5 -132t-34.5 -132.5t-94 -91.5t-133.5 -33t-133.5 33t-94 91.5t-34.5 132.5t34.5 132zM156 334q54 -53 141 -53t141 53t54 142
q0 88 -54 141t-141 53t-141 -53t-54 -141q0 -89 54 -142zM317 483q47 0 47 38q0 39 -47 39h-53v-77h53z" />
    <glyph glyph-name="trademark.ss14" horiz-adv-x="830" 
d="M387 478h90l43 -149l42 149h91v-236h-58v169l-50 -169h-50l-51 172v-172h-57v236zM84.5 552q49.5 85 136.5 132.5t194 47.5t193.5 -47.5t136 -132.5t49.5 -192t-49.5 -192t-136 -132.5t-193.5 -47.5t-194 47.5t-136.5 132.5t-49.5 192t49.5 192zM156.5 205.5
q37.5 -66.5 105 -103t153.5 -36.5t153 36.5t104.5 103t37.5 154.5t-37.5 154.5t-104.5 103t-153 36.5t-153.5 -36.5t-105 -103t-37.5 -154.5t37.5 -154.5zM166 478h202v-53h-71v-183h-60v183h-71v53z" />
    <glyph glyph-name="uni2120.ss14" horiz-adv-x="830" 
d="M389 478h91l42 -149l42 149h91v-236h-58v169l-50 -169h-50l-50 169v-169h-58v236zM84.5 552q49.5 85 136.5 132.5t194 47.5t193.5 -47.5t136 -132.5t49.5 -192t-49.5 -192t-136 -132.5t-193.5 -47.5t-194 47.5t-136.5 132.5t-49.5 192t49.5 192zM156.5 205.5
q37.5 -66.5 105 -103t153.5 -36.5t153 36.5t104.5 103t37.5 154.5t-37.5 154.5t-104.5 103t-153 36.5t-153.5 -36.5t-105 -103t-37.5 -154.5t37.5 -154.5zM221 321q0 -21 13 -29t35 -8q17 0 27.5 6.5t10.5 17.5q0 10 -10 16t-41 11q-48 7 -69 25.5t-21 51.5q0 32 26 52
t71 20q47 0 73 -21t27 -61h-59q-1 18 -11 26t-30 8q-16 0 -25 -5.5t-9 -15.5q0 -11 9.5 -17t38.5 -10q52 -9 72.5 -26.5t20.5 -49.5q0 -37 -28.5 -56t-74.5 -19q-50 0 -78 22.5t-28 61.5h60z" />
    <glyph glyph-name="cent.ss12" horiz-adv-x="550" 
d="M249 -9q-98 13 -155.5 87t-57.5 182t57.5 182t155.5 87v105h75v-104q86 -10 137 -61t63 -132h-116q-9 45 -40.5 71t-79.5 26q-65 0 -99.5 -47t-34.5 -127t34.5 -127t99.5 -47q49 0 80.5 27.5t39.5 75.5h116q-11 -82 -63.5 -135.5t-136.5 -63.5v-104h-75v105z" />
    <glyph glyph-name="dollar.ss12" horiz-adv-x="641" 
d="M272 -8q-111 13 -176 76.5t-68 173.5h122q3 -82 53.5 -116.5t131.5 -34.5q70 0 112.5 28t42.5 81q0 29 -15 48.5t-55 35.5t-117 31q-133 26 -194 75.5t-61 144.5q0 81 61 134t163 61v104h100v-106q110 -14 167 -76.5t60 -159.5h-120q-4 70 -45 103.5t-125 33.5
q-61 0 -98 -24.5t-37 -66.5q0 -31 12.5 -50.5t50 -35.5t112.5 -31q104 -20 162 -49t81.5 -69t23.5 -98q0 -93 -66.5 -150t-177.5 -65v-104h-100v106z" />
    <glyph glyph-name="Euro.ss12" horiz-adv-x="631" 
d="M262.5 57.5q-83.5 69.5 -111.5 185.5h-126v75h115q-2 28 -2 42q0 16 2 44h-115v75h127q28 115 111.5 184t216.5 69q68 0 126 -18v-111q-51 19 -117 19q-83 0 -135 -38t-74 -105h326v-75h-341q-2 -28 -2 -44q0 -14 2 -42h341v-75h-326q21 -67 73 -106t136 -39q66 0 117 19
v-111q-58 -18 -126 -18q-134 0 -217.5 69.5z" />
    <glyph glyph-name="sterling.ss12" horiz-adv-x="586" 
d="M19 106h174q-6 83 -48 185h-109v75h76q-24 53 -36.5 90.5t-12.5 71.5q0 57 29.5 103.5t84 73.5t125.5 27q118 0 184 -64.5t66 -179.5h-120q1 68 -34.5 103t-95.5 35q-55 0 -87 -27.5t-32 -75.5q0 -31 12 -65t38 -92h224v-75h-192q39 -103 44 -185h252v-106h-542v106z" />
    <glyph glyph-name="uni030C.alt" horiz-adv-x="0" 
d="M28 720h122l-68 -170h-82z" />
    <glyph glyph-name="uni0308.case" horiz-adv-x="0" 
d="M0 720h115v-113h-115v113zM193 720h115v-113h-115v113z" />
    <glyph glyph-name="uni0307.case" horiz-adv-x="0" 
d="M0 720h115v-113h-115v113z" />
    <glyph glyph-name="gravecomb.case" horiz-adv-x="0" 
d="M138 586l-138 146h137l97 -146h-96z" />
    <glyph glyph-name="acutecomb.case" horiz-adv-x="0" 
d="M97 732h137l-138 -146h-96z" />
    <glyph glyph-name="uni0302.case" horiz-adv-x="0" 
d="M393 586h-106l-90 86l-90 -86h-107l124 146h145z" />
    <glyph glyph-name="uni030C.case" horiz-adv-x="0" 
d="M0 732h107l90 -86l90 86h106l-124 -146h-145z" />
    <glyph glyph-name="uni0306.case" horiz-adv-x="0" 
d="M51 620.5q-45 40.5 -51 111.5h91q3 -37 23 -55t53 -18t53 18t23 55h91q-7 -71 -52 -111.5t-115 -40.5q-71 0 -116 40.5z" />
    <glyph glyph-name="uni030A.case" horiz-adv-x="0" 
d="M69 597.5q-32 17.5 -50.5 48.5t-18.5 68t18.5 67.5t51 48t70.5 17.5t70.5 -17.5t51 -48t18.5 -67.5t-18.5 -68t-50.5 -48.5t-71 -17.5t-71 17.5zM97 671q17 -17 43 -17t43.5 17t17.5 43q0 25 -17.5 42t-43.5 17t-43 -16.5t-17 -42.5t17 -43z" />
    <glyph glyph-name="tildecomb.case" horiz-adv-x="0" 
d="M105 732q17 0 34 -5.5t40 -16.5q7 -3 29 -14t35 -11q17 0 24.5 10.5t7.5 36.5h84q0 -68 -27 -101.5t-78 -33.5q-17 0 -34.5 6t-40.5 17q-8 3 -29 13.5t-34 10.5q-18 0 -25.5 -10.5t-7.5 -36.5h-83q0 135 105 135z" />
    <glyph glyph-name="dieresis.case" horiz-adv-x="308" 
d="M0 720h115v-113h-115v113zM193 720h115v-113h-115v113z" />
    <glyph glyph-name="dotaccent.case" horiz-adv-x="115" 
d="M0 720h115v-113h-115v113z" />
    <glyph glyph-name="grave.case" horiz-adv-x="234" 
d="M138 586l-138 146h137l97 -146h-96z" />
    <glyph glyph-name="acute.case" horiz-adv-x="234" 
d="M97 732h137l-138 -146h-96z" />
    <glyph glyph-name="circumflex.case" horiz-adv-x="393" 
d="M393 586h-106l-90 86l-90 -86h-107l124 146h145z" />
    <glyph glyph-name="caron.case" horiz-adv-x="393" 
d="M0 732h107l90 -86l90 86h106l-124 -146h-145z" />
    <glyph glyph-name="breve.case" horiz-adv-x="334" 
d="M51 620.5q-45 40.5 -51 111.5h91q3 -37 23 -55t53 -18t53 18t23 55h91q-7 -71 -52 -111.5t-115 -40.5q-71 0 -116 40.5z" />
    <glyph glyph-name="ring.case" horiz-adv-x="280" 
d="M69 597.5q-32 17.5 -50.5 48.5t-18.5 68t18.5 67.5t51 48t70.5 17.5t70.5 -17.5t51 -48t18.5 -67.5t-18.5 -68t-50.5 -48.5t-71 -17.5t-71 17.5zM97 671q17 -17 43 -17t43.5 17t17.5 43q0 25 -17.5 42t-43.5 17t-43 -16.5t-17 -42.5t17 -43z" />
    <glyph glyph-name="tilde.case" horiz-adv-x="359" 
d="M105 732q17 0 34 -5.5t40 -16.5q7 -3 29 -14t35 -11q17 0 24.5 10.5t7.5 36.5h84q0 -68 -27 -101.5t-78 -33.5q-17 0 -34.5 6t-40.5 17q-8 3 -29 13.5t-34 10.5q-18 0 -25.5 -10.5t-7.5 -36.5h-83q0 135 105 135z" />
  </font>
</defs>
</svg>
