<?xml version="1.0" standalone="no"?>
<!DOCTYPE svg PUBLIC "-//W3C//DTD SVG 1.1//EN" "http://www.w3.org/Graphics/SVG/1.1/DTD/svg11.dtd" >
<svg xmlns="http://www.w3.org/2000/svg" xmlns:xlink="http://www.w3.org/1999/xlink" version="1.1">
<metadata>
Created by FontForge 20201107 at Mon Sep 19 21:02:23 2022
 By 
Copyright (c) 2022 Ivo Dolenc
</metadata>
<defs>
<font id="Aspekta-700" horiz-adv-x="591" >
  <font-face 
    font-family="Aspekta 400"
    font-weight="700"
    font-stretch="normal"
    units-per-em="1000"
    panose-1="0 0 0 0 0 0 0 0 0 0"
    ascent="800"
    descent="-200"
    x-height="520"
    cap-height="720"
    bbox="-87 -236 1286 932"
    underline-thickness="50"
    underline-position="-155"
    unicode-range="U+0020-25CF"
  />
<missing-glyph horiz-adv-x="692" 
d="M70 720h552v-720h-552v720z" />
    <glyph glyph-name=".notdef" horiz-adv-x="692" 
d="M70 720h552v-720h-552v720z" />
    <glyph glyph-name=".null" horiz-adv-x="0" 
 />
    <glyph glyph-name="nonmarkingreturn" horiz-adv-x="333" 
 />
    <glyph glyph-name="space" unicode=" " horiz-adv-x="230" 
 />
    <glyph glyph-name="space" unicode="&#xa0;" horiz-adv-x="230" 
 />
    <glyph glyph-name="exclam" unicode="!" horiz-adv-x="237" 
d="M40 500v220h157v-220l-37 -266h-83zM36 171h165v-171h-165v171z" />
    <glyph glyph-name="quotedbl" unicode="&#x22;" horiz-adv-x="494" 
d="M215 720l-24 -324h-109l-24 324h157zM436 720l-24 -324h-109l-24 324h157z" />
    <glyph glyph-name="numbersign" unicode="#" horiz-adv-x="772" 
d="M420 169h-142l-33 -169h-133l33 169h-95l23 120h95l28 142h-95l23 120h95l33 169h133l-33 -169h142l33 169h133l-33 -169h95l-23 -120h-95l-28 -142h94l-23 -120h-94l-33 -169h-133zM443 289l28 142h-142l-28 -142h142z" />
    <glyph glyph-name="dollar" unicode="$" horiz-adv-x="657" 
d="M291 -10q-125 10 -195.5 75.5t-71.5 175.5h154q1 -58 31 -87t82 -37v183q-132 24 -191.5 77t-59.5 148q0 57 30.5 102.5t87 72.5t133.5 31v103h76v-104q118 -11 181 -74t67 -167h-152q-2 49 -25.5 76.5t-70.5 36.5v-170q102 -18 160.5 -47t83 -71t24.5 -103
q0 -100 -73.5 -157.5t-194.5 -64.5v-103h-76v104zM219.5 481q18.5 -19 71.5 -33v157q-42 -5 -66 -25t-24 -50t18.5 -49zM444 142.5q28 22.5 28 59.5q0 30 -21.5 48.5t-83.5 34.5v-170q49 5 77 27.5z" />
    <glyph glyph-name="percent" unicode="%" horiz-adv-x="911" 
d="M67 359.5q-45 59.5 -45 156.5t45 156.5t133 59.5q89 0 134 -59.5t45 -156.5t-45 -156.5t-134 -59.5q-88 0 -133 59.5zM148 421q16 -32 52 -32t52.5 32t16.5 95q0 62 -16.5 94.5t-52.5 32.5t-52 -32.5t-16 -94.5q0 -63 16 -95zM596 720h100l-382 -720h-100zM577 360.5
q45 59.5 133 59.5q89 0 134 -59.5t45 -156.5t-45 -156.5t-134 -59.5q-88 0 -133 59.5t-45 156.5t45 156.5zM658 109q16 -32 52 -32t52.5 32t16.5 95q0 62 -16.5 94.5t-52.5 32.5t-52 -32.5t-16 -94.5q0 -63 16 -95z" />
    <glyph glyph-name="ampersand" unicode="&#x26;" horiz-adv-x="717" 
d="M147.5 15q-59.5 27 -90.5 75t-31 110q0 73 40.5 120t110.5 82q-39 44 -56.5 76.5t-17.5 77.5q0 81 58.5 128.5t153.5 47.5t153.5 -47.5t58.5 -128.5q0 -67 -39 -109.5t-108 -77.5l126 -137q32 58 33 132h129q-3 -130 -74 -229l123 -135h-175l-43 47q-93 -59 -209 -59
q-83 0 -142.5 27zM210 137q31 -27 86 -27q67 0 120 29l-156 172q-39 -22 -60 -47t-21 -59q0 -41 31 -68zM260.5 506.5q11.5 -19.5 39.5 -49.5q46 21 69.5 42.5t23.5 50.5q0 30 -19.5 48t-52.5 18t-52.5 -18t-19.5 -48q0 -24 11.5 -43.5z" />
    <glyph glyph-name="quotesingle" unicode="'" horiz-adv-x="273" 
d="M215 720l-24 -324h-109l-24 324h157z" />
    <glyph glyph-name="parenleft" unicode="(" horiz-adv-x="319" 
d="M39 52.5q-35 119.5 -35 247.5t35 247.5t104 252.5h134q-65 -133 -94.5 -250.5t-29.5 -249.5t29.5 -249.5t94.5 -250.5h-134q-69 133 -104 252.5z" />
    <glyph glyph-name="parenright" unicode=")" horiz-adv-x="321" 
d="M99.5 50.5q29.5 117.5 29.5 249.5t-29.5 249.5t-94.5 250.5h134q69 -133 104 -252.5t35 -247.5t-35 -247.5t-104 -252.5h-134q65 133 94.5 250.5z" />
    <glyph glyph-name="asterisk" unicode="*" horiz-adv-x="464" 
d="M232 436l-91 -120l-78 59l87 115l-126 39l28 93l131 -40v138h98v-138l130 40l29 -93l-126 -39l86 -115l-78 -59z" />
    <glyph glyph-name="plus" unicode="+" horiz-adv-x="540" 
d="M34 423h174v173h125v-173h173v-125h-173v-174h-125v174h-174v125z" />
    <glyph glyph-name="comma" unicode="," horiz-adv-x="281" 
d="M242 171l-110 -324h-114l63 324h161z" />
    <glyph glyph-name="hyphen" unicode="-" horiz-adv-x="373" 
d="M34 353h305v-126h-305v126z" />
    <glyph glyph-name="period" unicode="." horiz-adv-x="242" 
d="M38 171h165v-171h-165v171z" />
    <glyph glyph-name="slash" unicode="/" horiz-adv-x="412" 
d="M266 720h142l-262 -720h-142z" />
    <glyph glyph-name="zero" unicode="0" horiz-adv-x="655" 
d="M108.5 88q-69.5 100 -69.5 272t69.5 272t218.5 100t219 -100t70 -272t-70 -272t-219 -100t-218.5 100zM230.5 180.5q27.5 -60.5 96.5 -60.5q70 0 97.5 60.5t27.5 179.5t-27.5 179.5t-97.5 60.5q-69 0 -96.5 -60.5t-27.5 -179.5t27.5 -179.5z" />
    <glyph glyph-name="one" unicode="1" horiz-adv-x="398" 
d="M182 554l-150 -105v161l159 110h148v-720h-157v554z" />
    <glyph glyph-name="two" unicode="2" horiz-adv-x="597" 
d="M37 125l290 253q35 31 54 64t19 71q0 41 -27.5 64t-73.5 23q-52 0 -81.5 -30t-28.5 -87h-152q0 119 67.5 184t194.5 65q74 0 132 -27t90 -74.5t32 -108.5q0 -67 -34.5 -122t-91.5 -106l-184 -162h318v-132h-524v125z" />
    <glyph glyph-name="three" unicode="3" horiz-adv-x="613" 
d="M110 49.5q-70 61.5 -72 175.5h152q2 -54 32.5 -82.5t87.5 -28.5q53 0 84 27t31 73q0 55 -34.5 76t-101.5 21h-58v114h47q129 0 129 93q0 41 -27.5 64.5t-73.5 23.5q-51 0 -77.5 -27t-27.5 -79h-152q2 111 67 171.5t192 60.5q79 0 136.5 -27.5t87 -73.5t29.5 -101
q0 -49 -25 -90.5t-77 -63.5q60 -21 91 -65.5t31 -103.5q0 -64 -31.5 -113.5t-92.5 -77.5t-145 -28q-132 0 -202 61.5z" />
    <glyph glyph-name="four" unicode="4" horiz-adv-x="662" 
d="M34 290l332 430h172v-444h96v-131h-96v-145h-158v145h-346v145zM384 276v284l-214 -284h214z" />
    <glyph glyph-name="five" unicode="5" horiz-adv-x="593" 
d="M117 46q-70 58 -81 157h149q6 -41 35.5 -66t76.5 -25q53 0 85.5 36t32.5 92q0 55 -32.5 90.5t-85.5 35.5q-72 0 -105 -67h-146l63 421h421v-132h-300l-22 -147q46 36 118 36q78 0 131.5 -32.5t80 -86.5t26.5 -118q0 -76 -34.5 -133t-95 -88t-137.5 -31q-110 0 -180 58z
" />
    <glyph glyph-name="six" unicode="6" horiz-adv-x="616" 
d="M229.5 1q-39.5 13 -73.5 39q-116 84 -116 307q0 186 72 285.5t207 99.5q98 0 166 -55.5t81 -150.5h-144q-9 43 -36.5 65.5t-65.5 22.5q-63 0 -97.5 -51t-38.5 -159q57 70 157 70q80 0 133.5 -32.5t79.5 -85.5t26 -117q0 -76 -32 -132.5t-91.5 -87.5t-137.5 -31
q-50 0 -89.5 13zM234.5 145.5q29.5 -34.5 84.5 -34.5q54 0 83.5 35t29.5 90t-29.5 89t-83.5 34q-55 0 -84.5 -34t-29.5 -89q0 -56 29.5 -90.5z" />
    <glyph glyph-name="seven" unicode="7" horiz-adv-x="529" 
d="M355 588h-339v132h497v-122l-257 -598h-161z" />
    <glyph glyph-name="eight" unicode="8" horiz-adv-x="608" 
d="M158.5 15.5q-62.5 27.5 -97 77.5t-34.5 114q0 60 30 104.5t86 70.5q-42 25 -64.5 63t-22.5 88q0 60 32 105t88.5 69.5t127.5 24.5q72 0 128.5 -24t88.5 -69.5t32 -105.5q0 -50 -22.5 -88t-64.5 -63q56 -26 86 -70.5t30 -104.5q0 -64 -34.5 -114t-97.5 -77.5t-146 -27.5
t-145.5 27.5zM214 141.5q32 -30.5 90 -30.5q59 0 91 30.5t32 78.5t-32.5 77.5t-90.5 29.5t-90 -29.5t-32 -77.5t32 -78.5zM226.5 455q28.5 -26 77.5 -26q50 0 78.5 26t28.5 67q0 42 -29 68.5t-78 26.5q-48 0 -77 -26.5t-29 -68.5q0 -41 28.5 -67z" />
    <glyph glyph-name="nine" unicode="9" horiz-adv-x="616" 
d="M386.5 719q39.5 -13 73.5 -39q116 -84 116 -307q0 -186 -72 -285.5t-207 -99.5q-98 0 -166 55.5t-81 150.5h144q9 -43 36.5 -65.5t65.5 -22.5q63 0 97.5 51t38.5 159q-57 -70 -157 -70q-80 0 -133.5 32.5t-79.5 85.5t-26 117q0 76 32 132.5t91.5 87.5t137.5 31
q50 0 89.5 -13zM213.5 395q29.5 -34 83.5 -34q55 0 84.5 34t29.5 89q0 56 -29.5 90.5t-84.5 34.5q-54 0 -83.5 -35t-29.5 -90t29.5 -89z" />
    <glyph glyph-name="colon" unicode=":" horiz-adv-x="242" 
d="M38 500h165v-171h-165v171zM38 171h165v-171h-165v171z" />
    <glyph glyph-name="semicolon" unicode=";" horiz-adv-x="282" 
d="M79 500h165v-171h-165v171zM242 171l-110 -324h-114l63 324h161z" />
    <glyph glyph-name="less" unicode="&#x3c;" horiz-adv-x="540" 
d="M506 620v-145l-331 -115l331 -115v-145l-472 188v144z" />
    <glyph glyph-name="equal" unicode="=" horiz-adv-x="540" 
d="M34 526h472v-125h-472v125zM34 321h472v-125h-472v125z" />
    <glyph glyph-name="greater" unicode="&#x3e;" horiz-adv-x="540" 
d="M34 100v145l331 115l-331 115v145l472 -188v-144z" />
    <glyph glyph-name="question" unicode="?" horiz-adv-x="556" 
d="M202 316q9 32 31 56.5t65 53.5q44 29 60.5 52t16.5 56q0 31 -25.5 52.5t-74.5 21.5q-51 0 -78 -29t-27 -83h-148q1 113 65 174.5t188 61.5q80 0 138.5 -23.5t89.5 -67t31 -100.5q0 -60 -24 -98.5t-83 -76.5q-37 -25 -55.5 -42t-28 -38t-9.5 -52h-141q0 50 9 82zM180 171
h165v-171h-165v171z" />
    <glyph glyph-name="at" unicode="@" horiz-adv-x="925" 
d="M238.5 -61.5q-99.5 54.5 -154 151t-54.5 218.5t54.5 218.5t154 151t228.5 54.5q130 0 226.5 -49.5t149 -140t52.5 -210.5q0 -74 -25.5 -131.5t-74 -90t-115.5 -32.5q-94 0 -125 67q-27 -36 -63 -51.5t-82 -15.5q-69 0 -112 35.5t-43 97.5q0 58 40 89.5t127 45.5l116 20
v20q0 25 -15 38t-51 13q-34 0 -55 -15t-21 -43h-125q0 74 57 113.5t142 39.5q94 0 142.5 -35t48.5 -97v-152q0 -35 13 -49.5t41 -14.5q37 0 54 41t17 107q0 149 -86 225.5t-233 76.5q-96 0 -170.5 -38.5t-116.5 -112t-42 -175.5t42 -176.5t116.5 -113.5t170.5 -39
q124 0 215 55v-100q-50 -24 -101.5 -37t-113.5 -13q-129 0 -228.5 54.5zM394.5 180.5q15.5 -12.5 47.5 -12.5q41 0 68.5 21t27.5 65v31l-92 -19q-36 -7 -51.5 -17.5t-15.5 -33.5q0 -22 15.5 -34.5z" />
    <glyph glyph-name="A" unicode="A" horiz-adv-x="743" 
d="M520 142h-303l-50 -142h-161l269 720h186l276 -720h-167zM473 275l-105 300l-105 -300h210z" />
    <glyph glyph-name="B" unicode="B" horiz-adv-x="679" 
d="M58 720h299q131 0 200.5 -50t69.5 -139q0 -102 -90 -150q59 -25 89.5 -69t30.5 -101q0 -103 -68.5 -157t-201.5 -54h-329v720zM385 129q110 0 110 88q0 87 -110 87h-169v-175h169zM361 427q109 0 109 82t-109 82h-145v-164h145z" />
    <glyph glyph-name="C" unicode="C" horiz-adv-x="750" 
d="M195 37.5q-82 49.5 -124.5 134t-42.5 188.5t42.5 188.5t124.5 134t196 49.5q90 0 160.5 -34.5t113.5 -96t55 -139.5h-160q-15 59 -59 94.5t-110 35.5q-100 0 -149.5 -65t-49.5 -167t49.5 -167t149.5 -65q70 0 114 40.5t57 106.5h160q-10 -82 -52.5 -147.5t-114 -102.5
t-164.5 -37q-114 0 -196 49.5z" />
    <glyph glyph-name="D" unicode="D" horiz-adv-x="734" 
d="M58 720h281q122 0 204.5 -46.5t122.5 -127.5t40 -186t-40 -186t-122.5 -127.5t-204.5 -46.5h-281v720zM339 135q103 0 153 62t50 163t-50 163t-153 62h-123v-450h123z" />
    <glyph glyph-name="E" unicode="E" horiz-adv-x="628" 
d="M58 720h542v-141h-384v-145h355v-134h-355v-159h382v-141h-540v720z" />
    <glyph glyph-name="F" unicode="F" horiz-adv-x="596" 
d="M58 720h522v-141h-364v-145h345v-134h-345v-300h-158v720z" />
    <glyph glyph-name="G" unicode="G" horiz-adv-x="788" 
d="M187 37.5q-77 49.5 -118 134.5t-41 188q0 104 42.5 188.5t124.5 134t196 49.5q94 0 166 -33.5t116 -92t57 -134.5h-160q-16 55 -62.5 88.5t-116.5 33.5q-100 0 -149.5 -66t-49.5 -168t49.5 -168t149.5 -66q73 0 119.5 37.5t66.5 106.5h-216v126h379v-396h-115v124
q-75 -136 -258 -136q-103 0 -180 49.5z" />
    <glyph glyph-name="H" unicode="H" horiz-adv-x="737" 
d="M521 298h-305v-298h-158v720h158v-280h305v280h157v-720h-157v298z" />
    <glyph glyph-name="I" unicode="I" horiz-adv-x="274" 
d="M58 720h158v-720h-158v720z" />
    <glyph glyph-name="J" unicode="J" horiz-adv-x="572" 
d="M89.5 54q-63.5 66 -63.5 179v40h152v-40q0 -55 22 -82.5t72 -27.5t72 27.5t22 82.5v487h158v-487q0 -113 -66 -179t-186 -66q-119 0 -182.5 66z" />
    <glyph glyph-name="K" unicode="K" horiz-adv-x="732" 
d="M58 720h158v-334l314 334h196l-288 -292l288 -428h-189l-207 318l-114 -116v-202h-158v720z" />
    <glyph glyph-name="L" unicode="L" horiz-adv-x="569" 
d="M58 720h158v-579h337v-141h-495v720z" />
    <glyph glyph-name="M" unicode="M" horiz-adv-x="903" 
d="M209 535v-535h-151v720h233l161 -518l160 518h232v-720h-150v535l-176 -535h-133z" />
    <glyph glyph-name="N" unicode="N" horiz-adv-x="741" 
d="M210 501v-501h-152v720h172l301 -502v502h151v-720h-172z" />
    <glyph glyph-name="O" unicode="O" horiz-adv-x="782" 
d="M195 37.5q-82 49.5 -124.5 134t-42.5 188.5t42.5 188.5t124.5 134t196 49.5q115 0 197 -49.5t124 -134t42 -188.5t-42 -188.5t-124 -134t-197 -49.5q-114 0 -196 49.5zM241.5 193q49.5 -65 149.5 -65t149.5 65t49.5 167t-49.5 167t-149.5 65t-149.5 -65t-49.5 -167
t49.5 -167z" />
    <glyph glyph-name="P" unicode="P" horiz-adv-x="667" 
d="M58 720h311q87 0 148 -30.5t91.5 -84.5t30.5 -123q0 -70 -30.5 -124t-91.5 -84.5t-148 -30.5h-153v-243h-158v720zM360 378q121 0 121 104q0 103 -121 103h-144v-207h144z" />
    <glyph glyph-name="Q" unicode="Q" horiz-adv-x="782" 
d="M508 3q-54 -15 -117 -15q-114 0 -196 49.5t-124.5 134t-42.5 188.5t42.5 188.5t124.5 134t196 49.5q115 0 197 -49.5t124 -134t42 -188.5q0 -95 -36 -175t-103 -130l89 -133h-142zM241.5 193q49.5 -65 149.5 -65q12 0 32 2l-94 140h142l59 -89q30 31 45 77.5t15 101.5
q0 102 -49.5 167t-149.5 65t-149.5 -65t-49.5 -167t49.5 -167z" />
    <glyph glyph-name="R" unicode="R" horiz-adv-x="685" 
d="M58 720h333q129 0 193.5 -58t64.5 -156q0 -55 -28.5 -100t-81.5 -76q44 -21 66 -55t29 -83l29 -192h-161l-24 166q-8 55 -35 81t-79 26h-148v-273h-158v720zM365 395q62 0 92 24.5t30 74.5q0 98 -122 98h-149v-197h149z" />
    <glyph glyph-name="S" unicode="S" horiz-adv-x="657" 
d="M108 55q-83 67 -84 186h154q1 -71 45.5 -99t117.5 -28q60 0 95.5 23t35.5 65q0 24 -12.5 40.5t-49 30t-107.5 25.5q-138 23 -200.5 76.5t-62.5 150.5q0 60 34 107t96.5 73.5t146.5 26.5q141 0 217 -64t81 -179h-152q-3 60 -38.5 88.5t-107.5 28.5q-53 0 -84.5 -20.5
t-31.5 -55.5q0 -25 12 -41.5t46.5 -30.5t99.5 -25q105 -18 165.5 -47t85.5 -71.5t25 -103.5q0 -107 -83 -165t-217 -58q-144 0 -227 67z" />
    <glyph glyph-name="T" unicode="T" horiz-adv-x="634" 
d="M238 579h-224v141h606v-141h-223v-579h-159v579z" />
    <glyph glyph-name="U" unicode="U" horiz-adv-x="709" 
d="M194 21q-69 33 -107.5 97.5t-38.5 156.5v445h158v-445q0 -75 38.5 -112.5t109.5 -37.5t110 37.5t39 112.5v445h157v-445q0 -92 -38.5 -156.5t-107.5 -97.5t-160 -33t-160 33z" />
    <glyph glyph-name="V" unicode="V" horiz-adv-x="726" 
d="M6 720h168l191 -579l187 579h168l-265 -720h-185z" />
    <glyph glyph-name="W" unicode="W" horiz-adv-x="1007" 
d="M504 516l-118 -516h-178l-202 720h166l133 -533l118 533h161l118 -533l133 533h166l-202 -720h-177z" />
    <glyph glyph-name="X" unicode="X" horiz-adv-x="686" 
d="M341 235l-157 -235h-178l246 367l-236 353h182l145 -217l145 217h177l-233 -349l248 -371h-182z" />
    <glyph glyph-name="Y" unicode="Y" horiz-adv-x="720" 
d="M284 279l-278 441h181l176 -296l176 296h175l-272 -439v-281h-158v279z" />
    <glyph glyph-name="Z" unicode="Z" horiz-adv-x="648" 
d="M28 127l383 455l-180 -3h-190v141h574v-122l-387 -460l184 3h208v-141h-592v127z" />
    <glyph glyph-name="bracketleft" unicode="[" horiz-adv-x="373" 
d="M20 800h294v-123h-154v-754h154v-123h-294v1000z" />
    <glyph glyph-name="backslash" unicode="\" horiz-adv-x="412" 
d="M266 0l-262 720h142l262 -720h-142z" />
    <glyph glyph-name="bracketright" unicode="]" horiz-adv-x="369" 
d="M16 -77h154v754h-154v123h294v-1000h-294v123z" />
    <glyph glyph-name="underscore" unicode="_" horiz-adv-x="526" 
d="M-2 -71h530v-109h-530v109z" />
    <glyph glyph-name="grave" unicode="`" horiz-adv-x="260" 
d="M143 586l-143 146h162l98 -146h-117z" />
    <glyph glyph-name="a" unicode="a" horiz-adv-x="555" 
d="M378 56q-32 -37 -72 -52.5t-92 -15.5q-86 0 -138 41.5t-52 117.5q0 69 48 105.5t157 55.5l145 25v24q0 32 -19.5 49t-65.5 17q-42 0 -67.5 -18.5t-26.5 -52.5h-146q1 88 67.5 134t171.5 46q113 0 171 -42t58 -116v-374h-139v56zM193.5 107.5q20.5 -16.5 59.5 -16.5
q52 0 86.5 27t34.5 81v42l-116 -23q-46 -9 -65.5 -22.5t-19.5 -43.5q0 -28 20.5 -44.5z" />
    <glyph glyph-name="b" unicode="b" horiz-adv-x="608" 
d="M50 720h146v-261q54 73 155 73q73 0 124.5 -35t78 -97t26.5 -140t-26.5 -140t-78 -97t-124.5 -35q-105 0 -159 78v-66h-142v720zM223.5 147.5q29.5 -40.5 89.5 -40.5t89 40.5t29 112.5t-29 112.5t-89 40.5t-89.5 -40.5t-29.5 -112.5t29.5 -112.5z" />
    <glyph glyph-name="c" unicode="c" horiz-adv-x="562" 
d="M151.5 23q-59.5 35 -90.5 97t-31 140t31 140t90.5 97t140.5 35q109 0 173.5 -55t76.5 -148h-146q-8 40 -35.5 62t-68.5 22q-57 0 -85.5 -41t-28.5 -112t28.5 -112t85.5 -41q43 0 70 24t34 68h146q-12 -96 -76.5 -153.5t-173.5 -57.5q-81 0 -140.5 35z" />
    <glyph glyph-name="d" unicode="d" horiz-adv-x="608" 
d="M416 0v66q-54 -78 -159 -78q-73 0 -124.5 35t-78 97t-26.5 140t26.5 140t78 97t124.5 35q101 0 155 -73v261h146v-720h-142zM206 147.5q29 -40.5 89 -40.5t89.5 40.5t29.5 112.5t-29.5 112.5t-89.5 40.5t-89 -40.5t-29 -112.5t29 -112.5z" />
    <glyph glyph-name="e" unicode="e" horiz-adv-x="585" 
d="M150.5 23q-59.5 35 -91 97t-31.5 140t31.5 140t91 97t141.5 35q125 0 194.5 -77t69.5 -210v-30h-385q9 -55 40 -85.5t81 -30.5q83 0 114 61h141q-25 -79 -92 -125.5t-163 -46.5q-82 0 -141.5 35zM412 313q-11 51 -42 79.5t-78 28.5t-78 -28.5t-41 -79.5h239z" />
    <glyph glyph-name="f" unicode="f" horiz-adv-x="402" 
d="M143.5 690.5q40.5 29.5 114.5 29.5h120v-109h-80q-27 0 -37.5 -11t-10.5 -35v-45h128v-109h-128v-411h-147v411h-89v109h89v60q0 81 40.5 110.5z" />
    <glyph glyph-name="g" unicode="g" horiz-adv-x="608" 
d="M114 -162.5q-62 49.5 -67 136.5h144q8 -74 103 -74q51 0 84.5 25t33.5 88v65q-54 -70 -155 -70q-73 0 -124.5 33.5t-78 93t-26.5 135.5q0 75 26.5 134.5t78 93.5t124.5 34q105 0 159 -75v63h142v-507q0 -110 -75.5 -167.5t-194.5 -57.5q-112 0 -174 49.5zM206 161.5
q29 -39.5 89 -39.5t89.5 39.5t29.5 108.5t-29.5 108t-89.5 39t-89 -39t-29 -108t29 -108.5z" />
    <glyph glyph-name="h" unicode="h" 
d="M50 720h146v-266q29 36 69 57t91 21q87 0 136 -55t49 -157v-320h-146v303q0 47 -21.5 75t-69.5 28q-43 0 -75 -31t-32 -92h-1v-283h-146v720z" />
    <glyph glyph-name="i" unicode="i" horiz-adv-x="245" 
d="M49 520h147v-520h-147v520zM49 720h146v-125h-146v125z" />
    <glyph glyph-name="j" unicode="j" horiz-adv-x="252" 
d="M161.5 -170.5q-40.5 -29.5 -114.5 -29.5h-107v109h68q26 0 37 11t11 35v565h146v-580q0 -81 -40.5 -110.5zM56 720h146v-125h-146v125z" />
    <glyph glyph-name="k" unicode="k" horiz-adv-x="578" 
d="M50 720h146v-403l196 203h171l-195 -198l207 -322h-170l-138 220l-71 -72v-148h-146v720z" />
    <glyph glyph-name="l" unicode="l" horiz-adv-x="336" 
d="M196 720v-565q0 -24 11 -35t37 -11h68v-109h-107q-74 0 -114.5 29.5t-40.5 110.5v580h146z" />
    <glyph glyph-name="m" unicode="m" horiz-adv-x="898" 
d="M681 377.5q-20 28.5 -61 28.5t-69.5 -30.5t-28.5 -92.5v-283h-146v303q0 46 -20 74.5t-61 28.5q-42 0 -70.5 -30.5t-28.5 -92.5v-283h-146v520h142v-75q26 40 64.5 63.5t90.5 23.5t91.5 -24.5t61.5 -71.5q30 44 73.5 70t98.5 26q80 0 128 -55.5t48 -156.5v-320h-147v303
q0 46 -20 74.5z" />
    <glyph glyph-name="n" unicode="n" 
d="M373.5 378q-21.5 28 -69.5 28q-43 0 -75 -31t-32 -92h-1v-283h-146v520h142v-72q29 39 70 61.5t94 22.5q87 0 136 -55t49 -157v-320h-146v303q0 47 -21.5 75z" />
    <glyph glyph-name="o" unicode="o" horiz-adv-x="594" 
d="M152 23q-61 35 -92.5 97t-31.5 140t31.5 140t92.5 97t145 35t145 -35t92.5 -97t31.5 -140t-31.5 -140t-92.5 -97t-145 -35t-145 35zM205.5 147.5q29.5 -40.5 91.5 -40.5t91.5 40.5t29.5 112.5t-29.5 112.5t-91.5 40.5t-91.5 -40.5t-29.5 -112.5t29.5 -112.5z" />
    <glyph glyph-name="p" unicode="p" horiz-adv-x="608" 
d="M192 520v-66q54 78 159 78q73 0 124.5 -35t78 -97t26.5 -140t-26.5 -140t-78 -97t-124.5 -35q-101 0 -155 73v-261h-146v720h142zM223.5 147.5q29.5 -40.5 89.5 -40.5t89 40.5t29 112.5t-29 112.5t-89 40.5t-89.5 -40.5t-29.5 -112.5t29.5 -112.5z" />
    <glyph glyph-name="q" unicode="q" horiz-adv-x="608" 
d="M558 -200h-146v261q-54 -73 -155 -73q-73 0 -124.5 35t-78 97t-26.5 140t26.5 140t78 97t124.5 35q105 0 159 -78v66h142v-720zM206 147.5q29 -40.5 89 -40.5t89.5 40.5t29.5 112.5t-29.5 112.5t-89.5 40.5t-89 -40.5t-29 -112.5t29 -112.5z" />
    <glyph glyph-name="r" unicode="r" horiz-adv-x="412" 
d="M50 520h142v-96q45 102 153 102h42v-134h-49q-70 0 -106 -35t-36 -119v-238h-146v520z" />
    <glyph glyph-name="s" unicode="s" horiz-adv-x="520" 
d="M86 31.5q-63 43.5 -69 139.5h141q5 -46 32.5 -65t78.5 -19q39 0 64 14t25 40q0 18 -8 28.5t-33 19t-77 17.5q-119 20 -166 59t-47 106q0 76 61 118.5t165 42.5q115 0 174.5 -48t62.5 -131h-135q-2 80 -102 80q-37 0 -60 -14.5t-23 -38.5q0 -18 10 -29t36.5 -19t77.5 -16
q117 -18 163 -57.5t46 -107.5q0 -78 -65.5 -120.5t-174.5 -42.5q-114 0 -177 43.5z" />
    <glyph glyph-name="t" unicode="t" horiz-adv-x="402" 
d="M250 680v-160h128v-109h-128v-256q0 -24 10.5 -35t37.5 -11h80v-109h-120q-74 0 -114.5 29.5t-40.5 110.5v271h-89v109h89v160h147z" />
    <glyph glyph-name="u" unicode="u" 
d="M217.5 142q21.5 -28 69.5 -28q43 0 75 31t32 92h1v283h146v-520h-142v72q-29 -39 -70 -61.5t-94 -22.5q-87 0 -136 55t-49 157v320h146v-303q0 -47 21.5 -75z" />
    <glyph glyph-name="v" unicode="v" horiz-adv-x="565" 
d="M4 520h158l123 -392l118 392h157l-193 -520h-170z" />
    <glyph glyph-name="w" unicode="w" horiz-adv-x="866" 
d="M433 340l-96 -340h-154l-179 520h158l107 -351l95 351h138l95 -351l107 351h158l-179 -520h-154z" />
    <glyph glyph-name="x" unicode="x" horiz-adv-x="547" 
d="M272 151l-106 -151h-164l188 267l-178 253h167l95 -134l94 134h164l-176 -251l189 -269h-167z" />
    <glyph glyph-name="y" unicode="y" horiz-adv-x="557" 
d="M30 -83h86q27 0 41 5.5t22.5 18t17.5 39.5l4 11l-197 529h158l118 -387l115 387h157l-206 -565q-28 -77 -69.5 -116t-119.5 -39h-127v117z" />
    <glyph glyph-name="z" unicode="z" horiz-adv-x="526" 
d="M38 96l262 312h-258v112h436v-96l-261 -312h271v-112h-450v96z" />
    <glyph glyph-name="braceleft" unicode="{" horiz-adv-x="428" 
d="M147.5 -165.5q-45.5 34.5 -45.5 115.5v227q0 32 -19 47.5t-67 15.5v120q48 0 67 15.5t19 47.5v227q0 81 45.5 115.5t119.5 34.5h129v-121h-100q-26 0 -42 -16t-16 -40v-225q0 -45 -22.5 -68t-64.5 -30q42 -7 64.5 -30t22.5 -68v-225q0 -24 16 -40t42 -16h100v-121h-129
q-74 0 -119.5 34.5z" />
    <glyph glyph-name="bar" unicode="|" horiz-adv-x="242" 
d="M60 810h122v-1030h-122v1030z" />
    <glyph glyph-name="braceright" unicode="}" horiz-adv-x="428" 
d="M16 -79h100q26 0 42 16t16 40v225q0 45 22.5 68t64.5 30q-42 7 -64.5 30t-22.5 68v225q0 24 -16 40t-42 16h-100v121h129q74 0 119.5 -34.5t45.5 -115.5v-227q0 -32 19 -47.5t67 -15.5v-120q-48 0 -67 -15.5t-19 -47.5v-227q0 -81 -45.5 -115.5t-119.5 -34.5h-129v121z
" />
    <glyph glyph-name="exclamdown" unicode="&#xa1;" horiz-adv-x="237" 
d="M160 286l37 -266v-220h-157v220l37 266h83zM36 520h165v-171h-165v171z" />
    <glyph glyph-name="cent" unicode="&#xa2;" horiz-adv-x="562" 
d="M253 -10q-104 12 -163.5 86.5t-59.5 183.5t59.5 183.5t163.5 86.5v104h76v-104q93 -9 147 -62.5t66 -138.5h-146q-6 30 -23.5 50.5t-43.5 28.5v-296q28 9 45 31.5t22 55.5h146q-12 -87 -66.5 -143.5t-146.5 -65.5v-104h-76v104zM197 164q19 -38 56 -51v294
q-37 -13 -56 -51t-19 -96t19 -96z" />
    <glyph glyph-name="sterling" unicode="&#xa3;" horiz-adv-x="606" 
d="M137 257q0 19 -4 35h-113v78h83q-23 48 -33 79.5t-10 72.5q0 61 32 108.5t90 74.5t132 27q127 0 194.5 -65t67.5 -184h-152q1 57 -28.5 87t-81.5 30q-46 0 -73.5 -23t-27.5 -64q0 -29 10 -56.5t29 -67.5l9 -19h215v-78h-189q1 -6 1 -18q0 -38 -17 -75t-47 -67h360v-132
h-548v125q101 53 101 132z" />
    <glyph glyph-name="yen" unicode="&#xa5;" horiz-adv-x="720" 
d="M122 337h126l-242 383h181l176 -296l176 296h175l-238 -383h121v-78h-155v-73h155v-78h-155v-108h-158v108h-162v78h162v73h-162v78z" />
    <glyph glyph-name="dieresis" unicode="&#xa8;" horiz-adv-x="359" 
d="M0 720h146v-125h-146v125zM212 720h146v-125h-146v125z" />
    <glyph glyph-name="copyright" unicode="&#xa9;" horiz-adv-x="827" 
d="M316 186q-43 26 -66 71.5t-23 102.5t23 102.5t66 71.5t102 26q81 0 127.5 -40.5t55.5 -109.5h-108q-5 29 -24.5 45t-50.5 16q-42 0 -62 -29t-20 -82t20.5 -82.5t61.5 -29.5q33 0 52 18t23 50h108q-8 -71 -55.5 -113.5t-127.5 -42.5q-59 0 -102 26zM80 552
q50 85 137.5 132.5t195.5 47.5t195.5 -47.5t137.5 -132.5t50 -192t-50 -192t-137.5 -132.5t-195.5 -47.5t-195.5 47.5t-137.5 132.5t-50 192t50 192zM174 217q35 -61 97 -94t142 -33t142 33t97 94t35 143t-35 143t-97 94t-142 33t-142 -33t-97 -94t-35 -143t35 -143z" />
    <glyph glyph-name="registered" unicode="&#xae;" horiz-adv-x="827" 
d="M258 549h182q69 0 103.5 -31t34.5 -83q0 -28 -15.5 -52.5t-41.5 -40.5q24 -12 35.5 -31t14.5 -45l15 -95h-98l-11 83q-7 54 -56 54h-67v-137h-96v378zM80 552q50 85 137.5 132.5t195.5 47.5t195.5 -47.5t137.5 -132.5t50 -192t-50 -192t-137.5 -132.5t-195.5 -47.5
t-195.5 47.5t-137.5 132.5t-50 192t50 192zM174 217q35 -61 97 -94t142 -33t142 33t97 94t35 143t-35 143t-97 94t-142 33t-142 -33t-97 -94t-35 -143t35 -143zM423 380q57 0 57 47q0 24 -14 35t-43 11h-69v-93h69z" />
    <glyph glyph-name="degree" unicode="&#xb0;" horiz-adv-x="359" 
d="M101.5 456q-35.5 19 -56.5 53t-21 75q0 42 21 75.5t56.5 53t78.5 19.5t78.5 -19.5t56 -53t20.5 -75.5q0 -41 -20.5 -74.5t-56 -53t-78.5 -19.5t-78.5 19zM136 541q17 -17 44 -17q26 0 43 17t17 43t-17 43.5t-43 17.5q-27 0 -44 -17.5t-17 -43.5t17 -43z" />
    <glyph glyph-name="acute" unicode="&#xb4;" horiz-adv-x="260" 
d="M98 732h162l-143 -146h-117z" />
    <glyph glyph-name="periodcentered" unicode="&#xb7;" horiz-adv-x="242" 
d="M38 446h165v-171h-165v171z" />
    <glyph glyph-name="cedilla" unicode="&#xb8;" horiz-adv-x="226" 
d="M0 -216v57q33 -6 57 -6q67 0 67 39q0 37 -59 37q-20 0 -30 -2v40l43 57h75l-48 -50h8q53 0 85 -22t32 -60q0 -42 -39.5 -70t-115.5 -28q-42 0 -75 8z" />
    <glyph glyph-name="questiondown" unicode="&#xbf;" horiz-adv-x="556" 
d="M354 204q-9 -32 -31 -56.5t-65 -53.5q-44 -29 -60.5 -52t-16.5 -56q0 -31 25.5 -52.5t74.5 -21.5q51 0 78 29t27 83h148q-1 -113 -65 -174.5t-188 -61.5q-80 0 -138.5 23.5t-89.5 67t-31 100.5q0 60 24 98.5t83 76.5q37 25 55.5 42t28 38t9.5 52h141q0 -50 -9 -82z
M210 520h165v-171h-165v171z" />
    <glyph glyph-name="Agrave" unicode="&#xc0;" horiz-adv-x="743" 
d="M520 142h-303l-50 -142h-161l269 720h186l276 -720h-167zM473 275l-105 300l-105 -300h210zM310 768l-143 146h162l98 -146h-117z" />
    <glyph glyph-name="Aacute" unicode="&#xc1;" horiz-adv-x="743" 
d="M520 142h-303l-50 -142h-161l269 720h186l276 -720h-167zM473 275l-105 300l-105 -300h210zM408 914h162l-143 -146h-117z" />
    <glyph glyph-name="Acircumflex" unicode="&#xc2;" horiz-adv-x="743" 
d="M520 142h-303l-50 -142h-161l269 720h186l276 -720h-167zM473 275l-105 300l-105 -300h210zM577 768h-130l-79 76l-79 -76h-130l126 146h166z" />
    <glyph glyph-name="Atilde" unicode="&#xc3;" horiz-adv-x="743" 
d="M520 142h-303l-50 -142h-161l269 720h186l276 -720h-167zM473 275l-105 300l-105 -300h210zM211 874.5q30 34.5 82 34.5q18 0 35 -5t41 -15q6 -2 26.5 -11.5t34.5 -9.5q17 0 24.5 9t7.5 32h95q0 -72 -30.5 -106.5t-82.5 -34.5q-28 0 -75 20q-6 2 -27 11.5t-35 9.5
q-16 0 -23.5 -9.5t-7.5 -31.5h-95q0 72 30 106.5z" />
    <glyph glyph-name="Adieresis" unicode="&#xc4;" horiz-adv-x="743" 
d="M520 142h-303l-50 -142h-161l269 720h186l276 -720h-167zM473 275l-105 300l-105 -300h210zM189 893h146v-125h-146v125zM401 893h146v-125h-146v125z" />
    <glyph glyph-name="Aring" unicode="&#xc5;" horiz-adv-x="743" 
d="M520 142h-303l-50 -142h-161l253 677q-20 19 -31 45t-11 55q0 41 20 73.5t54.5 51t76.5 18.5t76.5 -18.5t54.5 -51t20 -73.5q0 -29 -11 -55t-31 -45l260 -677h-167zM473 275l-105 300l-105 -300h210zM326.5 736q16.5 -16 41.5 -16t41.5 16t16.5 41t-16 41t-42 16
q-25 0 -41.5 -16t-16.5 -41t16.5 -41z" />
    <glyph glyph-name="Ccedilla" unicode="&#xc7;" horiz-adv-x="750" 
d="M281 -228v57q33 -6 57 -6q67 0 67 39q0 37 -59 37q-20 0 -30 -2v40l39 52q-103 8 -177 59t-112 132.5t-38 179.5q0 104 42.5 188.5t124.5 134t196 49.5q90 0 160.5 -34.5t113.5 -96t55 -139.5h-160q-15 59 -59 94.5t-110 35.5q-100 0 -149.5 -65t-49.5 -167t49.5 -167
t149.5 -65q70 0 114 40.5t57 106.5h160q-9 -77 -46.5 -138.5t-100.5 -100t-145 -46.5l-44 -46h8q53 0 85 -22t32 -60q0 -42 -39.5 -70t-115.5 -28q-42 0 -75 8z" />
    <glyph glyph-name="Egrave" unicode="&#xc8;" horiz-adv-x="628" 
d="M58 720h542v-141h-384v-145h355v-134h-355v-159h382v-141h-540v720zM271 768l-143 146h162l98 -146h-117z" />
    <glyph glyph-name="Eacute" unicode="&#xc9;" horiz-adv-x="628" 
d="M58 720h542v-141h-384v-145h355v-134h-355v-159h382v-141h-540v720zM369 914h162l-143 -146h-117z" />
    <glyph glyph-name="Ecircumflex" unicode="&#xca;" horiz-adv-x="628" 
d="M58 720h542v-141h-384v-145h355v-134h-355v-159h382v-141h-540v720zM538 768h-130l-79 76l-79 -76h-130l126 146h166z" />
    <glyph glyph-name="Edieresis" unicode="&#xcb;" horiz-adv-x="628" 
d="M58 720h542v-141h-384v-145h355v-134h-355v-159h382v-141h-540v720zM150 893h146v-125h-146v125zM362 893h146v-125h-146v125z" />
    <glyph glyph-name="Igrave" unicode="&#xcc;" horiz-adv-x="274" 
d="M58 720h158v-720h-158v720zM79 768l-143 146h162l98 -146h-117z" />
    <glyph glyph-name="Iacute" unicode="&#xcd;" horiz-adv-x="274" 
d="M58 720h158v-720h-158v720zM177 914h162l-143 -146h-117z" />
    <glyph glyph-name="Icircumflex" unicode="&#xce;" horiz-adv-x="274" 
d="M58 720h158v-720h-158v720zM346 768h-130l-79 76l-79 -76h-130l126 146h166z" />
    <glyph glyph-name="Idieresis" unicode="&#xcf;" horiz-adv-x="274" 
d="M58 720h158v-720h-158v720zM-42 893h146v-125h-146v125zM170 893h146v-125h-146v125z" />
    <glyph glyph-name="Ntilde" unicode="&#xd1;" horiz-adv-x="741" 
d="M210 501v-501h-152v720h172l301 -502v502h151v-720h-172zM213 874.5q30 34.5 82 34.5q18 0 35 -5t41 -15q6 -2 26.5 -11.5t34.5 -9.5q17 0 24.5 9t7.5 32h95q0 -72 -30.5 -106.5t-82.5 -34.5q-28 0 -75 20q-6 2 -27 11.5t-35 9.5q-16 0 -23.5 -9.5t-7.5 -31.5h-95
q0 72 30 106.5z" />
    <glyph glyph-name="Ograve" unicode="&#xd2;" horiz-adv-x="782" 
d="M195 37.5q-82 49.5 -124.5 134t-42.5 188.5t42.5 188.5t124.5 134t196 49.5q115 0 197 -49.5t124 -134t42 -188.5t-42 -188.5t-124 -134t-197 -49.5q-114 0 -196 49.5zM241.5 193q49.5 -65 149.5 -65t149.5 65t49.5 167t-49.5 167t-149.5 65t-149.5 -65t-49.5 -167
t49.5 -167zM333 780l-143 146h162l98 -146h-117z" />
    <glyph glyph-name="Oacute" unicode="&#xd3;" horiz-adv-x="782" 
d="M195 37.5q-82 49.5 -124.5 134t-42.5 188.5t42.5 188.5t124.5 134t196 49.5q115 0 197 -49.5t124 -134t42 -188.5t-42 -188.5t-124 -134t-197 -49.5q-114 0 -196 49.5zM241.5 193q49.5 -65 149.5 -65t149.5 65t49.5 167t-49.5 167t-149.5 65t-149.5 -65t-49.5 -167
t49.5 -167zM431 926h162l-143 -146h-117z" />
    <glyph glyph-name="Ocircumflex" unicode="&#xd4;" horiz-adv-x="782" 
d="M195 37.5q-82 49.5 -124.5 134t-42.5 188.5t42.5 188.5t124.5 134t196 49.5q115 0 197 -49.5t124 -134t42 -188.5t-42 -188.5t-124 -134t-197 -49.5q-114 0 -196 49.5zM241.5 193q49.5 -65 149.5 -65t149.5 65t49.5 167t-49.5 167t-149.5 65t-149.5 -65t-49.5 -167
t49.5 -167zM600 780h-130l-79 76l-79 -76h-130l126 146h166z" />
    <glyph glyph-name="Otilde" unicode="&#xd5;" horiz-adv-x="782" 
d="M195 37.5q-82 49.5 -124.5 134t-42.5 188.5t42.5 188.5t124.5 134t196 49.5q115 0 197 -49.5t124 -134t42 -188.5t-42 -188.5t-124 -134t-197 -49.5q-114 0 -196 49.5zM241.5 193q49.5 -65 149.5 -65t149.5 65t49.5 167t-49.5 167t-149.5 65t-149.5 -65t-49.5 -167
t49.5 -167zM233 886.5q30 34.5 82 34.5q18 0 35 -5t41 -15q6 -2 26.5 -11.5t34.5 -9.5q17 0 24.5 9t7.5 32h95q0 -72 -30.5 -106.5t-82.5 -34.5q-28 0 -75 20q-6 2 -27 11.5t-35 9.5q-16 0 -23.5 -9.5t-7.5 -31.5h-95q0 72 30 106.5z" />
    <glyph glyph-name="Odieresis" unicode="&#xd6;" horiz-adv-x="782" 
d="M195 37.5q-82 49.5 -124.5 134t-42.5 188.5t42.5 188.5t124.5 134t196 49.5q115 0 197 -49.5t124 -134t42 -188.5t-42 -188.5t-124 -134t-197 -49.5q-114 0 -196 49.5zM241.5 193q49.5 -65 149.5 -65t149.5 65t49.5 167t-49.5 167t-149.5 65t-149.5 -65t-49.5 -167
t49.5 -167zM212 905h146v-125h-146v125zM424 905h146v-125h-146v125z" />
    <glyph glyph-name="multiply" unicode="&#xd7;" horiz-adv-x="514" 
d="M135 572l123 -123l122 122l89 -88l-122 -122l122 -123l-89 -88l-122 122l-123 -123l-88 89l123 123l-123 123z" />
    <glyph glyph-name="Ugrave" unicode="&#xd9;" horiz-adv-x="709" 
d="M194 21q-69 33 -107.5 97.5t-38.5 156.5v445h158v-445q0 -75 38.5 -112.5t109.5 -37.5t110 37.5t39 112.5v445h157v-445q0 -92 -38.5 -156.5t-107.5 -97.5t-160 -33t-160 33zM296 768l-143 146h162l98 -146h-117z" />
    <glyph glyph-name="Uacute" unicode="&#xda;" horiz-adv-x="709" 
d="M194 21q-69 33 -107.5 97.5t-38.5 156.5v445h158v-445q0 -75 38.5 -112.5t109.5 -37.5t110 37.5t39 112.5v445h157v-445q0 -92 -38.5 -156.5t-107.5 -97.5t-160 -33t-160 33zM394 914h162l-143 -146h-117z" />
    <glyph glyph-name="Ucircumflex" unicode="&#xdb;" horiz-adv-x="709" 
d="M194 21q-69 33 -107.5 97.5t-38.5 156.5v445h158v-445q0 -75 38.5 -112.5t109.5 -37.5t110 37.5t39 112.5v445h157v-445q0 -92 -38.5 -156.5t-107.5 -97.5t-160 -33t-160 33zM563 768h-130l-79 76l-79 -76h-130l126 146h166z" />
    <glyph glyph-name="Udieresis" unicode="&#xdc;" horiz-adv-x="709" 
d="M194 21q-69 33 -107.5 97.5t-38.5 156.5v445h158v-445q0 -75 38.5 -112.5t109.5 -37.5t110 37.5t39 112.5v445h157v-445q0 -92 -38.5 -156.5t-107.5 -97.5t-160 -33t-160 33zM175 893h146v-125h-146v125zM387 893h146v-125h-146v125z" />
    <glyph glyph-name="Yacute" unicode="&#xdd;" horiz-adv-x="720" 
d="M284 279l-278 441h181l176 -296l176 296h175l-272 -439v-281h-158v279zM403 914h162l-143 -146h-117z" />
    <glyph glyph-name="germandbls" unicode="&#xdf;" horiz-adv-x="595" 
d="M113.5 673q63.5 59 178.5 59q68 0 120 -25.5t81 -70t29 -100.5q0 -47 -19 -84.5t-54 -62.5q59 -25 88.5 -70t29.5 -107q0 -106 -67 -165t-194 -59q-32 0 -56 5v117q28 -5 50 -5q53 0 84.5 28.5t31.5 78.5q0 53 -32 80.5t-90 27.5h-34v102h32q43 0 69 25t26 67t-26.5 67
t-68.5 25q-43 0 -69.5 -26t-26.5 -73v-507h-146v507q0 107 63.5 166z" />
    <glyph glyph-name="agrave" unicode="&#xe0;" horiz-adv-x="555" 
d="M378 56q-32 -37 -72 -52.5t-92 -15.5q-86 0 -138 41.5t-52 117.5q0 69 48 105.5t157 55.5l145 25v24q0 32 -19.5 49t-65.5 17q-42 0 -67.5 -18.5t-26.5 -52.5h-146q1 88 67.5 134t171.5 46q113 0 171 -42t58 -116v-374h-139v56zM193.5 107.5q20.5 -16.5 59.5 -16.5
q52 0 86.5 27t34.5 81v42l-116 -23q-46 -9 -65.5 -22.5t-19.5 -43.5q0 -28 20.5 -44.5zM225 586l-143 146h162l98 -146h-117z" />
    <glyph glyph-name="aacute" unicode="&#xe1;" horiz-adv-x="555" 
d="M378 56q-32 -37 -72 -52.5t-92 -15.5q-86 0 -138 41.5t-52 117.5q0 69 48 105.5t157 55.5l145 25v24q0 32 -19.5 49t-65.5 17q-42 0 -67.5 -18.5t-26.5 -52.5h-146q1 88 67.5 134t171.5 46q113 0 171 -42t58 -116v-374h-139v56zM193.5 107.5q20.5 -16.5 59.5 -16.5
q52 0 86.5 27t34.5 81v42l-116 -23q-46 -9 -65.5 -22.5t-19.5 -43.5q0 -28 20.5 -44.5zM323 732h162l-143 -146h-117z" />
    <glyph glyph-name="acircumflex" unicode="&#xe2;" horiz-adv-x="555" 
d="M378 56q-32 -37 -72 -52.5t-92 -15.5q-86 0 -138 41.5t-52 117.5q0 69 48 105.5t157 55.5l145 25v24q0 32 -19.5 49t-65.5 17q-42 0 -67.5 -18.5t-26.5 -52.5h-146q1 88 67.5 134t171.5 46q113 0 171 -42t58 -116v-374h-139v56zM193.5 107.5q20.5 -16.5 59.5 -16.5
q52 0 86.5 27t34.5 81v42l-116 -23q-46 -9 -65.5 -22.5t-19.5 -43.5q0 -28 20.5 -44.5zM492 586h-130l-79 76l-79 -76h-130l126 146h166z" />
    <glyph glyph-name="atilde" unicode="&#xe3;" horiz-adv-x="555" 
d="M378 56q-32 -37 -72 -52.5t-92 -15.5q-86 0 -138 41.5t-52 117.5q0 69 48 105.5t157 55.5l145 25v24q0 32 -19.5 49t-65.5 17q-42 0 -67.5 -18.5t-26.5 -52.5h-146q1 88 67.5 134t171.5 46q113 0 171 -42t58 -116v-374h-139v56zM193.5 107.5q20.5 -16.5 59.5 -16.5
q52 0 86.5 27t34.5 81v42l-116 -23q-46 -9 -65.5 -22.5t-19.5 -43.5q0 -28 20.5 -44.5zM126 697.5q30 34.5 82 34.5q18 0 35 -5t41 -15q6 -2 26.5 -11.5t34.5 -9.5q17 0 24.5 9t7.5 32h95q0 -72 -30.5 -106.5t-82.5 -34.5q-28 0 -75 20q-6 2 -27 11.5t-35 9.5
q-16 0 -23.5 -9.5t-7.5 -31.5h-95q0 72 30 106.5z" />
    <glyph glyph-name="adieresis" unicode="&#xe4;" horiz-adv-x="555" 
d="M378 56q-32 -37 -72 -52.5t-92 -15.5q-86 0 -138 41.5t-52 117.5q0 69 48 105.5t157 55.5l145 25v24q0 32 -19.5 49t-65.5 17q-42 0 -67.5 -18.5t-26.5 -52.5h-146q1 88 67.5 134t171.5 46q113 0 171 -42t58 -116v-374h-139v56zM193.5 107.5q20.5 -16.5 59.5 -16.5
q52 0 86.5 27t34.5 81v42l-116 -23q-46 -9 -65.5 -22.5t-19.5 -43.5q0 -28 20.5 -44.5zM104 720h146v-125h-146v125zM316 720h146v-125h-146v125z" />
    <glyph glyph-name="aring" unicode="&#xe5;" horiz-adv-x="555" 
d="M378 56q-32 -37 -72 -52.5t-92 -15.5q-86 0 -138 41.5t-52 117.5q0 69 48 105.5t157 55.5l145 25v24q0 32 -19.5 49t-65.5 17q-42 0 -67.5 -18.5t-26.5 -52.5h-146q1 88 67.5 134t171.5 46q113 0 171 -42t58 -116v-374h-139v56zM193.5 107.5q20.5 -16.5 59.5 -16.5
q52 0 86.5 27t34.5 81v42l-116 -23q-46 -9 -65.5 -22.5t-19.5 -43.5q0 -28 20.5 -44.5zM206.5 598.5q-34.5 18.5 -54.5 51.5t-20 73q0 41 20 73.5t54.5 51t76.5 18.5t76.5 -18.5t54.5 -51t20 -73.5q0 -40 -20 -73t-54.5 -51.5t-76.5 -18.5t-76.5 18.5zM241.5 682
q16.5 -16 41.5 -16t41.5 16t16.5 41t-16 41t-42 16q-25 0 -41.5 -16t-16.5 -41t16.5 -41z" />
    <glyph glyph-name="ccedilla" unicode="&#xe7;" horiz-adv-x="562" 
d="M181 -228v57q33 -6 57 -6q67 0 67 39q0 37 -59 37q-20 0 -30 -2v40l40 53q-106 12 -166 86t-60 184q0 78 31 140t90.5 97t140.5 35q109 0 173.5 -55t76.5 -148h-146q-8 40 -35.5 62t-68.5 22q-57 0 -85.5 -41t-28.5 -112t28.5 -112t85.5 -41q43 0 70 24t34 68h146
q-12 -87 -66 -143t-146 -66l-44 -46h8q53 0 85 -22t32 -60q0 -42 -39.5 -70t-115.5 -28q-42 0 -75 8z" />
    <glyph glyph-name="egrave" unicode="&#xe8;" horiz-adv-x="585" 
d="M150.5 23q-59.5 35 -91 97t-31.5 140t31.5 140t91 97t141.5 35q125 0 194.5 -77t69.5 -210v-30h-385q9 -55 40 -85.5t81 -30.5q83 0 114 61h141q-25 -79 -92 -125.5t-163 -46.5q-82 0 -141.5 35zM412 313q-11 51 -42 79.5t-78 28.5t-78 -28.5t-41 -79.5h239zM234 586
l-143 146h162l98 -146h-117z" />
    <glyph glyph-name="eacute" unicode="&#xe9;" horiz-adv-x="585" 
d="M150.5 23q-59.5 35 -91 97t-31.5 140t31.5 140t91 97t141.5 35q125 0 194.5 -77t69.5 -210v-30h-385q9 -55 40 -85.5t81 -30.5q83 0 114 61h141q-25 -79 -92 -125.5t-163 -46.5q-82 0 -141.5 35zM412 313q-11 51 -42 79.5t-78 28.5t-78 -28.5t-41 -79.5h239zM332 732h162
l-143 -146h-117z" />
    <glyph glyph-name="ecircumflex" unicode="&#xea;" horiz-adv-x="585" 
d="M150.5 23q-59.5 35 -91 97t-31.5 140t31.5 140t91 97t141.5 35q125 0 194.5 -77t69.5 -210v-30h-385q9 -55 40 -85.5t81 -30.5q83 0 114 61h141q-25 -79 -92 -125.5t-163 -46.5q-82 0 -141.5 35zM412 313q-11 51 -42 79.5t-78 28.5t-78 -28.5t-41 -79.5h239zM501 586
h-130l-79 76l-79 -76h-130l126 146h166z" />
    <glyph glyph-name="edieresis" unicode="&#xeb;" horiz-adv-x="585" 
d="M150.5 23q-59.5 35 -91 97t-31.5 140t31.5 140t91 97t141.5 35q125 0 194.5 -77t69.5 -210v-30h-385q9 -55 40 -85.5t81 -30.5q83 0 114 61h141q-25 -79 -92 -125.5t-163 -46.5q-82 0 -141.5 35zM412 313q-11 51 -42 79.5t-78 28.5t-78 -28.5t-41 -79.5h239zM113 720h146
v-125h-146v125zM325 720h146v-125h-146v125z" />
    <glyph glyph-name="igrave" unicode="&#xec;" horiz-adv-x="245" 
d="M49 520h147v-520h-147v520zM64 586l-143 146h162l98 -146h-117z" />
    <glyph glyph-name="iacute" unicode="&#xed;" horiz-adv-x="245" 
d="M49 520h147v-520h-147v520zM162 732h162l-143 -146h-117z" />
    <glyph glyph-name="icircumflex" unicode="&#xee;" horiz-adv-x="245" 
d="M49 520h147v-520h-147v520zM331 586h-130l-79 76l-79 -76h-130l126 146h166z" />
    <glyph glyph-name="idieresis" unicode="&#xef;" horiz-adv-x="245" 
d="M49 520h147v-520h-147v520zM-57 720h146v-125h-146v125zM155 720h146v-125h-146v125z" />
    <glyph glyph-name="ntilde" unicode="&#xf1;" 
d="M373.5 378q-21.5 28 -69.5 28q-43 0 -75 -31t-32 -92h-1v-283h-146v520h142v-72q29 39 70 61.5t94 22.5q87 0 136 -55t49 -157v-320h-146v303q0 47 -21.5 75zM138 697.5q30 34.5 82 34.5q18 0 35 -5t41 -15q6 -2 26.5 -11.5t34.5 -9.5q17 0 24.5 9t7.5 32h95
q0 -72 -30.5 -106.5t-82.5 -34.5q-28 0 -75 20q-6 2 -27 11.5t-35 9.5q-16 0 -23.5 -9.5t-7.5 -31.5h-95q0 72 30 106.5z" />
    <glyph glyph-name="ograve" unicode="&#xf2;" horiz-adv-x="594" 
d="M152 23q-61 35 -92.5 97t-31.5 140t31.5 140t92.5 97t145 35t145 -35t92.5 -97t31.5 -140t-31.5 -140t-92.5 -97t-145 -35t-145 35zM205.5 147.5q29.5 -40.5 91.5 -40.5t91.5 40.5t29.5 112.5t-29.5 112.5t-91.5 40.5t-91.5 -40.5t-29.5 -112.5t29.5 -112.5zM239 586
l-143 146h162l98 -146h-117z" />
    <glyph glyph-name="oacute" unicode="&#xf3;" horiz-adv-x="594" 
d="M152 23q-61 35 -92.5 97t-31.5 140t31.5 140t92.5 97t145 35t145 -35t92.5 -97t31.5 -140t-31.5 -140t-92.5 -97t-145 -35t-145 35zM205.5 147.5q29.5 -40.5 91.5 -40.5t91.5 40.5t29.5 112.5t-29.5 112.5t-91.5 40.5t-91.5 -40.5t-29.5 -112.5t29.5 -112.5zM337 732h162
l-143 -146h-117z" />
    <glyph glyph-name="ocircumflex" unicode="&#xf4;" horiz-adv-x="594" 
d="M152 23q-61 35 -92.5 97t-31.5 140t31.5 140t92.5 97t145 35t145 -35t92.5 -97t31.5 -140t-31.5 -140t-92.5 -97t-145 -35t-145 35zM205.5 147.5q29.5 -40.5 91.5 -40.5t91.5 40.5t29.5 112.5t-29.5 112.5t-91.5 40.5t-91.5 -40.5t-29.5 -112.5t29.5 -112.5zM506 586
h-130l-79 76l-79 -76h-130l126 146h166z" />
    <glyph glyph-name="otilde" unicode="&#xf5;" horiz-adv-x="594" 
d="M152 23q-61 35 -92.5 97t-31.5 140t31.5 140t92.5 97t145 35t145 -35t92.5 -97t31.5 -140t-31.5 -140t-92.5 -97t-145 -35t-145 35zM205.5 147.5q29.5 -40.5 91.5 -40.5t91.5 40.5t29.5 112.5t-29.5 112.5t-91.5 40.5t-91.5 -40.5t-29.5 -112.5t29.5 -112.5zM139 697.5
q30 34.5 82 34.5q18 0 35 -5t41 -15q6 -2 26.5 -11.5t34.5 -9.5q17 0 24.5 9t7.5 32h95q0 -72 -30.5 -106.5t-82.5 -34.5q-28 0 -75 20q-6 2 -27 11.5t-35 9.5q-16 0 -23.5 -9.5t-7.5 -31.5h-95q0 72 30 106.5z" />
    <glyph glyph-name="odieresis" unicode="&#xf6;" horiz-adv-x="594" 
d="M152 23q-61 35 -92.5 97t-31.5 140t31.5 140t92.5 97t145 35t145 -35t92.5 -97t31.5 -140t-31.5 -140t-92.5 -97t-145 -35t-145 35zM205.5 147.5q29.5 -40.5 91.5 -40.5t91.5 40.5t29.5 112.5t-29.5 112.5t-91.5 40.5t-91.5 -40.5t-29.5 -112.5t29.5 -112.5zM118 720h146
v-125h-146v125zM330 720h146v-125h-146v125z" />
    <glyph glyph-name="divide" unicode="&#xf7;" horiz-adv-x="540" 
d="M34 423h472v-125h-472v125zM197 228h146v-125h-146v125zM197 617h146v-125h-146v125z" />
    <glyph glyph-name="ugrave" unicode="&#xf9;" 
d="M217.5 142q21.5 -28 69.5 -28q43 0 75 31t32 92h1v283h146v-520h-142v72q-29 -39 -70 -61.5t-94 -22.5q-87 0 -136 55t-49 157v320h146v-303q0 -47 21.5 -75zM237 586l-143 146h162l98 -146h-117z" />
    <glyph glyph-name="uacute" unicode="&#xfa;" 
d="M217.5 142q21.5 -28 69.5 -28q43 0 75 31t32 92h1v283h146v-520h-142v72q-29 -39 -70 -61.5t-94 -22.5q-87 0 -136 55t-49 157v320h146v-303q0 -47 21.5 -75zM335 732h162l-143 -146h-117z" />
    <glyph glyph-name="ucircumflex" unicode="&#xfb;" 
d="M217.5 142q21.5 -28 69.5 -28q43 0 75 31t32 92h1v283h146v-520h-142v72q-29 -39 -70 -61.5t-94 -22.5q-87 0 -136 55t-49 157v320h146v-303q0 -47 21.5 -75zM504 586h-130l-79 76l-79 -76h-130l126 146h166z" />
    <glyph glyph-name="udieresis" unicode="&#xfc;" 
d="M217.5 142q21.5 -28 69.5 -28q43 0 75 31t32 92h1v283h146v-520h-142v72q-29 -39 -70 -61.5t-94 -22.5q-87 0 -136 55t-49 157v320h146v-303q0 -47 21.5 -75zM116 720h146v-125h-146v125zM328 720h146v-125h-146v125z" />
    <glyph glyph-name="yacute" unicode="&#xfd;" horiz-adv-x="557" 
d="M30 -83h86q27 0 41 5.5t22.5 18t17.5 39.5l4 11l-197 529h158l118 -387l115 387h157l-206 -565q-28 -77 -69.5 -116t-119.5 -39h-127v117zM318 732h162l-143 -146h-117z" />
    <glyph glyph-name="ydieresis" unicode="&#xff;" horiz-adv-x="557" 
d="M30 -83h86q27 0 41 5.5t22.5 18t17.5 39.5l4 11l-197 529h158l118 -387l115 387h157l-206 -565q-28 -77 -69.5 -116t-119.5 -39h-127v117zM99 720h146v-125h-146v125zM311 720h146v-125h-146v125z" />
    <glyph glyph-name="Abreve" unicode="&#x102;" horiz-adv-x="743" 
d="M520 142h-303l-50 -142h-161l269 720h186l276 -720h-167zM473 275l-105 300l-105 -300h210zM247.5 802q-47.5 40 -56.5 112h109q3 -30 21 -46t48 -16t47.5 15.5t20.5 46.5h109q-9 -72 -56.5 -112t-120.5 -40q-74 0 -121.5 40z" />
    <glyph glyph-name="abreve" unicode="&#x103;" horiz-adv-x="555" 
d="M378 56q-32 -37 -72 -52.5t-92 -15.5q-86 0 -138 41.5t-52 117.5q0 69 48 105.5t157 55.5l145 25v24q0 32 -19.5 49t-65.5 17q-42 0 -67.5 -18.5t-26.5 -52.5h-146q1 88 67.5 134t171.5 46q113 0 171 -42t58 -116v-374h-139v56zM193.5 107.5q20.5 -16.5 59.5 -16.5
q52 0 86.5 27t34.5 81v42l-116 -23q-46 -9 -65.5 -22.5t-19.5 -43.5q0 -28 20.5 -44.5zM162.5 620q-47.5 40 -56.5 112h109q3 -30 21 -46t48 -16t47.5 15.5t20.5 46.5h109q-9 -72 -56.5 -112t-120.5 -40q-74 0 -121.5 40z" />
    <glyph glyph-name="Aogonek" unicode="&#x104;" horiz-adv-x="743" 
d="M520 142h-303l-50 -142h-161l269 720h186l276 -720q-51 -25 -74 -47t-23 -42q0 -37 52 -37q24 0 45 7v-83q-33 -10 -76 -10q-60 0 -96.5 23.5t-36.5 72.5q0 33 27 64.5t72 51.5h-57zM473 275l-105 300l-105 -300h210z" />
    <glyph glyph-name="aogonek" unicode="&#x105;" horiz-adv-x="555" 
d="M378 56q-32 -37 -72 -52.5t-92 -15.5q-86 0 -138 41.5t-52 117.5q0 69 48 105.5t157 55.5l145 25v24q0 32 -19.5 49t-65.5 17q-42 0 -67.5 -18.5t-26.5 -52.5h-146q1 88 67.5 134t171.5 46q113 0 171 -42t58 -116v-374q-51 -25 -74 -47t-23 -42q0 -37 52 -37q24 0 45 7
v-83q-33 -10 -76 -10q-60 0 -96.5 23.5t-36.5 72.5q0 33 27 64.5t72 51.5h-29v56zM193.5 107.5q20.5 -16.5 59.5 -16.5q52 0 86.5 27t34.5 81v42l-116 -23q-46 -9 -65.5 -22.5t-19.5 -43.5q0 -28 20.5 -44.5z" />
    <glyph glyph-name="Cacute" unicode="&#x106;" horiz-adv-x="750" 
d="M195 37.5q-82 49.5 -124.5 134t-42.5 188.5t42.5 188.5t124.5 134t196 49.5q90 0 160.5 -34.5t113.5 -96t55 -139.5h-160q-15 59 -59 94.5t-110 35.5q-100 0 -149.5 -65t-49.5 -167t49.5 -167t149.5 -65q70 0 114 40.5t57 106.5h160q-10 -82 -52.5 -147.5t-114 -102.5
t-164.5 -37q-114 0 -196 49.5zM431 926h162l-143 -146h-117z" />
    <glyph glyph-name="cacute" unicode="&#x107;" horiz-adv-x="562" 
d="M151.5 23q-59.5 35 -90.5 97t-31 140t31 140t90.5 97t140.5 35q109 0 173.5 -55t76.5 -148h-146q-8 40 -35.5 62t-68.5 22q-57 0 -85.5 -41t-28.5 -112t28.5 -112t85.5 -41q43 0 70 24t34 68h146q-12 -96 -76.5 -153.5t-173.5 -57.5q-81 0 -140.5 35zM331 732h162
l-143 -146h-117z" />
    <glyph glyph-name="Ccircumflex" unicode="&#x108;" horiz-adv-x="750" 
d="M195 37.5q-82 49.5 -124.5 134t-42.5 188.5t42.5 188.5t124.5 134t196 49.5q90 0 160.5 -34.5t113.5 -96t55 -139.5h-160q-15 59 -59 94.5t-110 35.5q-100 0 -149.5 -65t-49.5 -167t49.5 -167t149.5 -65q70 0 114 40.5t57 106.5h160q-10 -82 -52.5 -147.5t-114 -102.5
t-164.5 -37q-114 0 -196 49.5zM600 780h-130l-79 76l-79 -76h-130l126 146h166z" />
    <glyph glyph-name="ccircumflex" unicode="&#x109;" horiz-adv-x="562" 
d="M151.5 23q-59.5 35 -90.5 97t-31 140t31 140t90.5 97t140.5 35q109 0 173.5 -55t76.5 -148h-146q-8 40 -35.5 62t-68.5 22q-57 0 -85.5 -41t-28.5 -112t28.5 -112t85.5 -41q43 0 70 24t34 68h146q-12 -96 -76.5 -153.5t-173.5 -57.5q-81 0 -140.5 35zM501 586h-130
l-79 76l-79 -76h-130l126 146h166z" />
    <glyph glyph-name="Cdotaccent" unicode="&#x10a;" horiz-adv-x="750" 
d="M195 37.5q-82 49.5 -124.5 134t-42.5 188.5t42.5 188.5t124.5 134t196 49.5q90 0 160.5 -34.5t113.5 -96t55 -139.5h-160q-15 59 -59 94.5t-110 35.5q-100 0 -149.5 -65t-49.5 -167t49.5 -167t149.5 -65q70 0 114 40.5t57 106.5h160q-10 -82 -52.5 -147.5t-114 -102.5
t-164.5 -37q-114 0 -196 49.5zM318 905h146v-125h-146v125z" />
    <glyph glyph-name="cdotaccent" unicode="&#x10b;" horiz-adv-x="562" 
d="M151.5 23q-59.5 35 -90.5 97t-31 140t31 140t90.5 97t140.5 35q109 0 173.5 -55t76.5 -148h-146q-8 40 -35.5 62t-68.5 22q-57 0 -85.5 -41t-28.5 -112t28.5 -112t85.5 -41q43 0 70 24t34 68h146q-12 -96 -76.5 -153.5t-173.5 -57.5q-81 0 -140.5 35zM219 720h146v-125
h-146v125z" />
    <glyph glyph-name="Ccaron" unicode="&#x10c;" horiz-adv-x="750" 
d="M195 37.5q-82 49.5 -124.5 134t-42.5 188.5t42.5 188.5t124.5 134t196 49.5q90 0 160.5 -34.5t113.5 -96t55 -139.5h-160q-15 59 -59 94.5t-110 35.5q-100 0 -149.5 -65t-49.5 -167t49.5 -167t149.5 -65q70 0 114 40.5t57 106.5h160q-10 -82 -52.5 -147.5t-114 -102.5
t-164.5 -37q-114 0 -196 49.5zM182 926h130l79 -76l79 76h130l-126 -146h-166z" />
    <glyph glyph-name="ccaron" unicode="&#x10d;" horiz-adv-x="562" 
d="M151.5 23q-59.5 35 -90.5 97t-31 140t31 140t90.5 97t140.5 35q109 0 173.5 -55t76.5 -148h-146q-8 40 -35.5 62t-68.5 22q-57 0 -85.5 -41t-28.5 -112t28.5 -112t85.5 -41q43 0 70 24t34 68h146q-12 -96 -76.5 -153.5t-173.5 -57.5q-81 0 -140.5 35zM83 732h130l79 -76
l79 76h130l-126 -146h-166z" />
    <glyph glyph-name="Dcaron" unicode="&#x10e;" horiz-adv-x="734" 
d="M58 720h281q122 0 204.5 -46.5t122.5 -127.5t40 -186t-40 -186t-122.5 -127.5t-204.5 -46.5h-281v720zM339 135q103 0 153 62t50 163t-50 163t-153 62h-123v-450h123zM139 914h130l79 -76l79 76h130l-126 -146h-166z" />
    <glyph glyph-name="dcaron" unicode="&#x10f;" horiz-adv-x="608" 
d="M416 0v66q-54 -78 -159 -78q-73 0 -124.5 35t-78 97t-26.5 140t26.5 140t78 97t124.5 35q101 0 155 -73v261h146v-720h-142zM206 147.5q29 -40.5 89 -40.5t89.5 40.5t29.5 112.5t-29.5 112.5t-89.5 40.5t-89 -40.5t-29 -112.5t29 -112.5zM622 720h147l-72 -170h-99z" />
    <glyph glyph-name="Dcroat" unicode="&#x110;" horiz-adv-x="755" 
d="M0 411h78v313h281q122 0 204.5 -46.5t122.5 -127.5t40 -186t-40 -186t-122.5 -127.5t-204.5 -46.5h-281v320h-78v87zM359 139q103 0 153 62t50 163t-50 163t-153 62h-123v-178h164v-87h-164v-185h123z" />
    <glyph glyph-name="dcroat" unicode="&#x111;" horiz-adv-x="644" 
d="M310 665h102v55h146v-55h86v-86h-86v-579h-142v66q-54 -78 -159 -78q-73 0 -124.5 35t-78 97t-26.5 140t26.5 140t78 97t124.5 35q101 0 155 -73v120h-102v86zM206 147.5q29 -40.5 89 -40.5t89.5 40.5t29.5 112.5t-29.5 112.5t-89.5 40.5t-89 -40.5t-29 -112.5t29 -112.5
z" />
    <glyph glyph-name="Ebreve" unicode="&#x114;" horiz-adv-x="628" 
d="M58 720h542v-141h-384v-145h355v-134h-355v-159h382v-141h-540v720zM208.5 802q-47.5 40 -56.5 112h109q3 -30 21 -46t48 -16t47.5 15.5t20.5 46.5h109q-9 -72 -56.5 -112t-120.5 -40q-74 0 -121.5 40z" />
    <glyph glyph-name="ebreve" unicode="&#x115;" horiz-adv-x="585" 
d="M150.5 23q-59.5 35 -91 97t-31.5 140t31.5 140t91 97t141.5 35q125 0 194.5 -77t69.5 -210v-30h-385q9 -55 40 -85.5t81 -30.5q83 0 114 61h141q-25 -79 -92 -125.5t-163 -46.5q-82 0 -141.5 35zM412 313q-11 51 -42 79.5t-78 28.5t-78 -28.5t-41 -79.5h239zM171.5 620
q-47.5 40 -56.5 112h109q3 -30 21 -46t48 -16t47.5 15.5t20.5 46.5h109q-9 -72 -56.5 -112t-120.5 -40q-74 0 -121.5 40z" />
    <glyph glyph-name="Edotaccent" unicode="&#x116;" horiz-adv-x="628" 
d="M58 720h542v-141h-384v-145h355v-134h-355v-159h382v-141h-540v720zM256 893h146v-125h-146v125z" />
    <glyph glyph-name="edotaccent" unicode="&#x117;" horiz-adv-x="585" 
d="M150.5 23q-59.5 35 -91 97t-31.5 140t31.5 140t91 97t141.5 35q125 0 194.5 -77t69.5 -210v-30h-385q9 -55 40 -85.5t81 -30.5q83 0 114 61h141q-25 -79 -92 -125.5t-163 -46.5q-82 0 -141.5 35zM412 313q-11 51 -42 79.5t-78 28.5t-78 -28.5t-41 -79.5h239zM219 720h146
v-125h-146v125z" />
    <glyph glyph-name="Eogonek" unicode="&#x118;" horiz-adv-x="628" 
d="M58 720h542v-141h-384v-145h355v-134h-355v-159h382v-141q-51 -25 -74 -47t-23 -42q0 -37 52 -37q24 0 45 7v-83q-33 -10 -76 -10q-60 0 -96.5 23.5t-36.5 72.5q0 33 27 64.5t72 51.5h-430v720z" />
    <glyph glyph-name="eogonek" unicode="&#x119;" horiz-adv-x="585" 
d="M208.5 -188.5q-36.5 23.5 -36.5 72.5q0 30 21.5 57.5t58.5 48.5q-105 13 -164.5 87t-59.5 183q0 78 31.5 140t91 97t141.5 35q125 0 194.5 -77t69.5 -210v-30h-385q9 -55 40 -85.5t81 -30.5q83 0 114 61h141q-19 -59 -61.5 -100.5t-104.5 -59.5q-51 -25 -74 -47t-23 -42
q0 -37 52 -37q24 0 45 7v-83q-33 -10 -76 -10q-60 0 -96.5 23.5zM412 313q-11 51 -42 79.5t-78 28.5t-78 -28.5t-41 -79.5h239z" />
    <glyph glyph-name="Ecaron" unicode="&#x11a;" horiz-adv-x="628" 
d="M58 720h542v-141h-384v-145h355v-134h-355v-159h382v-141h-540v720zM120 914h130l79 -76l79 76h130l-126 -146h-166z" />
    <glyph glyph-name="ecaron" unicode="&#x11b;" horiz-adv-x="585" 
d="M150.5 23q-59.5 35 -91 97t-31.5 140t31.5 140t91 97t141.5 35q125 0 194.5 -77t69.5 -210v-30h-385q9 -55 40 -85.5t81 -30.5q83 0 114 61h141q-25 -79 -92 -125.5t-163 -46.5q-82 0 -141.5 35zM412 313q-11 51 -42 79.5t-78 28.5t-78 -28.5t-41 -79.5h239zM83 732h130
l79 -76l79 76h130l-126 -146h-166z" />
    <glyph glyph-name="Gcircumflex" unicode="&#x11c;" horiz-adv-x="788" 
d="M187 37.5q-77 49.5 -118 134.5t-41 188q0 104 42.5 188.5t124.5 134t196 49.5q94 0 166 -33.5t116 -92t57 -134.5h-160q-16 55 -62.5 88.5t-116.5 33.5q-100 0 -149.5 -66t-49.5 -168t49.5 -168t149.5 -66q73 0 119.5 37.5t66.5 106.5h-216v126h379v-396h-115v124
q-75 -136 -258 -136q-103 0 -180 49.5zM600 780h-130l-79 76l-79 -76h-130l126 146h166z" />
    <glyph glyph-name="gcircumflex" unicode="&#x11d;" horiz-adv-x="608" 
d="M114 -162.5q-62 49.5 -67 136.5h144q8 -74 103 -74q51 0 84.5 25t33.5 88v65q-54 -70 -155 -70q-73 0 -124.5 33.5t-78 93t-26.5 135.5q0 75 26.5 134.5t78 93.5t124.5 34q105 0 159 -75v63h142v-507q0 -110 -75.5 -167.5t-194.5 -57.5q-112 0 -174 49.5zM206 161.5
q29 -39.5 89 -39.5t89.5 39.5t29.5 108.5t-29.5 108t-89.5 39t-89 -39t-29 -108t29 -108.5zM502 586h-130l-79 76l-79 -76h-130l126 146h166z" />
    <glyph glyph-name="Gbreve" unicode="&#x11e;" horiz-adv-x="788" 
d="M187 37.5q-77 49.5 -118 134.5t-41 188q0 104 42.5 188.5t124.5 134t196 49.5q94 0 166 -33.5t116 -92t57 -134.5h-160q-16 55 -62.5 88.5t-116.5 33.5q-100 0 -149.5 -66t-49.5 -168t49.5 -168t149.5 -66q73 0 119.5 37.5t66.5 106.5h-216v126h379v-396h-115v124
q-75 -136 -258 -136q-103 0 -180 49.5zM270.5 814q-47.5 40 -56.5 112h109q3 -30 21 -46t48 -16t47.5 15.5t20.5 46.5h109q-9 -72 -56.5 -112t-120.5 -40q-74 0 -121.5 40z" />
    <glyph glyph-name="gbreve" unicode="&#x11f;" horiz-adv-x="608" 
d="M114 -162.5q-62 49.5 -67 136.5h144q8 -74 103 -74q51 0 84.5 25t33.5 88v65q-54 -70 -155 -70q-73 0 -124.5 33.5t-78 93t-26.5 135.5q0 75 26.5 134.5t78 93.5t124.5 34q105 0 159 -75v63h142v-507q0 -110 -75.5 -167.5t-194.5 -57.5q-112 0 -174 49.5zM206 161.5
q29 -39.5 89 -39.5t89.5 39.5t29.5 108.5t-29.5 108t-89.5 39t-89 -39t-29 -108t29 -108.5zM172.5 620q-47.5 40 -56.5 112h109q3 -30 21 -46t48 -16t47.5 15.5t20.5 46.5h109q-9 -72 -56.5 -112t-120.5 -40q-74 0 -121.5 40z" />
    <glyph glyph-name="Gdotaccent" unicode="&#x120;" horiz-adv-x="788" 
d="M187 37.5q-77 49.5 -118 134.5t-41 188q0 104 42.5 188.5t124.5 134t196 49.5q94 0 166 -33.5t116 -92t57 -134.5h-160q-16 55 -62.5 88.5t-116.5 33.5q-100 0 -149.5 -66t-49.5 -168t49.5 -168t149.5 -66q73 0 119.5 37.5t66.5 106.5h-216v126h379v-396h-115v124
q-75 -136 -258 -136q-103 0 -180 49.5zM318 905h146v-125h-146v125z" />
    <glyph glyph-name="gdotaccent" unicode="&#x121;" horiz-adv-x="608" 
d="M114 -162.5q-62 49.5 -67 136.5h144q8 -74 103 -74q51 0 84.5 25t33.5 88v65q-54 -70 -155 -70q-73 0 -124.5 33.5t-78 93t-26.5 135.5q0 75 26.5 134.5t78 93.5t124.5 34q105 0 159 -75v63h142v-507q0 -110 -75.5 -167.5t-194.5 -57.5q-112 0 -174 49.5zM206 161.5
q29 -39.5 89 -39.5t89.5 39.5t29.5 108.5t-29.5 108t-89.5 39t-89 -39t-29 -108t29 -108.5zM220 720h146v-125h-146v125z" />
    <glyph glyph-name="Hcircumflex" unicode="&#x124;" horiz-adv-x="737" 
d="M521 298h-305v-298h-158v720h158v-280h305v280h157v-720h-157v298zM577 768h-130l-79 76l-79 -76h-130l126 146h166z" />
    <glyph glyph-name="hcircumflex" unicode="&#x125;" 
d="M50 720h146v-266q29 36 69 57t91 21q87 0 136 -55t49 -157v-320h-146v303q0 47 -21.5 75t-69.5 28q-43 0 -75 -31t-32 -92h-1v-283h-146v720zM332 768h-130l-79 76l-79 -76h-130l126 146h166z" />
    <glyph glyph-name="Itilde" unicode="&#x128;" horiz-adv-x="274" 
d="M58 720h158v-720h-158v720zM-21 874.5q30 34.5 82 34.5q18 0 35 -5t41 -15q6 -2 26.5 -11.5t34.5 -9.5q17 0 24.5 9t7.5 32h95q0 -72 -30.5 -106.5t-82.5 -34.5q-28 0 -75 20q-6 2 -27 11.5t-35 9.5q-16 0 -23.5 -9.5t-7.5 -31.5h-95q0 72 30 106.5z" />
    <glyph glyph-name="itilde" unicode="&#x129;" horiz-adv-x="245" 
d="M49 520h147v-520h-147v520zM-35 697.5q30 34.5 82 34.5q18 0 35 -5t41 -15q6 -2 26.5 -11.5t34.5 -9.5q17 0 24.5 9t7.5 32h95q0 -72 -30.5 -106.5t-82.5 -34.5q-28 0 -75 20q-6 2 -27 11.5t-35 9.5q-16 0 -23.5 -9.5t-7.5 -31.5h-95q0 72 30 106.5z" />
    <glyph glyph-name="Ibreve" unicode="&#x12c;" horiz-adv-x="274" 
d="M58 720h158v-720h-158v720zM16.5 802q-47.5 40 -56.5 112h109q3 -30 21 -46t48 -16t47.5 15.5t20.5 46.5h109q-9 -72 -56.5 -112t-120.5 -40q-74 0 -121.5 40z" />
    <glyph glyph-name="ibreve" unicode="&#x12d;" horiz-adv-x="245" 
d="M49 520h147v-520h-147v520zM1.5 620q-47.5 40 -56.5 112h109q3 -30 21 -46t48 -16t47.5 15.5t20.5 46.5h109q-9 -72 -56.5 -112t-120.5 -40q-74 0 -121.5 40z" />
    <glyph glyph-name="Iogonek" unicode="&#x12e;" horiz-adv-x="274" 
d="M58 720h158v-720q-51 -25 -74 -47t-23 -42q0 -37 52 -37q24 0 45 7v-83q-33 -10 -76 -10q-60 0 -96.5 23.5t-36.5 72.5q0 33 27 64.5t72 51.5h-48v720z" />
    <glyph glyph-name="iogonek" unicode="&#x12f;" horiz-adv-x="245" 
d="M49 520h147v-520h-1q-51 -25 -74 -47t-23 -42q0 -37 52 -37q24 0 45 7v-83q-33 -10 -76 -10q-60 0 -96.5 23.5t-36.5 72.5q0 33 27 64.5t72 51.5h-36v520zM49 720h146v-125h-146v125z" />
    <glyph glyph-name="Idotaccent" unicode="&#x130;" horiz-adv-x="274" 
d="M58 720h158v-720h-158v720zM64 893h146v-125h-146v125z" />
    <glyph glyph-name="dotlessi" unicode="&#x131;" horiz-adv-x="245" 
d="M49 520h147v-520h-147v520z" />
    <glyph glyph-name="Jcircumflex" unicode="&#x134;" horiz-adv-x="572" 
d="M89.5 54q-63.5 66 -63.5 179v40h152v-40q0 -55 22 -82.5t72 -27.5t72 27.5t22 82.5v487h158v-487q0 -113 -66 -179t-186 -66q-119 0 -182.5 66zM654 768h-130l-79 76l-79 -76h-130l126 146h166z" />
    <glyph glyph-name="jcircumflex" unicode="&#x135;" horiz-adv-x="252" 
d="M161.5 -170.5q-40.5 -29.5 -114.5 -29.5h-107v109h68q26 0 37 11t11 35v565h146v-580q0 -81 -40.5 -110.5zM338 586h-130l-79 76l-79 -76h-130l126 146h166z" />
    <glyph glyph-name="Lacute" unicode="&#x139;" horiz-adv-x="569" 
d="M58 720h158v-579h337v-141h-495v720zM177 914h162l-143 -146h-117z" />
    <glyph glyph-name="lacute" unicode="&#x13a;" horiz-adv-x="336" 
d="M196 720v-565q0 -24 11 -35t37 -11h68v-109h-107q-74 0 -114.5 29.5t-40.5 110.5v580h146zM163 914h162l-143 -146h-117z" />
    <glyph glyph-name="Lcaron" unicode="&#x13d;" horiz-adv-x="569" 
d="M58 720h158v-579h337v-141h-495v720zM308 720h147l-72 -170h-99z" />
    <glyph glyph-name="lcaron" unicode="&#x13e;" horiz-adv-x="336" 
d="M196 720v-565q0 -24 11 -35t37 -11h68v-109h-107q-74 0 -114.5 29.5t-40.5 110.5v580h146zM260 720h147l-72 -170h-99z" />
    <glyph glyph-name="Lslash" unicode="&#x141;" horiz-adv-x="590" 
d="M80 301l-80 -35v98l80 35v321h158v-251l176 77v-98l-176 -77v-230h337v-141h-495v301z" />
    <glyph glyph-name="lslash" unicode="&#x142;" horiz-adv-x="336" 
d="M196 720v-273l80 35v-98l-80 -35v-194q0 -24 11 -35t37 -11h68v-109h-107q-74 0 -114.5 29.5t-40.5 110.5v145l-80 -35v98l80 35v337h146z" />
    <glyph glyph-name="Nacute" unicode="&#x143;" horiz-adv-x="741" 
d="M210 501v-501h-152v720h172l301 -502v502h151v-720h-172zM410 914h162l-143 -146h-117z" />
    <glyph glyph-name="nacute" unicode="&#x144;" 
d="M373.5 378q-21.5 28 -69.5 28q-43 0 -75 -31t-32 -92h-1v-283h-146v520h142v-72q29 39 70 61.5t94 22.5q87 0 136 -55t49 -157v-320h-146v303q0 47 -21.5 75zM335 732h162l-143 -146h-117z" />
    <glyph glyph-name="Ncaron" unicode="&#x147;" horiz-adv-x="741" 
d="M210 501v-501h-152v720h172l301 -502v502h151v-720h-172zM161 914h130l79 -76l79 76h130l-126 -146h-166z" />
    <glyph glyph-name="ncaron" unicode="&#x148;" 
d="M373.5 378q-21.5 28 -69.5 28q-43 0 -75 -31t-32 -92h-1v-283h-146v520h142v-72q29 39 70 61.5t94 22.5q87 0 136 -55t49 -157v-320h-146v303q0 47 -21.5 75zM86 732h130l79 -76l79 76h130l-126 -146h-166z" />
    <glyph glyph-name="Obreve" unicode="&#x14e;" horiz-adv-x="782" 
d="M195 37.5q-82 49.5 -124.5 134t-42.5 188.5t42.5 188.5t124.5 134t196 49.5q115 0 197 -49.5t124 -134t42 -188.5t-42 -188.5t-124 -134t-197 -49.5q-114 0 -196 49.5zM241.5 193q49.5 -65 149.5 -65t149.5 65t49.5 167t-49.5 167t-149.5 65t-149.5 -65t-49.5 -167
t49.5 -167zM270.5 814q-47.5 40 -56.5 112h109q3 -30 21 -46t48 -16t47.5 15.5t20.5 46.5h109q-9 -72 -56.5 -112t-120.5 -40q-74 0 -121.5 40z" />
    <glyph glyph-name="obreve" unicode="&#x14f;" horiz-adv-x="594" 
d="M152 23q-61 35 -92.5 97t-31.5 140t31.5 140t92.5 97t145 35t145 -35t92.5 -97t31.5 -140t-31.5 -140t-92.5 -97t-145 -35t-145 35zM205.5 147.5q29.5 -40.5 91.5 -40.5t91.5 40.5t29.5 112.5t-29.5 112.5t-91.5 40.5t-91.5 -40.5t-29.5 -112.5t29.5 -112.5zM176.5 620
q-47.5 40 -56.5 112h109q3 -30 21 -46t48 -16t47.5 15.5t20.5 46.5h109q-9 -72 -56.5 -112t-120.5 -40q-74 0 -121.5 40z" />
    <glyph glyph-name="Racute" unicode="&#x154;" horiz-adv-x="685" 
d="M58 720h333q129 0 193.5 -58t64.5 -156q0 -55 -28.5 -100t-81.5 -76q44 -21 66 -55t29 -83l29 -192h-161l-24 166q-8 55 -35 81t-79 26h-148v-273h-158v720zM365 395q62 0 92 24.5t30 74.5q0 98 -122 98h-149v-197h149zM381 914h162l-143 -146h-117z" />
    <glyph glyph-name="racute" unicode="&#x155;" horiz-adv-x="412" 
d="M50 520h142v-96q45 102 153 102h42v-134h-49q-70 0 -106 -35t-36 -119v-238h-146v520zM258 732h162l-143 -146h-117z" />
    <glyph glyph-name="Rcaron" unicode="&#x158;" horiz-adv-x="685" 
d="M58 720h333q129 0 193.5 -58t64.5 -156q0 -55 -28.5 -100t-81.5 -76q44 -21 66 -55t29 -83l29 -192h-161l-24 166q-8 55 -35 81t-79 26h-148v-273h-158v720zM365 395q62 0 92 24.5t30 74.5q0 98 -122 98h-149v-197h149zM132 914h130l79 -76l79 76h130l-126 -146h-166z
" />
    <glyph glyph-name="rcaron" unicode="&#x159;" horiz-adv-x="412" 
d="M50 520h142v-96q45 102 153 102h42v-134h-49q-70 0 -106 -35t-36 -119v-238h-146v520zM10 732h130l79 -76l79 76h130l-126 -146h-166z" />
    <glyph glyph-name="Sacute" unicode="&#x15a;" horiz-adv-x="657" 
d="M108 55q-83 67 -84 186h154q1 -71 45.5 -99t117.5 -28q60 0 95.5 23t35.5 65q0 24 -12.5 40.5t-49 30t-107.5 25.5q-138 23 -200.5 76.5t-62.5 150.5q0 60 34 107t96.5 73.5t146.5 26.5q141 0 217 -64t81 -179h-152q-3 60 -38.5 88.5t-107.5 28.5q-53 0 -84.5 -20.5
t-31.5 -55.5q0 -25 12 -41.5t46.5 -30.5t99.5 -25q105 -18 165.5 -47t85.5 -71.5t25 -103.5q0 -107 -83 -165t-217 -58q-144 0 -227 67zM368 926h162l-143 -146h-117z" />
    <glyph glyph-name="sacute" unicode="&#x15b;" horiz-adv-x="520" 
d="M86 31.5q-63 43.5 -69 139.5h141q5 -46 32.5 -65t78.5 -19q39 0 64 14t25 40q0 18 -8 28.5t-33 19t-77 17.5q-119 20 -166 59t-47 106q0 76 61 118.5t165 42.5q115 0 174.5 -48t62.5 -131h-135q-2 80 -102 80q-37 0 -60 -14.5t-23 -38.5q0 -18 10 -29t36.5 -19t77.5 -16
q117 -18 163 -57.5t46 -107.5q0 -78 -65.5 -120.5t-174.5 -42.5q-114 0 -177 43.5zM299 732h162l-143 -146h-117z" />
    <glyph glyph-name="Scircumflex" unicode="&#x15c;" horiz-adv-x="657" 
d="M108 55q-83 67 -84 186h154q1 -71 45.5 -99t117.5 -28q60 0 95.5 23t35.5 65q0 24 -12.5 40.5t-49 30t-107.5 25.5q-138 23 -200.5 76.5t-62.5 150.5q0 60 34 107t96.5 73.5t146.5 26.5q141 0 217 -64t81 -179h-152q-3 60 -38.5 88.5t-107.5 28.5q-53 0 -84.5 -20.5
t-31.5 -55.5q0 -25 12 -41.5t46.5 -30.5t99.5 -25q105 -18 165.5 -47t85.5 -71.5t25 -103.5q0 -107 -83 -165t-217 -58q-144 0 -227 67zM538 780h-130l-79 76l-79 -76h-130l126 146h166z" />
    <glyph glyph-name="scircumflex" unicode="&#x15d;" horiz-adv-x="520" 
d="M86 31.5q-63 43.5 -69 139.5h141q5 -46 32.5 -65t78.5 -19q39 0 64 14t25 40q0 18 -8 28.5t-33 19t-77 17.5q-119 20 -166 59t-47 106q0 76 61 118.5t165 42.5q115 0 174.5 -48t62.5 -131h-135q-2 80 -102 80q-37 0 -60 -14.5t-23 -38.5q0 -18 10 -29t36.5 -19t77.5 -16
q117 -18 163 -57.5t46 -107.5q0 -78 -65.5 -120.5t-174.5 -42.5q-114 0 -177 43.5zM469 586h-130l-79 76l-79 -76h-130l126 146h166z" />
    <glyph glyph-name="Scedilla" unicode="&#x15e;" horiz-adv-x="657" 
d="M218 -228v57q33 -6 57 -6q67 0 67 39q0 37 -59 37q-20 0 -30 -2v40l40 53q-126 10 -197 75.5t-72 175.5h154q1 -71 45.5 -99t117.5 -28q60 0 95.5 23t35.5 65q0 24 -12.5 40.5t-49 30t-107.5 25.5q-138 23 -200.5 76.5t-62.5 150.5q0 60 34 107t96.5 73.5t146.5 26.5
q141 0 217 -64t81 -179h-152q-3 60 -38.5 88.5t-107.5 28.5q-53 0 -84.5 -20.5t-31.5 -55.5q0 -25 12 -41.5t46.5 -30.5t99.5 -25q105 -18 165.5 -47t85.5 -71.5t25 -103.5q0 -100 -74 -157.5t-195 -64.5l-43 -45h8q53 0 85 -22t32 -60q0 -42 -39.5 -70t-115.5 -28
q-42 0 -75 8z" />
    <glyph glyph-name="scedilla" unicode="&#x15f;" horiz-adv-x="520" 
d="M150 -228v57q33 -6 57 -6q67 0 67 39q0 37 -59 37q-20 0 -30 -2v40l39 52q-96 7 -149 50.5t-58 131.5h141q5 -46 32.5 -65t78.5 -19q39 0 64 14t25 40q0 18 -8 28.5t-33 19t-77 17.5q-119 20 -166 59t-47 106q0 76 61 118.5t165 42.5q115 0 174.5 -48t62.5 -131h-135
q-2 80 -102 80q-37 0 -60 -14.5t-23 -38.5q0 -18 10 -29t36.5 -19t77.5 -16q117 -18 163 -57.5t46 -107.5q0 -71 -55.5 -113t-149.5 -49l-43 -45h8q53 0 85 -22t32 -60q0 -42 -39.5 -70t-115.5 -28q-42 0 -75 8z" />
    <glyph glyph-name="Scaron" unicode="&#x160;" horiz-adv-x="657" 
d="M108 55q-83 67 -84 186h154q1 -71 45.5 -99t117.5 -28q60 0 95.5 23t35.5 65q0 24 -12.5 40.5t-49 30t-107.5 25.5q-138 23 -200.5 76.5t-62.5 150.5q0 60 34 107t96.5 73.5t146.5 26.5q141 0 217 -64t81 -179h-152q-3 60 -38.5 88.5t-107.5 28.5q-53 0 -84.5 -20.5
t-31.5 -55.5q0 -25 12 -41.5t46.5 -30.5t99.5 -25q105 -18 165.5 -47t85.5 -71.5t25 -103.5q0 -107 -83 -165t-217 -58q-144 0 -227 67zM120 926h130l79 -76l79 76h130l-126 -146h-166z" />
    <glyph glyph-name="scaron" unicode="&#x161;" horiz-adv-x="520" 
d="M86 31.5q-63 43.5 -69 139.5h141q5 -46 32.5 -65t78.5 -19q39 0 64 14t25 40q0 18 -8 28.5t-33 19t-77 17.5q-119 20 -166 59t-47 106q0 76 61 118.5t165 42.5q115 0 174.5 -48t62.5 -131h-135q-2 80 -102 80q-37 0 -60 -14.5t-23 -38.5q0 -18 10 -29t36.5 -19t77.5 -16
q117 -18 163 -57.5t46 -107.5q0 -78 -65.5 -120.5t-174.5 -42.5q-114 0 -177 43.5zM51 732h130l79 -76l79 76h130l-126 -146h-166z" />
    <glyph glyph-name="uni0162" unicode="&#x162;" horiz-adv-x="634" 
d="M238 579h-224v141h606v-141h-223v-579h-43l-42 -44h8q53 0 85 -22t32 -60q0 -42 -39.5 -70t-115.5 -28q-42 0 -75 8v57q33 -6 57 -6q67 0 67 39q0 37 -59 37q-20 0 -30 -2v40l38 51h-42v579z" />
    <glyph glyph-name="uni0163" unicode="&#x163;" horiz-adv-x="402" 
d="M250 680v-160h128v-109h-128v-256q0 -24 10.5 -35t37.5 -11h80v-109h-95l-42 -44h8q53 0 85 -22t32 -60q0 -42 -39.5 -70t-115.5 -28q-42 0 -75 8v57q33 -6 57 -6q67 0 67 39q0 37 -59 37q-20 0 -30 -2v40l41 54q-52 7 -80.5 38.5t-28.5 98.5v271h-89v109h89v160h147z
" />
    <glyph glyph-name="Tcaron" unicode="&#x164;" horiz-adv-x="634" 
d="M238 579h-224v141h606v-141h-223v-579h-159v579zM108 914h130l79 -76l79 76h130l-126 -146h-166z" />
    <glyph glyph-name="tcaron" unicode="&#x165;" horiz-adv-x="402" 
d="M250 680v-160h128v-109h-128v-256q0 -24 10.5 -35t37.5 -11h80v-109h-120q-74 0 -114.5 29.5t-40.5 110.5v271h-89v109h89v160h147zM306 720h147l-72 -170h-99z" />
    <glyph glyph-name="Utilde" unicode="&#x168;" horiz-adv-x="709" 
d="M194 21q-69 33 -107.5 97.5t-38.5 156.5v445h158v-445q0 -75 38.5 -112.5t109.5 -37.5t110 37.5t39 112.5v445h157v-445q0 -92 -38.5 -156.5t-107.5 -97.5t-160 -33t-160 33zM197 874.5q30 34.5 82 34.5q18 0 35 -5t41 -15q6 -2 26.5 -11.5t34.5 -9.5q17 0 24.5 9t7.5 32
h95q0 -72 -30.5 -106.5t-82.5 -34.5q-28 0 -75 20q-6 2 -27 11.5t-35 9.5q-16 0 -23.5 -9.5t-7.5 -31.5h-95q0 72 30 106.5z" />
    <glyph glyph-name="utilde" unicode="&#x169;" 
d="M217.5 142q21.5 -28 69.5 -28q43 0 75 31t32 92h1v283h146v-520h-142v72q-29 -39 -70 -61.5t-94 -22.5q-87 0 -136 55t-49 157v320h146v-303q0 -47 21.5 -75zM138 697.5q30 34.5 82 34.5q18 0 35 -5t41 -15q6 -2 26.5 -11.5t34.5 -9.5q17 0 24.5 9t7.5 32h95
q0 -72 -30.5 -106.5t-82.5 -34.5q-28 0 -75 20q-6 2 -27 11.5t-35 9.5q-16 0 -23.5 -9.5t-7.5 -31.5h-95q0 72 30 106.5z" />
    <glyph glyph-name="Ubreve" unicode="&#x16c;" horiz-adv-x="709" 
d="M194 21q-69 33 -107.5 97.5t-38.5 156.5v445h158v-445q0 -75 38.5 -112.5t109.5 -37.5t110 37.5t39 112.5v445h157v-445q0 -92 -38.5 -156.5t-107.5 -97.5t-160 -33t-160 33zM233.5 802q-47.5 40 -56.5 112h109q3 -30 21 -46t48 -16t47.5 15.5t20.5 46.5h109
q-9 -72 -56.5 -112t-120.5 -40q-74 0 -121.5 40z" />
    <glyph glyph-name="ubreve" unicode="&#x16d;" 
d="M217.5 142q21.5 -28 69.5 -28q43 0 75 31t32 92h1v283h146v-520h-142v72q-29 -39 -70 -61.5t-94 -22.5q-87 0 -136 55t-49 157v320h146v-303q0 -47 21.5 -75zM174.5 620q-47.5 40 -56.5 112h109q3 -30 21 -46t48 -16t47.5 15.5t20.5 46.5h109q-9 -72 -56.5 -112
t-120.5 -40q-74 0 -121.5 40z" />
    <glyph glyph-name="Uring" unicode="&#x16e;" horiz-adv-x="709" 
d="M194 21q-69 33 -107.5 97.5t-38.5 156.5v445h158v-445q0 -75 38.5 -112.5t109.5 -37.5t110 37.5t39 112.5v445h157v-445q0 -92 -38.5 -156.5t-107.5 -97.5t-160 -33t-160 33zM277.5 652.5q-34.5 18.5 -54.5 51.5t-20 73q0 41 20 73.5t54.5 51t76.5 18.5t76.5 -18.5
t54.5 -51t20 -73.5q0 -40 -20 -73t-54.5 -51.5t-76.5 -18.5t-76.5 18.5zM312.5 736q16.5 -16 41.5 -16t41.5 16t16.5 41t-16 41t-42 16q-25 0 -41.5 -16t-16.5 -41t16.5 -41z" />
    <glyph glyph-name="uring" unicode="&#x16f;" 
d="M217.5 142q21.5 -28 69.5 -28q43 0 75 31t32 92h1v283h146v-520h-142v72q-29 -39 -70 -61.5t-94 -22.5q-87 0 -136 55t-49 157v320h146v-303q0 -47 21.5 -75zM218.5 598.5q-34.5 18.5 -54.5 51.5t-20 73q0 41 20 73.5t54.5 51t76.5 18.5t76.5 -18.5t54.5 -51t20 -73.5
q0 -40 -20 -73t-54.5 -51.5t-76.5 -18.5t-76.5 18.5zM253.5 682q16.5 -16 41.5 -16t41.5 16t16.5 41t-16 41t-42 16q-25 0 -41.5 -16t-16.5 -41t16.5 -41z" />
    <glyph glyph-name="Uogonek" unicode="&#x172;" horiz-adv-x="709" 
d="M283.5 -188.5q-36.5 23.5 -36.5 72.5q0 30 20.5 57.5t56.5 47.5q-126 8 -201 82t-75 204v445h158v-445q0 -75 38.5 -112.5t109.5 -37.5t110 37.5t39 112.5v445h157v-445q0 -110 -54 -180t-150 -95q-51 -25 -74 -47t-23 -42q0 -37 52 -37q24 0 45 7v-83q-33 -10 -76 -10
q-60 0 -96.5 23.5z" />
    <glyph glyph-name="uogonek" unicode="&#x173;" 
d="M217.5 142q21.5 -28 69.5 -28q43 0 75 31t32 92h1v283h146v-520q-51 -25 -74 -47t-23 -42q0 -37 52 -37q24 0 45 7v-83q-33 -10 -76 -10q-60 0 -96.5 23.5t-36.5 72.5q0 33 27 64.5t72 51.5h-32v72q-29 -39 -70 -61.5t-94 -22.5q-87 0 -136 55t-49 157v320h146v-303
q0 -47 21.5 -75z" />
    <glyph glyph-name="Wcircumflex" unicode="&#x174;" horiz-adv-x="1007" 
d="M504 516l-118 -516h-178l-202 720h166l133 -533l118 533h161l118 -533l133 533h166l-202 -720h-177zM712 768h-130l-79 76l-79 -76h-130l126 146h166z" />
    <glyph glyph-name="wcircumflex" unicode="&#x175;" horiz-adv-x="866" 
d="M433 340l-96 -340h-154l-179 520h158l107 -351l95 351h138l95 -351l107 351h158l-179 -520h-154zM642 586h-130l-79 76l-79 -76h-130l126 146h166z" />
    <glyph glyph-name="Ycircumflex" unicode="&#x176;" horiz-adv-x="720" 
d="M284 279l-278 441h181l176 -296l176 296h175l-272 -439v-281h-158v279zM572 768h-130l-79 76l-79 -76h-130l126 146h166z" />
    <glyph glyph-name="ycircumflex" unicode="&#x177;" horiz-adv-x="557" 
d="M30 -83h86q27 0 41 5.5t22.5 18t17.5 39.5l4 11l-197 529h158l118 -387l115 387h157l-206 -565q-28 -77 -69.5 -116t-119.5 -39h-127v117zM487 586h-130l-79 76l-79 -76h-130l126 146h166z" />
    <glyph glyph-name="Ydieresis" unicode="&#x178;" horiz-adv-x="720" 
d="M284 279l-278 441h181l176 -296l176 296h175l-272 -439v-281h-158v279zM184 893h146v-125h-146v125zM396 893h146v-125h-146v125z" />
    <glyph glyph-name="Zacute" unicode="&#x179;" horiz-adv-x="648" 
d="M28 127l383 455l-180 -3h-190v141h574v-122l-387 -460l184 3h208v-141h-592v127zM368 914h162l-143 -146h-117z" />
    <glyph glyph-name="zacute" unicode="&#x17a;" horiz-adv-x="526" 
d="M38 96l262 312h-258v112h436v-96l-261 -312h271v-112h-450v96zM302 732h162l-143 -146h-117z" />
    <glyph glyph-name="Zdotaccent" unicode="&#x17b;" horiz-adv-x="648" 
d="M28 127l383 455l-180 -3h-190v141h574v-122l-387 -460l184 3h208v-141h-592v127zM255 893h146v-125h-146v125z" />
    <glyph glyph-name="zdotaccent" unicode="&#x17c;" horiz-adv-x="526" 
d="M38 96l262 312h-258v112h436v-96l-261 -312h271v-112h-450v96zM190 720h146v-125h-146v125z" />
    <glyph glyph-name="Zcaron" unicode="&#x17d;" horiz-adv-x="648" 
d="M28 127l383 455l-180 -3h-190v141h574v-122l-387 -460l184 3h208v-141h-592v127zM119 914h130l79 -76l79 76h130l-126 -146h-166z" />
    <glyph glyph-name="zcaron" unicode="&#x17e;" horiz-adv-x="526" 
d="M38 96l262 312h-258v112h436v-96l-261 -312h271v-112h-450v96zM54 732h130l79 -76l79 76h130l-126 -146h-166z" />
    <glyph glyph-name="uni01CD" unicode="&#x1cd;" horiz-adv-x="743" 
d="M520 142h-303l-50 -142h-161l269 720h186l276 -720h-167zM473 275l-105 300l-105 -300h210zM159 914h130l79 -76l79 76h130l-126 -146h-166z" />
    <glyph glyph-name="uni01CE" unicode="&#x1ce;" horiz-adv-x="555" 
d="M378 56q-32 -37 -72 -52.5t-92 -15.5q-86 0 -138 41.5t-52 117.5q0 69 48 105.5t157 55.5l145 25v24q0 32 -19.5 49t-65.5 17q-42 0 -67.5 -18.5t-26.5 -52.5h-146q1 88 67.5 134t171.5 46q113 0 171 -42t58 -116v-374h-139v56zM193.5 107.5q20.5 -16.5 59.5 -16.5
q52 0 86.5 27t34.5 81v42l-116 -23q-46 -9 -65.5 -22.5t-19.5 -43.5q0 -28 20.5 -44.5zM74 732h130l79 -76l79 76h130l-126 -146h-166z" />
    <glyph glyph-name="uni01CF" unicode="&#x1cf;" horiz-adv-x="274" 
d="M58 720h158v-720h-158v720zM-72 914h130l79 -76l79 76h130l-126 -146h-166z" />
    <glyph glyph-name="uni01D0" unicode="&#x1d0;" horiz-adv-x="245" 
d="M49 520h147v-520h-147v520zM-87 732h130l79 -76l79 76h130l-126 -146h-166z" />
    <glyph glyph-name="uni01D1" unicode="&#x1d1;" horiz-adv-x="782" 
d="M195 37.5q-82 49.5 -124.5 134t-42.5 188.5t42.5 188.5t124.5 134t196 49.5q115 0 197 -49.5t124 -134t42 -188.5t-42 -188.5t-124 -134t-197 -49.5q-114 0 -196 49.5zM241.5 193q49.5 -65 149.5 -65t149.5 65t49.5 167t-49.5 167t-149.5 65t-149.5 -65t-49.5 -167
t49.5 -167zM182 926h130l79 -76l79 76h130l-126 -146h-166z" />
    <glyph glyph-name="uni01D2" unicode="&#x1d2;" horiz-adv-x="594" 
d="M152 23q-61 35 -92.5 97t-31.5 140t31.5 140t92.5 97t145 35t145 -35t92.5 -97t31.5 -140t-31.5 -140t-92.5 -97t-145 -35t-145 35zM205.5 147.5q29.5 -40.5 91.5 -40.5t91.5 40.5t29.5 112.5t-29.5 112.5t-91.5 40.5t-91.5 -40.5t-29.5 -112.5t29.5 -112.5zM88 732h130
l79 -76l79 76h130l-126 -146h-166z" />
    <glyph glyph-name="uni01D3" unicode="&#x1d3;" horiz-adv-x="709" 
d="M194 21q-69 33 -107.5 97.5t-38.5 156.5v445h158v-445q0 -75 38.5 -112.5t109.5 -37.5t110 37.5t39 112.5v445h157v-445q0 -92 -38.5 -156.5t-107.5 -97.5t-160 -33t-160 33zM145 914h130l79 -76l79 76h130l-126 -146h-166z" />
    <glyph glyph-name="uni01D4" unicode="&#x1d4;" 
d="M217.5 142q21.5 -28 69.5 -28q43 0 75 31t32 92h1v283h146v-520h-142v72q-29 -39 -70 -61.5t-94 -22.5q-87 0 -136 55t-49 157v320h146v-303q0 -47 21.5 -75zM86 732h130l79 -76l79 76h130l-126 -146h-166z" />
    <glyph glyph-name="Gcaron" unicode="&#x1e6;" horiz-adv-x="788" 
d="M187 37.5q-77 49.5 -118 134.5t-41 188q0 104 42.5 188.5t124.5 134t196 49.5q94 0 166 -33.5t116 -92t57 -134.5h-160q-16 55 -62.5 88.5t-116.5 33.5q-100 0 -149.5 -66t-49.5 -168t49.5 -168t149.5 -66q73 0 119.5 37.5t66.5 106.5h-216v126h379v-396h-115v124
q-75 -136 -258 -136q-103 0 -180 49.5zM182 926h130l79 -76l79 76h130l-126 -146h-166z" />
    <glyph glyph-name="gcaron" unicode="&#x1e7;" horiz-adv-x="608" 
d="M114 -162.5q-62 49.5 -67 136.5h144q8 -74 103 -74q51 0 84.5 25t33.5 88v65q-54 -70 -155 -70q-73 0 -124.5 33.5t-78 93t-26.5 135.5q0 75 26.5 134.5t78 93.5t124.5 34q105 0 159 -75v63h142v-507q0 -110 -75.5 -167.5t-194.5 -57.5q-112 0 -174 49.5zM206 161.5
q29 -39.5 89 -39.5t89.5 39.5t29.5 108.5t-29.5 108t-89.5 39t-89 -39t-29 -108t29 -108.5zM84 732h130l79 -76l79 76h130l-126 -146h-166z" />
    <glyph glyph-name="uni01E8" unicode="&#x1e8;" horiz-adv-x="732" 
d="M58 720h158v-334l314 334h196l-288 -292l288 -428h-189l-207 318l-114 -116v-202h-158v720zM164 914h130l79 -76l79 76h130l-126 -146h-166z" />
    <glyph glyph-name="uni01E9" unicode="&#x1e9;" horiz-adv-x="578" 
d="M50 720h146v-403l196 203h171l-195 -198l207 -322h-170l-138 220l-71 -72v-148h-146v720zM-86 914h130l79 -76l79 76h130l-126 -146h-166z" />
    <glyph glyph-name="uni01EA" unicode="&#x1ea;" horiz-adv-x="782" 
d="M540.5 193q49.5 65 49.5 167t-49.5 167t-149.5 65t-149.5 -65t-49.5 -167t49.5 -167t149.5 -65t149.5 65zM70.5 548.5q42.5 84.5 124.5 134t196 49.5q115 0 197 -49.5t124 -134t42 -188.5q0 -87 -30 -161.5t-89 -126.5t-142 -72q-51 -25 -73.5 -47t-22.5 -42
q0 -37 52 -37q24 0 45 7v-83q-33 -10 -76 -10q-60 0 -96.5 23.5t-36.5 72.5q0 30 20.5 57.5t56.5 47.5q-105 6 -180.5 57t-114.5 133t-39 181q0 104 42.5 188.5z" />
    <glyph glyph-name="uni01EB" unicode="&#x1eb;" horiz-adv-x="594" 
d="M388.5 147.5q29.5 40.5 29.5 112.5t-29.5 112.5t-91.5 40.5t-91.5 -40.5t-29.5 -112.5t29.5 -112.5t91.5 -40.5t91.5 40.5zM59.5 400q31.5 62 92.5 97t145 35t145 -35t92.5 -97t31.5 -140q0 -96 -47.5 -166t-133.5 -94q-51 -25 -73.5 -47t-22.5 -42q0 -37 52 -37
q24 0 45 7v-83q-33 -10 -76 -10q-60 0 -96.5 23.5t-36.5 72.5q0 30 21 58t59 48q-108 12 -168.5 86.5t-60.5 183.5q0 78 31.5 140z" />
    <glyph glyph-name="uni01F4" unicode="&#x1f4;" horiz-adv-x="788" 
d="M187 37.5q-77 49.5 -118 134.5t-41 188q0 104 42.5 188.5t124.5 134t196 49.5q94 0 166 -33.5t116 -92t57 -134.5h-160q-16 55 -62.5 88.5t-116.5 33.5q-100 0 -149.5 -66t-49.5 -168t49.5 -168t149.5 -66q73 0 119.5 37.5t66.5 106.5h-216v126h379v-396h-115v124
q-75 -136 -258 -136q-103 0 -180 49.5zM431 926h162l-143 -146h-117z" />
    <glyph glyph-name="uni01F5" unicode="&#x1f5;" horiz-adv-x="608" 
d="M114 -162.5q-62 49.5 -67 136.5h144q8 -74 103 -74q51 0 84.5 25t33.5 88v65q-54 -70 -155 -70q-73 0 -124.5 33.5t-78 93t-26.5 135.5q0 75 26.5 134.5t78 93.5t124.5 34q105 0 159 -75v63h142v-507q0 -110 -75.5 -167.5t-194.5 -57.5q-112 0 -174 49.5zM206 161.5
q29 -39.5 89 -39.5t89.5 39.5t29.5 108.5t-29.5 108t-89.5 39t-89 -39t-29 -108t29 -108.5zM333 732h162l-143 -146h-117z" />
    <glyph glyph-name="uni01F8" unicode="&#x1f8;" horiz-adv-x="741" 
d="M210 501v-501h-152v720h172l301 -502v502h151v-720h-172zM312 768l-143 146h162l98 -146h-117z" />
    <glyph glyph-name="uni01F9" unicode="&#x1f9;" 
d="M373.5 378q-21.5 28 -69.5 28q-43 0 -75 -31t-32 -92h-1v-283h-146v520h142v-72q29 39 70 61.5t94 22.5q87 0 136 -55t49 -157v-320h-146v303q0 47 -21.5 75zM237 586l-143 146h162l98 -146h-117z" />
    <glyph glyph-name="uni0226" unicode="&#x226;" horiz-adv-x="743" 
d="M520 142h-303l-50 -142h-161l269 720h186l276 -720h-167zM473 275l-105 300l-105 -300h210zM295 893h146v-125h-146v125z" />
    <glyph glyph-name="uni0227" unicode="&#x227;" horiz-adv-x="555" 
d="M378 56q-32 -37 -72 -52.5t-92 -15.5q-86 0 -138 41.5t-52 117.5q0 69 48 105.5t157 55.5l145 25v24q0 32 -19.5 49t-65.5 17q-42 0 -67.5 -18.5t-26.5 -52.5h-146q1 88 67.5 134t171.5 46q113 0 171 -42t58 -116v-374h-139v56zM193.5 107.5q20.5 -16.5 59.5 -16.5
q52 0 86.5 27t34.5 81v42l-116 -23q-46 -9 -65.5 -22.5t-19.5 -43.5q0 -28 20.5 -44.5zM210 720h146v-125h-146v125z" />
    <glyph glyph-name="uni0228" unicode="&#x228;" horiz-adv-x="628" 
d="M58 720h542v-141h-384v-145h355v-134h-355v-159h382v-141h-232l-42 -44h8q53 0 85 -22t32 -60q0 -42 -39.5 -70t-115.5 -28q-42 0 -75 8v57q33 -6 57 -6q67 0 67 39q0 37 -59 37q-20 0 -30 -2v40l38 51h-234v720z" />
    <glyph glyph-name="uni0229" unicode="&#x229;" horiz-adv-x="585" 
d="M182 -228v57q33 -6 57 -6q67 0 67 39q0 37 -59 37q-20 0 -30 -2v40l40 53q-72 7 -123.5 43.5t-78.5 95.5t-27 131q0 78 31.5 140t91 97t141.5 35q125 0 194.5 -77t69.5 -210v-30h-385q9 -55 40 -85.5t81 -30.5q83 0 114 61h141q-23 -70 -79 -115t-137 -55l-44 -46h8
q53 0 85 -22t32 -60q0 -42 -39.5 -70t-115.5 -28q-42 0 -75 8zM412 313q-11 51 -42 79.5t-78 28.5t-78 -28.5t-41 -79.5h239z" />
    <glyph glyph-name="uni022E" unicode="&#x22e;" horiz-adv-x="782" 
d="M195 37.5q-82 49.5 -124.5 134t-42.5 188.5t42.5 188.5t124.5 134t196 49.5q115 0 197 -49.5t124 -134t42 -188.5t-42 -188.5t-124 -134t-197 -49.5q-114 0 -196 49.5zM241.5 193q49.5 -65 149.5 -65t149.5 65t49.5 167t-49.5 167t-149.5 65t-149.5 -65t-49.5 -167
t49.5 -167zM318 905h146v-125h-146v125z" />
    <glyph glyph-name="uni022F" unicode="&#x22f;" horiz-adv-x="594" 
d="M152 23q-61 35 -92.5 97t-31.5 140t31.5 140t92.5 97t145 35t145 -35t92.5 -97t31.5 -140t-31.5 -140t-92.5 -97t-145 -35t-145 35zM205.5 147.5q29.5 -40.5 91.5 -40.5t91.5 40.5t29.5 112.5t-29.5 112.5t-91.5 40.5t-91.5 -40.5t-29.5 -112.5t29.5 -112.5zM224 720h146
v-125h-146v125z" />
    <glyph glyph-name="uni0237" unicode="&#x237;" horiz-adv-x="252" 
d="M161.5 -170.5q-40.5 -29.5 -114.5 -29.5h-107v109h68q26 0 37 11t11 35v565h146v-580q0 -81 -40.5 -110.5z" />
    <glyph glyph-name="circumflex" unicode="&#x2c6;" horiz-adv-x="418" 
d="M418 586h-130l-79 76l-79 -76h-130l126 146h166z" />
    <glyph glyph-name="caron" unicode="&#x2c7;" horiz-adv-x="418" 
d="M0 732h130l79 -76l79 76h130l-126 -146h-166z" />
    <glyph glyph-name="breve" unicode="&#x2d8;" horiz-adv-x="355" 
d="M56.5 620q-47.5 40 -56.5 112h109q3 -30 21 -46t48 -16t47.5 15.5t20.5 46.5h109q-9 -72 -56.5 -112t-120.5 -40q-74 0 -121.5 40z" />
    <glyph glyph-name="dotaccent" unicode="&#x2d9;" horiz-adv-x="146" 
d="M0 720h146v-125h-146v125z" />
    <glyph glyph-name="ring" unicode="&#x2da;" horiz-adv-x="302" 
d="M74.5 598.5q-34.5 18.5 -54.5 51.5t-20 73q0 41 20 73.5t54.5 51t76.5 18.5t76.5 -18.5t54.5 -51t20 -73.5q0 -40 -20 -73t-54.5 -51.5t-76.5 -18.5t-76.5 18.5zM109.5 682q16.5 -16 41.5 -16t41.5 16t16.5 41t-16 41t-42 16q-25 0 -41.5 -16t-16.5 -41t16.5 -41z" />
    <glyph glyph-name="ogonek" unicode="&#x2db;" horiz-adv-x="208" 
d="M36.5 -188.5q-36.5 23.5 -36.5 72.5q0 37 31 69.5t83 52.5h86l9 -6q-51 -25 -74 -47t-23 -42q0 -37 52 -37q24 0 45 7v-83q-33 -10 -76 -10q-60 0 -96.5 23.5z" />
    <glyph glyph-name="tilde" unicode="&#x2dc;" horiz-adv-x="376" 
d="M30 697.5q30 34.5 82 34.5q18 0 35 -5t41 -15q6 -2 26.5 -11.5t34.5 -9.5q17 0 24.5 9t7.5 32h95q0 -72 -30.5 -106.5t-82.5 -34.5q-28 0 -75 20q-6 2 -27 11.5t-35 9.5q-16 0 -23.5 -9.5t-7.5 -31.5h-95q0 72 30 106.5z" />
    <glyph glyph-name="gravecomb" unicode="&#x300;" horiz-adv-x="0" 
d="M143 586l-143 146h162l98 -146h-117z" />
    <glyph glyph-name="acutecomb" unicode="&#x301;" horiz-adv-x="0" 
d="M98 732h162l-143 -146h-117z" />
    <glyph glyph-name="uni0302" unicode="&#x302;" horiz-adv-x="0" 
d="M418 586h-130l-79 76l-79 -76h-130l126 146h166z" />
    <glyph glyph-name="tildecomb" unicode="&#x303;" horiz-adv-x="0" 
d="M30 697.5q30 34.5 82 34.5q18 0 35 -5t41 -15q6 -2 26.5 -11.5t34.5 -9.5q17 0 24.5 9t7.5 32h95q0 -72 -30.5 -106.5t-82.5 -34.5q-28 0 -75 20q-6 2 -27 11.5t-35 9.5q-16 0 -23.5 -9.5t-7.5 -31.5h-95q0 72 30 106.5z" />
    <glyph glyph-name="uni0306" unicode="&#x306;" horiz-adv-x="0" 
d="M56.5 620q-47.5 40 -56.5 112h109q3 -30 21 -46t48 -16t47.5 15.5t20.5 46.5h109q-9 -72 -56.5 -112t-120.5 -40q-74 0 -121.5 40z" />
    <glyph glyph-name="uni0307" unicode="&#x307;" horiz-adv-x="0" 
d="M0 720h146v-125h-146v125z" />
    <glyph glyph-name="uni0308" unicode="&#x308;" horiz-adv-x="0" 
d="M0 720h146v-125h-146v125zM212 720h146v-125h-146v125z" />
    <glyph glyph-name="uni030A" unicode="&#x30a;" horiz-adv-x="0" 
d="M74.5 598.5q-34.5 18.5 -54.5 51.5t-20 73q0 41 20 73.5t54.5 51t76.5 18.5t76.5 -18.5t54.5 -51t20 -73.5q0 -40 -20 -73t-54.5 -51.5t-76.5 -18.5t-76.5 18.5zM109.5 682q16.5 -16 41.5 -16t41.5 16t16.5 41t-16 41t-42 16q-25 0 -41.5 -16t-16.5 -41t16.5 -41z" />
    <glyph glyph-name="uni030C" unicode="&#x30c;" horiz-adv-x="0" 
d="M0 732h130l79 -76l79 76h130l-126 -146h-166z" />
    <glyph glyph-name="dotbelowcomb" unicode="&#x323;" horiz-adv-x="0" 
d="M0 -75h146v-125h-146v125z" />
    <glyph glyph-name="uni0327" unicode="&#x327;" horiz-adv-x="0" 
d="M0 -216v57q33 -6 57 -6q67 0 67 39q0 37 -59 37q-20 0 -30 -2v40l43 57h75l-48 -50h8q53 0 85 -22t32 -60q0 -42 -39.5 -70t-115.5 -28q-42 0 -75 8z" />
    <glyph glyph-name="uni0328" unicode="&#x328;" horiz-adv-x="0" 
d="M36.5 -188.5q-36.5 23.5 -36.5 72.5q0 37 31 69.5t83 52.5h86l9 -6q-51 -25 -74 -47t-23 -42q0 -37 52 -37q24 0 45 7v-83q-33 -10 -76 -10q-60 0 -96.5 23.5z" />
    <glyph glyph-name="uni1E02" unicode="&#x1e02;" horiz-adv-x="679" 
d="M58 720h299q131 0 200.5 -50t69.5 -139q0 -102 -90 -150q59 -25 89.5 -69t30.5 -101q0 -103 -68.5 -157t-201.5 -54h-329v720zM385 129q110 0 110 88q0 87 -110 87h-169v-175h169zM361 427q109 0 109 82t-109 82h-145v-164h145zM258 893h146v-125h-146v125z" />
    <glyph glyph-name="uni1E03" unicode="&#x1e03;" horiz-adv-x="608" 
d="M50 720h146v-261q54 73 155 73q73 0 124.5 -35t78 -97t26.5 -140t-26.5 -140t-78 -97t-124.5 -35q-105 0 -159 78v-66h-142v720zM223.5 147.5q29.5 -40.5 89.5 -40.5t89 40.5t29 112.5t-29 112.5t-89 40.5t-89.5 -40.5t-29.5 -112.5t29.5 -112.5zM50 893h146v-125h-146
v125z" />
    <glyph glyph-name="uni1E0A" unicode="&#x1e0a;" horiz-adv-x="734" 
d="M58 720h281q122 0 204.5 -46.5t122.5 -127.5t40 -186t-40 -186t-122.5 -127.5t-204.5 -46.5h-281v720zM339 135q103 0 153 62t50 163t-50 163t-153 62h-123v-450h123zM275 893h146v-125h-146v125z" />
    <glyph glyph-name="uni1E0B" unicode="&#x1e0b;" horiz-adv-x="608" 
d="M416 0v66q-54 -78 -159 -78q-73 0 -124.5 35t-78 97t-26.5 140t26.5 140t78 97t124.5 35q101 0 155 -73v261h146v-720h-142zM206 147.5q29 -40.5 89 -40.5t89.5 40.5t29.5 112.5t-29.5 112.5t-89.5 40.5t-89 -40.5t-29 -112.5t29 -112.5zM412 893h146v-125h-146v125z" />
    <glyph glyph-name="uni1E1E" unicode="&#x1e1e;" horiz-adv-x="596" 
d="M58 720h522v-141h-364v-145h345v-134h-345v-300h-158v720zM246 893h146v-125h-146v125z" />
    <glyph glyph-name="uni1E1F" unicode="&#x1e1f;" horiz-adv-x="402" 
d="M143.5 690.5q40.5 29.5 114.5 29.5h120v-109h-80q-27 0 -37.5 -11t-10.5 -35v-45h128v-109h-128v-411h-147v411h-89v109h89v60q0 81 40.5 110.5zM167 920h146v-125h-146v125z" />
    <glyph glyph-name="uni1E22" unicode="&#x1e22;" horiz-adv-x="737" 
d="M521 298h-305v-298h-158v720h158v-280h305v280h157v-720h-157v298zM295 893h146v-125h-146v125z" />
    <glyph glyph-name="uni1E23" unicode="&#x1e23;" 
d="M50 720h146v-266q29 36 69 57t91 21q87 0 136 -55t49 -157v-320h-146v303q0 47 -21.5 75t-69.5 28q-43 0 -75 -31t-32 -92h-1v-283h-146v720zM50 893h146v-125h-146v125z" />
    <glyph glyph-name="uni1E28" unicode="&#x1e28;" horiz-adv-x="737" 
d="M521 298h-305v-298h-42l-42 -44h8q53 0 85 -22t32 -60q0 -42 -39.5 -70t-115.5 -28q-42 0 -75 8v57q33 -6 57 -6q67 0 67 39q0 37 -59 37q-20 0 -30 -2v40l38 51h-42v720h158v-280h305v280h157v-720h-157v298z" />
    <glyph glyph-name="uni1E29" unicode="&#x1e29;" 
d="M50 720h146v-266q29 36 69 57t91 21q87 0 136 -55t49 -157v-320h-146v303q0 47 -21.5 75t-69.5 28q-43 0 -75 -31t-32 -92h-1v-283h-36l-42 -44h8q53 0 85 -22t32 -60q0 -42 -39.5 -70t-115.5 -28q-42 0 -75 8v57q33 -6 57 -6q67 0 67 39q0 37 -59 37q-20 0 -30 -2v40
l38 51h-36v720z" />
    <glyph glyph-name="uni1E30" unicode="&#x1e30;" horiz-adv-x="732" 
d="M58 720h158v-334l314 334h196l-288 -292l288 -428h-189l-207 318l-114 -116v-202h-158v720zM413 914h162l-143 -146h-117z" />
    <glyph glyph-name="uni1E31" unicode="&#x1e31;" horiz-adv-x="578" 
d="M50 720h146v-403l196 203h171l-195 -198l207 -322h-170l-138 220l-71 -72v-148h-146v720zM162 914h162l-143 -146h-117z" />
    <glyph glyph-name="uni1E3E" unicode="&#x1e3e;" horiz-adv-x="903" 
d="M209 535v-535h-151v720h233l161 -518l160 518h232v-720h-150v535l-176 -535h-133zM491 914h162l-143 -146h-117z" />
    <glyph glyph-name="uni1E3F" unicode="&#x1e3f;" horiz-adv-x="898" 
d="M681 377.5q-20 28.5 -61 28.5t-69.5 -30.5t-28.5 -92.5v-283h-146v303q0 46 -20 74.5t-61 28.5q-42 0 -70.5 -30.5t-28.5 -92.5v-283h-146v520h142v-75q26 40 64.5 63.5t90.5 23.5t91.5 -24.5t61.5 -71.5q30 44 73.5 70t98.5 26q80 0 128 -55.5t48 -156.5v-320h-147v303
q0 46 -20 74.5zM488 732h162l-143 -146h-117z" />
    <glyph glyph-name="uni1E40" unicode="&#x1e40;" horiz-adv-x="903" 
d="M209 535v-535h-151v720h233l161 -518l160 518h232v-720h-150v535l-176 -535h-133zM378 893h146v-125h-146v125z" />
    <glyph glyph-name="uni1E41" unicode="&#x1e41;" horiz-adv-x="898" 
d="M681 377.5q-20 28.5 -61 28.5t-69.5 -30.5t-28.5 -92.5v-283h-146v303q0 46 -20 74.5t-61 28.5q-42 0 -70.5 -30.5t-28.5 -92.5v-283h-146v520h142v-75q26 40 64.5 63.5t90.5 23.5t91.5 -24.5t61.5 -71.5q30 44 73.5 70t98.5 26q80 0 128 -55.5t48 -156.5v-320h-147v303
q0 46 -20 74.5zM376 720h146v-125h-146v125z" />
    <glyph glyph-name="uni1E44" unicode="&#x1e44;" horiz-adv-x="741" 
d="M210 501v-501h-152v720h172l301 -502v502h151v-720h-172zM297 893h146v-125h-146v125z" />
    <glyph glyph-name="uni1E45" unicode="&#x1e45;" 
d="M373.5 378q-21.5 28 -69.5 28q-43 0 -75 -31t-32 -92h-1v-283h-146v520h142v-72q29 39 70 61.5t94 22.5q87 0 136 -55t49 -157v-320h-146v303q0 47 -21.5 75zM222 720h146v-125h-146v125z" />
    <glyph glyph-name="uni1E56" unicode="&#x1e56;" horiz-adv-x="667" 
d="M58 720h311q87 0 148 -30.5t91.5 -84.5t30.5 -123q0 -70 -30.5 -124t-91.5 -84.5t-148 -30.5h-153v-243h-158v720zM360 378q121 0 121 104q0 103 -121 103h-144v-207h144zM264 893h146v-125h-146v125z" />
    <glyph glyph-name="uni1E57" unicode="&#x1e57;" horiz-adv-x="608" 
d="M192 520v-66q54 78 159 78q73 0 124.5 -35t78 -97t26.5 -140t-26.5 -140t-78 -97t-124.5 -35q-101 0 -155 73v-261h-146v720h142zM223.5 147.5q29.5 -40.5 89.5 -40.5t89 40.5t29 112.5t-29 112.5t-89 40.5t-89.5 -40.5t-29.5 -112.5t29.5 -112.5zM242 720h146v-125h-146
v125z" />
    <glyph glyph-name="uni1E58" unicode="&#x1e58;" horiz-adv-x="685" 
d="M58 720h333q129 0 193.5 -58t64.5 -156q0 -55 -28.5 -100t-81.5 -76q44 -21 66 -55t29 -83l29 -192h-161l-24 166q-8 55 -35 81t-79 26h-148v-273h-158v720zM365 395q62 0 92 24.5t30 74.5q0 98 -122 98h-149v-197h149zM268 893h146v-125h-146v125z" />
    <glyph glyph-name="uni1E59" unicode="&#x1e59;" horiz-adv-x="412" 
d="M50 520h142v-96q45 102 153 102h42v-134h-49q-70 0 -106 -35t-36 -119v-238h-146v520zM146 720h146v-125h-146v125z" />
    <glyph glyph-name="uni1E60" unicode="&#x1e60;" horiz-adv-x="657" 
d="M108 55q-83 67 -84 186h154q1 -71 45.5 -99t117.5 -28q60 0 95.5 23t35.5 65q0 24 -12.5 40.5t-49 30t-107.5 25.5q-138 23 -200.5 76.5t-62.5 150.5q0 60 34 107t96.5 73.5t146.5 26.5q141 0 217 -64t81 -179h-152q-3 60 -38.5 88.5t-107.5 28.5q-53 0 -84.5 -20.5
t-31.5 -55.5q0 -25 12 -41.5t46.5 -30.5t99.5 -25q105 -18 165.5 -47t85.5 -71.5t25 -103.5q0 -107 -83 -165t-217 -58q-144 0 -227 67zM256 905h146v-125h-146v125z" />
    <glyph glyph-name="uni1E61" unicode="&#x1e61;" horiz-adv-x="520" 
d="M86 31.5q-63 43.5 -69 139.5h141q5 -46 32.5 -65t78.5 -19q39 0 64 14t25 40q0 18 -8 28.5t-33 19t-77 17.5q-119 20 -166 59t-47 106q0 76 61 118.5t165 42.5q115 0 174.5 -48t62.5 -131h-135q-2 80 -102 80q-37 0 -60 -14.5t-23 -38.5q0 -18 10 -29t36.5 -19t77.5 -16
q117 -18 163 -57.5t46 -107.5q0 -78 -65.5 -120.5t-174.5 -42.5q-114 0 -177 43.5zM187 720h146v-125h-146v125z" />
    <glyph glyph-name="uni1E6A" unicode="&#x1e6a;" horiz-adv-x="634" 
d="M238 579h-224v141h606v-141h-223v-579h-159v579zM244 893h146v-125h-146v125z" />
    <glyph glyph-name="uni1E6B" unicode="&#x1e6b;" horiz-adv-x="402" 
d="M250 680v-160h128v-109h-128v-256q0 -24 10.5 -35t37.5 -11h80v-109h-120q-74 0 -114.5 29.5t-40.5 110.5v271h-89v109h89v160h147zM103 880h146v-125h-146v125z" />
    <glyph glyph-name="uni1E7C" unicode="&#x1e7c;" horiz-adv-x="726" 
d="M6 720h168l191 -579l187 579h168l-265 -720h-185zM205 874.5q30 34.5 82 34.5q18 0 35 -5t41 -15q6 -2 26.5 -11.5t34.5 -9.5q17 0 24.5 9t7.5 32h95q0 -72 -30.5 -106.5t-82.5 -34.5q-28 0 -75 20q-6 2 -27 11.5t-35 9.5q-16 0 -23.5 -9.5t-7.5 -31.5h-95q0 72 30 106.5
z" />
    <glyph glyph-name="uni1E7D" unicode="&#x1e7d;" horiz-adv-x="565" 
d="M4 520h158l123 -392l118 392h157l-193 -520h-170zM125 697.5q30 34.5 82 34.5q18 0 35 -5t41 -15q6 -2 26.5 -11.5t34.5 -9.5q17 0 24.5 9t7.5 32h95q0 -72 -30.5 -106.5t-82.5 -34.5q-28 0 -75 20q-6 2 -27 11.5t-35 9.5q-16 0 -23.5 -9.5t-7.5 -31.5h-95q0 72 30 106.5
z" />
    <glyph glyph-name="Wgrave" unicode="&#x1e80;" horiz-adv-x="1007" 
d="M504 516l-118 -516h-178l-202 720h166l133 -533l118 533h161l118 -533l133 533h166l-202 -720h-177zM445 768l-143 146h162l98 -146h-117z" />
    <glyph glyph-name="wgrave" unicode="&#x1e81;" horiz-adv-x="866" 
d="M433 340l-96 -340h-154l-179 520h158l107 -351l95 351h138l95 -351l107 351h158l-179 -520h-154zM375 586l-143 146h162l98 -146h-117z" />
    <glyph glyph-name="Wacute" unicode="&#x1e82;" horiz-adv-x="1007" 
d="M504 516l-118 -516h-178l-202 720h166l133 -533l118 533h161l118 -533l133 533h166l-202 -720h-177zM543 914h162l-143 -146h-117z" />
    <glyph glyph-name="wacute" unicode="&#x1e83;" horiz-adv-x="866" 
d="M433 340l-96 -340h-154l-179 520h158l107 -351l95 351h138l95 -351l107 351h158l-179 -520h-154zM473 732h162l-143 -146h-117z" />
    <glyph glyph-name="Wdieresis" unicode="&#x1e84;" horiz-adv-x="1007" 
d="M504 516l-118 -516h-178l-202 720h166l133 -533l118 533h161l118 -533l133 533h166l-202 -720h-177zM324 893h146v-125h-146v125zM536 893h146v-125h-146v125z" />
    <glyph glyph-name="wdieresis" unicode="&#x1e85;" horiz-adv-x="866" 
d="M433 340l-96 -340h-154l-179 520h158l107 -351l95 351h138l95 -351l107 351h158l-179 -520h-154zM254 720h146v-125h-146v125zM466 720h146v-125h-146v125z" />
    <glyph glyph-name="uni1E86" unicode="&#x1e86;" horiz-adv-x="1007" 
d="M504 516l-118 -516h-178l-202 720h166l133 -533l118 533h161l118 -533l133 533h166l-202 -720h-177zM430 893h146v-125h-146v125z" />
    <glyph glyph-name="uni1E87" unicode="&#x1e87;" horiz-adv-x="866" 
d="M433 340l-96 -340h-154l-179 520h158l107 -351l95 351h138l95 -351l107 351h158l-179 -520h-154zM360 720h146v-125h-146v125z" />
    <glyph glyph-name="uni1E8A" unicode="&#x1e8a;" horiz-adv-x="686" 
d="M341 235l-157 -235h-178l246 367l-236 353h182l145 -217l145 217h177l-233 -349l248 -371h-182zM270 893h146v-125h-146v125z" />
    <glyph glyph-name="uni1E8B" unicode="&#x1e8b;" horiz-adv-x="547" 
d="M272 151l-106 -151h-164l188 267l-178 253h167l95 -134l94 134h164l-176 -251l189 -269h-167zM200 720h146v-125h-146v125z" />
    <glyph glyph-name="uni1E8E" unicode="&#x1e8e;" horiz-adv-x="720" 
d="M284 279l-278 441h181l176 -296l176 296h175l-272 -439v-281h-158v279zM290 893h146v-125h-146v125z" />
    <glyph glyph-name="uni1E8F" unicode="&#x1e8f;" horiz-adv-x="557" 
d="M30 -83h86q27 0 41 5.5t22.5 18t17.5 39.5l4 11l-197 529h158l118 -387l115 387h157l-206 -565q-28 -77 -69.5 -116t-119.5 -39h-127v117zM205 720h146v-125h-146v125z" />
    <glyph glyph-name="uni1EBC" unicode="&#x1ebc;" horiz-adv-x="628" 
d="M58 720h542v-141h-384v-145h355v-134h-355v-159h382v-141h-540v720zM171 874.5q30 34.5 82 34.5q18 0 35 -5t41 -15q6 -2 26.5 -11.5t34.5 -9.5q17 0 24.5 9t7.5 32h95q0 -72 -30.5 -106.5t-82.5 -34.5q-28 0 -75 20q-6 2 -27 11.5t-35 9.5q-16 0 -23.5 -9.5t-7.5 -31.5
h-95q0 72 30 106.5z" />
    <glyph glyph-name="uni1EBD" unicode="&#x1ebd;" horiz-adv-x="585" 
d="M150.5 23q-59.5 35 -91 97t-31.5 140t31.5 140t91 97t141.5 35q125 0 194.5 -77t69.5 -210v-30h-385q9 -55 40 -85.5t81 -30.5q83 0 114 61h141q-25 -79 -92 -125.5t-163 -46.5q-82 0 -141.5 35zM412 313q-11 51 -42 79.5t-78 28.5t-78 -28.5t-41 -79.5h239zM135 697.5
q30 34.5 82 34.5q18 0 35 -5t41 -15q6 -2 26.5 -11.5t34.5 -9.5q17 0 24.5 9t7.5 32h95q0 -72 -30.5 -106.5t-82.5 -34.5q-28 0 -75 20q-6 2 -27 11.5t-35 9.5q-16 0 -23.5 -9.5t-7.5 -31.5h-95q0 72 30 106.5z" />
    <glyph glyph-name="Ygrave" unicode="&#x1ef2;" horiz-adv-x="720" 
d="M284 279l-278 441h181l176 -296l176 296h175l-272 -439v-281h-158v279zM305 768l-143 146h162l98 -146h-117z" />
    <glyph glyph-name="ygrave" unicode="&#x1ef3;" horiz-adv-x="557" 
d="M30 -83h86q27 0 41 5.5t22.5 18t17.5 39.5l4 11l-197 529h158l118 -387l115 387h157l-206 -565q-28 -77 -69.5 -116t-119.5 -39h-127v117zM220 586l-143 146h162l98 -146h-117z" />
    <glyph glyph-name="uni1EF8" unicode="&#x1ef8;" horiz-adv-x="720" 
d="M284 279l-278 441h181l176 -296l176 296h175l-272 -439v-281h-158v279zM205 874.5q30 34.5 82 34.5q18 0 35 -5t41 -15q6 -2 26.5 -11.5t34.5 -9.5q17 0 24.5 9t7.5 32h95q0 -72 -30.5 -106.5t-82.5 -34.5q-28 0 -75 20q-6 2 -27 11.5t-35 9.5q-16 0 -23.5 -9.5
t-7.5 -31.5h-95q0 72 30 106.5z" />
    <glyph glyph-name="uni1EF9" unicode="&#x1ef9;" horiz-adv-x="557" 
d="M30 -83h86q27 0 41 5.5t22.5 18t17.5 39.5l4 11l-197 529h158l118 -387l115 387h157l-206 -565q-28 -77 -69.5 -116t-119.5 -39h-127v117zM121 697.5q30 34.5 82 34.5q18 0 35 -5t41 -15q6 -2 26.5 -11.5t34.5 -9.5q17 0 24.5 9t7.5 32h95q0 -72 -30.5 -106.5
t-82.5 -34.5q-28 0 -75 20q-6 2 -27 11.5t-35 9.5q-16 0 -23.5 -9.5t-7.5 -31.5h-95q0 72 30 106.5z" />
    <glyph glyph-name="endash" unicode="&#x2013;" horiz-adv-x="540" 
d="M34 352h472v-125h-472v125z" />
    <glyph glyph-name="emdash" unicode="&#x2014;" horiz-adv-x="988" 
d="M34 353h920v-126h-920v126z" />
    <glyph glyph-name="quoteleft" unicode="&#x2018;" horiz-adv-x="276" 
d="M38 396l111 324h109l-63 -324h-157z" />
    <glyph glyph-name="quoteright" unicode="&#x2019;" horiz-adv-x="276" 
d="M238 720l-111 -324h-109l63 324h157z" />
    <glyph glyph-name="quotesinglbase" unicode="&#x201a;" horiz-adv-x="276" 
d="M238 171l-111 -324h-109l63 324h157z" />
    <glyph glyph-name="quotedblleft" unicode="&#x201c;" horiz-adv-x="471" 
d="M233 396l111 324h109l-63 -324h-157zM149 720h109l-63 -324h-157z" />
    <glyph glyph-name="quotedblright" unicode="&#x201d;" horiz-adv-x="471" 
d="M238 720l-111 -324h-109l63 324h157zM433 720l-111 -324h-109l63 324h157z" />
    <glyph glyph-name="quotedblbase" unicode="&#x201e;" horiz-adv-x="471" 
d="M238 171l-111 -324h-109l63 324h157zM433 171l-111 -324h-109l63 324h157z" />
    <glyph glyph-name="dagger" unicode="&#x2020;" horiz-adv-x="612" 
d="M227 385h-211v135h211v200h158v-200h211v-135h-211v-585h-158v585z" />
    <glyph glyph-name="daggerdbl" unicode="&#x2021;" horiz-adv-x="612" 
d="M227 0h-211v135h211v250h-211v135h211v200h158v-200h211v-135h-211v-250h211v-135h-211v-200h-158v200z" />
    <glyph glyph-name="ellipsis" unicode="&#x2026;" horiz-adv-x="771" 
d="M38 171h165v-171h-165v171zM303 171h165v-171h-165v171zM568 171h165v-171h-165v171z" />
    <glyph glyph-name="perthousand" unicode="&#x2030;" horiz-adv-x="1307" 
d="M67 359.5q-45 59.5 -45 156.5t45 156.5t133 59.5q89 0 134 -59.5t45 -156.5t-45 -156.5t-134 -59.5q-88 0 -133 59.5zM148 421q16 -32 52 -32t52.5 32t16.5 95q0 62 -16.5 94.5t-52.5 32.5t-52 -32.5t-16 -94.5q0 -63 16 -95zM596 720h100l-382 -720h-100zM577 360.5
q45 59.5 133 59.5q89 0 134 -59.5t45 -156.5t-45 -156.5t-134 -59.5q-88 0 -133 59.5t-45 156.5t45 156.5zM658 109q16 -32 52 -32t52.5 32t16.5 95q0 62 -16.5 94.5t-52.5 32.5t-52 -32.5t-16 -94.5q0 -63 16 -95zM974 360.5q45 59.5 133 59.5q89 0 134 -59.5t45 -156.5
t-45 -156.5t-134 -59.5q-88 0 -133 59.5t-45 156.5t45 156.5zM1055 109q16 -32 52 -32t52.5 32t16.5 95q0 62 -16.5 94.5t-52.5 32.5t-52 -32.5t-16 -94.5q0 -63 16 -95z" />
    <glyph glyph-name="Euro" unicode="&#x20ac;" horiz-adv-x="745" 
d="M196 60.5q-81 72.5 -106 194.5h-90v78h81q-1 9 -1 27q0 27 1 40h-81v78h93q28 116 108 185t208 69q132 0 210.5 -72.5t97.5 -188.5h-157q-34 121 -151 121q-115 0 -150 -114h169v-78h-183q-1 -13 -1 -40q0 -18 1 -27h183v-78h-173q34 -127 154 -127q124 0 153 136h157
q-10 -79 -47.5 -141t-104 -98.5t-158.5 -36.5q-132 0 -213 72.5z" />
    <glyph glyph-name="uni20BF" unicode="&#x20bf;" horiz-adv-x="679" 
d="M202 0h-144v720h144v114h77v-114h78h4v114h76v-120q93 -14 141.5 -61.5t48.5 -121.5q0 -102 -90 -150q59 -25 89.5 -69t30.5 -101q0 -93 -56 -146t-164 -63v-116h-76v114h-82v-114h-77v114zM385 129q110 0 110 88q0 87 -110 87h-169v-175h169zM361 427q109 0 109 82
t-109 82h-145v-164h145z" />
    <glyph glyph-name="uni2117" unicode="&#x2117;" horiz-adv-x="827" 
d="M217.5 35.5q-87.5 47.5 -137.5 132.5t-50 192t50 192t137.5 132.5t195.5 47.5t195.5 -47.5t137.5 -132.5t50 -192t-50 -192t-137.5 -132.5t-195.5 -47.5t-195.5 47.5zM174 217q35 -61 97 -94t142 -33t142 33t97 94t35 143t-35 143t-97 94t-142 33t-142 -33t-97 -94
t-35 -143t35 -143zM278 549h168q70 0 108 -35t38 -93t-38 -93t-108 -35h-72v-122h-96v378zM439 374q58 0 58 47t-58 47h-65v-94h65z" />
    <glyph glyph-name="uni2120" unicode="&#x2120;" horiz-adv-x="651" 
d="M305 720h103l57 -193l57 193h103v-288h-66v211l-65 -211h-58l-65 211v-211h-66v288zM93 528q1 -47 62 -47q23 0 36 8.5t13 23.5q0 13 -13 21t-52 14q-56 10 -81.5 32t-25.5 60q0 37 31 61t83 24q56 0 87.5 -25.5t32.5 -72.5h-65q-1 23 -14.5 33.5t-40.5 10.5
q-20 0 -32 -7.5t-12 -20.5q0 -14 12.5 -22t48.5 -14q63 -10 87.5 -31t24.5 -58q0 -44 -34 -67.5t-89 -23.5q-58 0 -91.5 27t-34.5 74h67z" />
    <glyph glyph-name="trademark" unicode="&#x2122;" horiz-adv-x="648" 
d="M302 720h103l57 -194l57 194h103v-288h-66v212l-66 -212h-57l-65 208v-208h-66v288zM26 720h246v-61h-88v-227h-70v227h-88v61z" />
    <glyph glyph-name="arrowleft" unicode="&#x2190;" horiz-adv-x="964" 
d="M358 291l260 -291h-186l-322 360l322 360h186l-260 -291h496v-138h-496z" />
    <glyph glyph-name="arrowup" unicode="&#x2191;" horiz-adv-x="940" 
d="M401 -12v496l-291 -260v186l360 322l360 -322v-186l-291 260v-496h-138z" />
    <glyph glyph-name="arrowright" unicode="&#x2192;" horiz-adv-x="964" 
d="M110 429h496l-260 291h186l322 -360l-322 -360h-186l260 291h-496v138z" />
    <glyph glyph-name="arrowdown" unicode="&#x2193;" horiz-adv-x="940" 
d="M539 236l291 260v-186l-360 -322l-360 322v186l291 -260v496h138v-496z" />
    <glyph glyph-name="arrowboth" unicode="&#x2194;" horiz-adv-x="1200" 
d="M110 360l268 360h168l-217 -291h542l-217 291h168l268 -360l-268 -360h-168l217 291h-542l217 -291h-168z" />
    <glyph glyph-name="arrowupdn" unicode="&#x2195;" horiz-adv-x="940" 
d="M539 656v-592l291 217v-168l-360 -268l-360 268v168l291 -217v592l-291 -217v168l360 268l360 -268v-168z" />
    <glyph glyph-name="uni2196" unicode="&#x2196;" horiz-adv-x="968" 
d="M288 458v-432l-138 138v530h530l138 -138h-434l412 -411l-97 -97z" />
    <glyph glyph-name="uni2197" unicode="&#x2197;" horiz-adv-x="968" 
d="M172 145l412 411h-434l138 138h530v-530l-138 -138v432l-411 -410z" />
    <glyph glyph-name="uni2198" unicode="&#x2198;" horiz-adv-x="968" 
d="M680 262v432l138 -138v-530h-530l-138 138h434l-412 411l97 97z" />
    <glyph glyph-name="uni2199" unicode="&#x2199;" horiz-adv-x="968" 
d="M796 575l-412 -411h434l-138 -138h-530v530l138 138v-432l411 410z" />
    <glyph glyph-name="minus" unicode="&#x2212;" horiz-adv-x="540" 
d="M34 423h472v-125h-472v125z" />
    <glyph glyph-name="lessequal" unicode="&#x2264;" horiz-adv-x="540" 
d="M506 610v-130l-331 -103l331 -103v-130l-472 169v129zM34 113h472v-114h-472v114z" />
    <glyph glyph-name="greaterequal" unicode="&#x2265;" horiz-adv-x="540" 
d="M34 144v130l331 103l-331 103v130l472 -168v-129zM34 113h472v-114h-472v114z" />
    <glyph glyph-name="filledbox" unicode="&#x25a0;" horiz-adv-x="924" 
d="M924 810v-900h-924v900h924z" />
    <glyph glyph-name="uni25A1" unicode="&#x25a1;" horiz-adv-x="924" 
d="M0 810h924v-900h-924v900zM799 21v678h-674v-678h674z" />
    <glyph glyph-name="triagup" unicode="&#x25b2;" horiz-adv-x="948" 
d="M474 822l474 -924h-948z" />
    <glyph glyph-name="uni25B3" unicode="&#x25b3;" horiz-adv-x="948" 
d="M474 822l474 -924h-948zM766 9l-292 572l-292 -572h584z" />
    <glyph glyph-name="uni25B6" unicode="&#x25b6;" horiz-adv-x="948" 
d="M936 360l-924 -474v948z" />
    <glyph glyph-name="uni25B7" unicode="&#x25b7;" horiz-adv-x="948" 
d="M936 360l-924 -474v948zM695 360l-572 292v-584z" />
    <glyph glyph-name="triagdn" unicode="&#x25bc;" horiz-adv-x="948" 
d="M948 822l-474 -924l-474 924h948z" />
    <glyph glyph-name="uni25BD" unicode="&#x25bd;" horiz-adv-x="948" 
d="M948 822l-474 -924l-474 924h948zM474 139l292 572h-584z" />
    <glyph glyph-name="uni25C0" unicode="&#x25c0;" horiz-adv-x="948" 
d="M12 360l924 474v-948z" />
    <glyph glyph-name="uni25C1" unicode="&#x25c1;" horiz-adv-x="948" 
d="M12 360l924 474v-948zM825 68v584l-572 -292z" />
    <glyph glyph-name="circle" unicode="&#x25cb;" horiz-adv-x="948" 
d="M236 -40q-109 62 -172.5 168.5t-63.5 231.5t63.5 231.5t172.5 168.5t238 62t238 -62t172.5 -168.5t63.5 -231.5t-63.5 -231.5t-172.5 -168.5t-238 -62t-238 62zM171 186.5q47 -79.5 127.5 -126.5t175.5 -47t175.5 47t127.5 126.5t47 173.5t-47 173.5t-127.5 126.5
t-175.5 47t-175.5 -47t-127.5 -126.5t-47 -173.5t47 -173.5z" />
    <glyph glyph-name="uni25CF" unicode="&#x25cf;" horiz-adv-x="948" 
d="M236 -40q-109 62 -172.5 168.5t-63.5 231.5t63.5 231.5t172.5 168.5t238 62t238 -62t172.5 -168.5t63.5 -231.5t-63.5 -231.5t-172.5 -168.5t-238 -62t-238 62z" />
    <glyph glyph-name="uni004A0301" horiz-adv-x="572" 
d="M89.5 54q-63.5 66 -63.5 179v40h152v-40q0 -55 22 -82.5t72 -27.5t72 27.5t22 82.5v487h158v-487q0 -113 -66 -179t-186 -66q-119 0 -182.5 66zM485 914h162l-143 -146h-117z" />
    <glyph glyph-name="G.ss06" horiz-adv-x="772" 
d="M195 37.5q-82 49.5 -124.5 134t-42.5 188.5t42.5 188.5t124.5 134t196 49.5q137 0 224 -70t117 -186h-160q-21 54 -67 85t-114 31q-100 0 -149.5 -65t-49.5 -167t49.5 -167t149.5 -65q79 0 125 40t63 109h-218v125h381q2 -28 2 -42q0 -105 -39.5 -189t-119.5 -133.5
t-194 -49.5t-196 49.5z" />
    <glyph glyph-name="uni01F4.ss06" horiz-adv-x="772" 
d="M195 37.5q-82 49.5 -124.5 134t-42.5 188.5t42.5 188.5t124.5 134t196 49.5q137 0 224 -70t117 -186h-160q-21 54 -67 85t-114 31q-100 0 -149.5 -65t-49.5 -167t49.5 -167t149.5 -65q79 0 125 40t63 109h-218v125h381q2 -28 2 -42q0 -105 -39.5 -189t-119.5 -133.5
t-194 -49.5t-196 49.5zM431 926h162l-143 -146h-117z" />
    <glyph glyph-name="Gbreve.ss06" horiz-adv-x="772" 
d="M195 37.5q-82 49.5 -124.5 134t-42.5 188.5t42.5 188.5t124.5 134t196 49.5q137 0 224 -70t117 -186h-160q-21 54 -67 85t-114 31q-100 0 -149.5 -65t-49.5 -167t49.5 -167t149.5 -65q79 0 125 40t63 109h-218v125h381q2 -28 2 -42q0 -105 -39.5 -189t-119.5 -133.5
t-194 -49.5t-196 49.5zM270.5 814q-47.5 40 -56.5 112h109q3 -30 21 -46t48 -16t47.5 15.5t20.5 46.5h109q-9 -72 -56.5 -112t-120.5 -40q-74 0 -121.5 40z" />
    <glyph glyph-name="Gcaron.ss06" horiz-adv-x="772" 
d="M195 37.5q-82 49.5 -124.5 134t-42.5 188.5t42.5 188.5t124.5 134t196 49.5q137 0 224 -70t117 -186h-160q-21 54 -67 85t-114 31q-100 0 -149.5 -65t-49.5 -167t49.5 -167t149.5 -65q79 0 125 40t63 109h-218v125h381q2 -28 2 -42q0 -105 -39.5 -189t-119.5 -133.5
t-194 -49.5t-196 49.5zM182 926h130l79 -76l79 76h130l-126 -146h-166z" />
    <glyph glyph-name="Gcircumflex.ss06" horiz-adv-x="772" 
d="M195 37.5q-82 49.5 -124.5 134t-42.5 188.5t42.5 188.5t124.5 134t196 49.5q137 0 224 -70t117 -186h-160q-21 54 -67 85t-114 31q-100 0 -149.5 -65t-49.5 -167t49.5 -167t149.5 -65q79 0 125 40t63 109h-218v125h381q2 -28 2 -42q0 -105 -39.5 -189t-119.5 -133.5
t-194 -49.5t-196 49.5zM600 780h-130l-79 76l-79 -76h-130l126 146h166z" />
    <glyph glyph-name="Gdotaccent.ss06" horiz-adv-x="772" 
d="M195 37.5q-82 49.5 -124.5 134t-42.5 188.5t42.5 188.5t124.5 134t196 49.5q137 0 224 -70t117 -186h-160q-21 54 -67 85t-114 31q-100 0 -149.5 -65t-49.5 -167t49.5 -167t149.5 -65q79 0 125 40t63 109h-218v125h381q2 -28 2 -42q0 -105 -39.5 -189t-119.5 -133.5
t-194 -49.5t-196 49.5zM318 905h146v-125h-146v125z" />
    <glyph glyph-name="J.ss07" horiz-adv-x="421" 
d="M26 126h92q53 0 75 23t22 78v493h157v-512q0 -208 -202 -208h-144v126z" />
    <glyph glyph-name="uni004A0301.ss07" horiz-adv-x="421" 
d="M26 126h92q53 0 75 23t22 78v493h157v-512q0 -208 -202 -208h-144v126zM333 914h162l-143 -146h-117z" />
    <glyph glyph-name="Jcircumflex.ss07" horiz-adv-x="421" 
d="M26 126h92q53 0 75 23t22 78v493h157v-512q0 -208 -202 -208h-144v126zM502 768h-130l-79 76l-79 -76h-130l126 146h166z" />
    <glyph glyph-name="R.ss08" horiz-adv-x="681" 
d="M58 720h321q87 0 148 -30.5t91.5 -83t30.5 -118.5q0 -73 -40 -128.5t-113 -82.5l179 -277h-177l-155 255h-127v-255h-158v720zM370 384q121 0 121 104q0 103 -121 103h-154v-207h154z" />
    <glyph glyph-name="Racute.ss08" horiz-adv-x="681" 
d="M58 720h321q87 0 148 -30.5t91.5 -83t30.5 -118.5q0 -73 -40 -128.5t-113 -82.5l179 -277h-177l-155 255h-127v-255h-158v720zM370 384q121 0 121 104q0 103 -121 103h-154v-207h154zM381 914h162l-143 -146h-117z" />
    <glyph glyph-name="Rcaron.ss08" horiz-adv-x="681" 
d="M58 720h321q87 0 148 -30.5t91.5 -83t30.5 -118.5q0 -73 -40 -128.5t-113 -82.5l179 -277h-177l-155 255h-127v-255h-158v720zM370 384q121 0 121 104q0 103 -121 103h-154v-207h154zM133 914h130l79 -76l79 76h130l-126 -146h-166z" />
    <glyph glyph-name="uni1E58.ss08" horiz-adv-x="681" 
d="M58 720h321q87 0 148 -30.5t91.5 -83t30.5 -118.5q0 -73 -40 -128.5t-113 -82.5l179 -277h-177l-155 255h-127v-255h-158v720zM370 384q121 0 121 104q0 103 -121 103h-154v-207h154zM269 893h146v-125h-146v125z" />
    <glyph glyph-name="uni006A0301" horiz-adv-x="252" 
d="M161.5 -170.5q-40.5 -29.5 -114.5 -29.5h-107v109h68q26 0 37 11t11 35v565h146v-580q0 -81 -40.5 -110.5zM169 732h162l-143 -146h-117z" />
    <glyph glyph-name="a.ss01" horiz-adv-x="612" 
d="M438 0v66q-54 -78 -159 -78q-73 0 -124.5 35t-78 97t-26.5 140t26.5 140t78 97t124.5 35q99 0 154 -71v59h147v-520h-142zM228 147.5q29 -40.5 89 -40.5t89.5 40.5t29.5 112.5t-29.5 112.5t-89.5 40.5t-89 -40.5t-29 -112.5t29 -112.5z" />
    <glyph glyph-name="aacute.ss01" horiz-adv-x="612" 
d="M438 0v66q-54 -78 -159 -78q-73 0 -124.5 35t-78 97t-26.5 140t26.5 140t78 97t124.5 35q99 0 154 -71v59h147v-520h-142zM228 147.5q29 -40.5 89 -40.5t89.5 40.5t29.5 112.5t-29.5 112.5t-89.5 40.5t-89 -40.5t-29 -112.5t29 -112.5zM355 732h162l-143 -146h-117z" />
    <glyph glyph-name="abreve.ss01" horiz-adv-x="612" 
d="M438 0v66q-54 -78 -159 -78q-73 0 -124.5 35t-78 97t-26.5 140t26.5 140t78 97t124.5 35q99 0 154 -71v59h147v-520h-142zM228 147.5q29 -40.5 89 -40.5t89.5 40.5t29.5 112.5t-29.5 112.5t-89.5 40.5t-89 -40.5t-29 -112.5t29 -112.5zM194.5 620q-47.5 40 -56.5 112h109
q3 -30 21 -46t48 -16t47.5 15.5t20.5 46.5h109q-9 -72 -56.5 -112t-120.5 -40q-74 0 -121.5 40z" />
    <glyph glyph-name="uni01CE.ss01" horiz-adv-x="612" 
d="M438 0v66q-54 -78 -159 -78q-73 0 -124.5 35t-78 97t-26.5 140t26.5 140t78 97t124.5 35q99 0 154 -71v59h147v-520h-142zM228 147.5q29 -40.5 89 -40.5t89.5 40.5t29.5 112.5t-29.5 112.5t-89.5 40.5t-89 -40.5t-29 -112.5t29 -112.5zM106 732h130l79 -76l79 76h130
l-126 -146h-166z" />
    <glyph glyph-name="acircumflex.ss01" horiz-adv-x="612" 
d="M438 0v66q-54 -78 -159 -78q-73 0 -124.5 35t-78 97t-26.5 140t26.5 140t78 97t124.5 35q99 0 154 -71v59h147v-520h-142zM228 147.5q29 -40.5 89 -40.5t89.5 40.5t29.5 112.5t-29.5 112.5t-89.5 40.5t-89 -40.5t-29 -112.5t29 -112.5zM524 586h-130l-79 76l-79 -76h-130
l126 146h166z" />
    <glyph glyph-name="adieresis.ss01" horiz-adv-x="612" 
d="M438 0v66q-54 -78 -159 -78q-73 0 -124.5 35t-78 97t-26.5 140t26.5 140t78 97t124.5 35q99 0 154 -71v59h147v-520h-142zM228 147.5q29 -40.5 89 -40.5t89.5 40.5t29.5 112.5t-29.5 112.5t-89.5 40.5t-89 -40.5t-29 -112.5t29 -112.5zM136 720h146v-125h-146v125z
M348 720h146v-125h-146v125z" />
    <glyph glyph-name="uni0227.ss01" horiz-adv-x="612" 
d="M438 0v66q-54 -78 -159 -78q-73 0 -124.5 35t-78 97t-26.5 140t26.5 140t78 97t124.5 35q99 0 154 -71v59h147v-520h-142zM228 147.5q29 -40.5 89 -40.5t89.5 40.5t29.5 112.5t-29.5 112.5t-89.5 40.5t-89 -40.5t-29 -112.5t29 -112.5zM242 720h146v-125h-146v125z" />
    <glyph glyph-name="agrave.ss01" horiz-adv-x="612" 
d="M438 0v66q-54 -78 -159 -78q-73 0 -124.5 35t-78 97t-26.5 140t26.5 140t78 97t124.5 35q99 0 154 -71v59h147v-520h-142zM228 147.5q29 -40.5 89 -40.5t89.5 40.5t29.5 112.5t-29.5 112.5t-89.5 40.5t-89 -40.5t-29 -112.5t29 -112.5zM257 586l-143 146h162l98 -146
h-117z" />
    <glyph glyph-name="aogonek.ss01" horiz-adv-x="612" 
d="M506 -47q-23 -22 -23 -42q0 -37 52 -37q24 0 45 7v-83q-33 -10 -76 -10q-60 0 -96.5 23.5t-36.5 72.5q0 33 27 64.5t72 51.5h-32v66q-54 -78 -159 -78q-73 0 -124.5 35t-78 97t-26.5 140t26.5 140t78 97t124.5 35q99 0 154 -71v59h147v-520q-51 -25 -74 -47zM228 147.5
q29 -40.5 89 -40.5t89.5 40.5t29.5 112.5t-29.5 112.5t-89.5 40.5t-89 -40.5t-29 -112.5t29 -112.5z" />
    <glyph glyph-name="aring.ss01" horiz-adv-x="612" 
d="M438 0v66q-54 -78 -159 -78q-73 0 -124.5 35t-78 97t-26.5 140t26.5 140t78 97t124.5 35q99 0 154 -71v59h147v-520h-142zM228 147.5q29 -40.5 89 -40.5t89.5 40.5t29.5 112.5t-29.5 112.5t-89.5 40.5t-89 -40.5t-29 -112.5t29 -112.5zM238.5 598.5
q-34.5 18.5 -54.5 51.5t-20 73q0 41 20 73.5t54.5 51t76.5 18.5t76.5 -18.5t54.5 -51t20 -73.5q0 -40 -20 -73t-54.5 -51.5t-76.5 -18.5t-76.5 18.5zM273.5 682q16.5 -16 41.5 -16t41.5 16t16.5 41t-16 41t-42 16q-25 0 -41.5 -16t-16.5 -41t16.5 -41z" />
    <glyph glyph-name="atilde.ss01" horiz-adv-x="612" 
d="M438 0v66q-54 -78 -159 -78q-73 0 -124.5 35t-78 97t-26.5 140t26.5 140t78 97t124.5 35q99 0 154 -71v59h147v-520h-142zM228 147.5q29 -40.5 89 -40.5t89.5 40.5t29.5 112.5t-29.5 112.5t-89.5 40.5t-89 -40.5t-29 -112.5t29 -112.5zM157 697.5q30 34.5 82 34.5
q18 0 35 -5t41 -15q6 -2 26.5 -11.5t34.5 -9.5q17 0 24.5 9t7.5 32h95q0 -72 -30.5 -106.5t-82.5 -34.5q-28 0 -75 20q-6 2 -27 11.5t-35 9.5q-16 0 -23.5 -9.5t-7.5 -31.5h-95q0 72 30 106.5z" />
    <glyph glyph-name="l.ss02" horiz-adv-x="246" 
d="M50 720h146v-720h-146v720z" />
    <glyph glyph-name="lacute.ss02" horiz-adv-x="246" 
d="M50 720h146v-720h-146v720zM163 932h162l-143 -146h-117z" />
    <glyph glyph-name="lcaron.ss02" horiz-adv-x="246" 
d="M50 720h146v-720h-146v720zM260 720h147l-72 -170h-99z" />
    <glyph glyph-name="lslash.ss02" horiz-adv-x="246" 
d="M50 285l-80 -35v98l80 35v337h146v-273l80 35v-98l-80 -35v-349h-146v285z" />
    <glyph glyph-name="t.ss03" horiz-adv-x="382" 
d="M103 411h-89v109h89v160h147v-160h108v-109h-108v-411h-147v411z" />
    <glyph glyph-name="tcaron.ss03" horiz-adv-x="382" 
d="M103 411h-89v109h89v160h147v-160h108v-109h-108v-411h-147v411zM306 720h147l-72 -170h-99z" />
    <glyph glyph-name="uni0163.ss03" horiz-adv-x="382" 
d="M103 411h-89v109h89v160h147v-160h108v-109h-108v-411h-37l-42 -44h8q53 0 85 -22t32 -60q0 -42 -39.5 -70t-115.5 -28q-42 0 -75 8v57q33 -6 57 -6q67 0 67 39q0 37 -59 37q-20 0 -30 -2v40l38 51h-36v411z" />
    <glyph glyph-name="uni1E6B.ss03" horiz-adv-x="382" 
d="M103 411h-89v109h89v160h147v-160h108v-109h-108v-411h-147v411zM103 880h146v-125h-146v125z" />
    <glyph glyph-name="u.ss04" 
d="M113.5 46q-63.5 58 -63.5 167v307h145v-301q0 -114 100 -114q101 0 101 114v301h145v-307q0 -109 -63.5 -167t-182.5 -58q-118 0 -181.5 58z" />
    <glyph glyph-name="uacute.ss04" 
d="M113.5 46q-63.5 58 -63.5 167v307h145v-301q0 -114 100 -114q101 0 101 114v301h145v-307q0 -109 -63.5 -167t-182.5 -58q-118 0 -181.5 58zM335 732h162l-143 -146h-117z" />
    <glyph glyph-name="ubreve.ss04" 
d="M113.5 46q-63.5 58 -63.5 167v307h145v-301q0 -114 100 -114q101 0 101 114v301h145v-307q0 -109 -63.5 -167t-182.5 -58q-118 0 -181.5 58zM174.5 620q-47.5 40 -56.5 112h109q3 -30 21 -46t48 -16t47.5 15.5t20.5 46.5h109q-9 -72 -56.5 -112t-120.5 -40
q-74 0 -121.5 40z" />
    <glyph glyph-name="uni01D4.ss04" 
d="M113.5 46q-63.5 58 -63.5 167v307h145v-301q0 -114 100 -114q101 0 101 114v301h145v-307q0 -109 -63.5 -167t-182.5 -58q-118 0 -181.5 58zM86 732h130l79 -76l79 76h130l-126 -146h-166z" />
    <glyph glyph-name="ucircumflex.ss04" 
d="M113.5 46q-63.5 58 -63.5 167v307h145v-301q0 -114 100 -114q101 0 101 114v301h145v-307q0 -109 -63.5 -167t-182.5 -58q-118 0 -181.5 58zM504 586h-130l-79 76l-79 -76h-130l126 146h166z" />
    <glyph glyph-name="udieresis.ss04" 
d="M113.5 46q-63.5 58 -63.5 167v307h145v-301q0 -114 100 -114q101 0 101 114v301h145v-307q0 -109 -63.5 -167t-182.5 -58q-118 0 -181.5 58zM116 720h146v-125h-146v125zM328 720h146v-125h-146v125z" />
    <glyph glyph-name="ugrave.ss04" 
d="M113.5 46q-63.5 58 -63.5 167v307h145v-301q0 -114 100 -114q101 0 101 114v301h145v-307q0 -109 -63.5 -167t-182.5 -58q-118 0 -181.5 58zM237 586l-143 146h162l98 -146h-117z" />
    <glyph glyph-name="uogonek.ss04" 
d="M218.5 -188.5q-36.5 23.5 -36.5 72.5q0 30 20.5 57t57.5 48q-102 9 -156 66t-54 158v307h145v-301q0 -114 100 -114q101 0 101 114v301h145v-307q0 -84 -38.5 -138.5t-111.5 -74.5q-51 -25 -74 -47t-23 -42q0 -37 52 -37q24 0 45 7v-83q-33 -10 -76 -10q-60 0 -96.5 23.5
z" />
    <glyph glyph-name="uring.ss04" 
d="M113.5 46q-63.5 58 -63.5 167v307h145v-301q0 -114 100 -114q101 0 101 114v301h145v-307q0 -109 -63.5 -167t-182.5 -58q-118 0 -181.5 58zM218.5 598.5q-34.5 18.5 -54.5 51.5t-20 73q0 41 20 73.5t54.5 51t76.5 18.5t76.5 -18.5t54.5 -51t20 -73.5q0 -40 -20 -73
t-54.5 -51.5t-76.5 -18.5t-76.5 18.5zM253.5 682q16.5 -16 41.5 -16t41.5 16t16.5 41t-16 41t-42 16q-25 0 -41.5 -16t-16.5 -41t16.5 -41z" />
    <glyph glyph-name="utilde.ss04" 
d="M113.5 46q-63.5 58 -63.5 167v307h145v-301q0 -114 100 -114q101 0 101 114v301h145v-307q0 -109 -63.5 -167t-182.5 -58q-118 0 -181.5 58zM138 697.5q30 34.5 82 34.5q18 0 35 -5t41 -15q6 -2 26.5 -11.5t34.5 -9.5q17 0 24.5 9t7.5 32h95q0 -72 -30.5 -106.5
t-82.5 -34.5q-28 0 -75 20q-6 2 -27 11.5t-35 9.5q-16 0 -23.5 -9.5t-7.5 -31.5h-95q0 72 30 106.5z" />
    <glyph glyph-name="y.ss05" horiz-adv-x="571" 
d="M214 12l-210 508h158l123 -343l124 343h157l-300 -720h-141z" />
    <glyph glyph-name="yacute.ss05" horiz-adv-x="571" 
d="M214 12l-210 508h158l123 -343l124 343h157l-300 -720h-141zM325 732h162l-143 -146h-117z" />
    <glyph glyph-name="ycircumflex.ss05" horiz-adv-x="571" 
d="M214 12l-210 508h158l123 -343l124 343h157l-300 -720h-141zM494 586h-130l-79 76l-79 -76h-130l126 146h166z" />
    <glyph glyph-name="ydieresis.ss05" horiz-adv-x="571" 
d="M214 12l-210 508h158l123 -343l124 343h157l-300 -720h-141zM106 720h146v-125h-146v125zM318 720h146v-125h-146v125z" />
    <glyph glyph-name="uni1E8F.ss05" horiz-adv-x="571" 
d="M214 12l-210 508h158l123 -343l124 343h157l-300 -720h-141zM212 720h146v-125h-146v125z" />
    <glyph glyph-name="ygrave.ss05" horiz-adv-x="571" 
d="M214 12l-210 508h158l123 -343l124 343h157l-300 -720h-141zM227 586l-143 146h162l98 -146h-117z" />
    <glyph glyph-name="uni1EF9.ss05" horiz-adv-x="571" 
d="M214 12l-210 508h158l123 -343l124 343h157l-300 -720h-141zM128 697.5q30 34.5 82 34.5q18 0 35 -5t41 -15q6 -2 26.5 -11.5t34.5 -9.5q17 0 24.5 9t7.5 32h95q0 -72 -30.5 -106.5t-82.5 -34.5q-28 0 -75 20q-6 2 -27 11.5t-35 9.5q-16 0 -23.5 -9.5t-7.5 -31.5h-95
q0 72 30 106.5z" />
    <glyph glyph-name="three.ss09" horiz-adv-x="612" 
d="M111 50q-71 62 -73 175h152q2 -53 33.5 -82t85.5 -29q51 0 83.5 30t32.5 80q0 57 -38 86t-120 29h-60v99l168 150h-313v132h495v-122l-173 -158q94 -21 145 -76.5t51 -145.5q0 -63 -31.5 -115.5t-92.5 -83.5t-144 -31q-130 0 -201 62z" />
    <glyph glyph-name="six.ss09" horiz-adv-x="600" 
d="M164.5 19q-59.5 31 -92 87.5t-32.5 132.5q0 87 44 150l242 331h159l-171 -231q75 -2 131.5 -33.5t87.5 -87.5t31 -129q0 -76 -32.5 -132.5t-92 -87.5t-137.5 -31t-137.5 31zM217.5 146q29.5 -35 84.5 -35t84 35t29 93q0 57 -29.5 92t-83.5 35q-55 0 -84.5 -35t-29.5 -92
q0 -58 29.5 -93z" />
    <glyph glyph-name="nine.ss09" horiz-adv-x="600" 
d="M435.5 701q59.5 -31 92 -87.5t32.5 -132.5q0 -87 -44 -150l-242 -331h-159l171 231q-75 2 -131.5 33.5t-87.5 87.5t-31 129q0 76 32.5 132.5t92 87.5t137.5 31t137.5 -31zM214.5 389q29.5 -35 83.5 -35q55 0 84.5 35t29.5 92q0 58 -29.5 93t-84.5 35t-84 -35t-29 -93
q0 -57 29.5 -92z" />
    <glyph glyph-name="one.ss10" horiz-adv-x="364" 
d="M148 588h-116v132h274v-720h-158v588z" />
    <glyph glyph-name="four.ss10" horiz-adv-x="654" 
d="M34 290l289 430h160l-291 -444h192v164h146v-164h96v-131h-90v-145h-158v145h-344v145z" />
    <glyph glyph-name="at.ss11" horiz-adv-x="925" 
d="M238.5 -61.5q-99.5 54.5 -154 151t-54.5 218.5t54.5 218.5t154 151t228.5 54.5q130 0 226.5 -49.5t149 -140t52.5 -210.5q0 -74 -25 -131.5t-73.5 -90t-114.5 -32.5q-47 0 -79.5 18.5t-47.5 55.5q-21 -35 -54 -54.5t-77 -19.5q-84 0 -133 64t-49 163q0 64 22 116t63 81.5
t97 29.5q76 0 118 -55v43h123v-272q0 -36 11.5 -50t40.5 -14q37 0 53 41t16 107q0 149 -86 225.5t-233 76.5q-96 0 -170.5 -38.5t-116.5 -112t-42 -175.5t42 -176.5t116.5 -113.5t170.5 -39q124 0 215 55v-100q-50 -24 -101.5 -37t-113.5 -13q-129 0 -228.5 54.5zM390 214.5
q22 -32.5 65 -32.5q44 0 66.5 32.5t22.5 90.5t-22.5 90.5t-66.5 32.5q-43 0 -65 -32.5t-22 -90.5t22 -90.5z" />
    <glyph glyph-name="copyright.ss13" horiz-adv-x="598" 
d="M204 371q-36 39 -36 100t36 100t98 39q57 0 90 -28.5t39 -76.5h-77q-4 20 -17.5 31t-34.5 11q-28 0 -42 -20t-14 -56t14 -56t42 -20q22 0 35.5 12t16.5 34h77q-6 -50 -39 -79.5t-90 -29.5q-62 0 -98 39zM65.5 605.5q35.5 59.5 97 93t136.5 33.5t136.5 -33.5t97 -93
t35.5 -134.5t-35.5 -134.5t-97 -93t-136.5 -33.5t-136.5 33.5t-97 93t-35.5 134.5t35.5 134.5zM162 334.5q53 -50.5 137 -50.5t136.5 50.5t52.5 136.5t-52.5 136.5t-136.5 50.5t-137 -50.5t-53 -136.5t53 -136.5z" />
    <glyph glyph-name="registered.ss13" horiz-adv-x="598" 
d="M189 603h128q47 0 71.5 -22t24.5 -58q0 -20 -10.5 -36.5t-29.5 -28.5q16 -9 24.5 -21.5t11.5 -31.5l9 -66h-70l-8 57q-5 38 -38 38h-44v-95h-69v264zM65.5 605.5q35.5 59.5 97 93t136.5 33.5t136.5 -33.5t97 -93t35.5 -134.5t-35.5 -134.5t-97 -93t-136.5 -33.5
t-136.5 33.5t-97 93t-35.5 134.5t35.5 134.5zM162 334.5q53 -50.5 137 -50.5t136.5 50.5t52.5 136.5t-52.5 136.5t-136.5 50.5t-137 -50.5t-53 -136.5t53 -136.5zM303 485q39 0 39 32q0 17 -9.5 24t-29.5 7h-45v-63h45z" />
    <glyph glyph-name="uni2117.ss13" horiz-adv-x="598" 
d="M203 603h119q48 0 76 -25t28 -65q0 -41 -27.5 -65.5t-76.5 -24.5h-49v-84h-70v264zM65.5 605.5q35.5 59.5 97 93t136.5 33.5t136.5 -33.5t97 -93t35.5 -134.5t-35.5 -134.5t-97 -93t-136.5 -33.5t-136.5 33.5t-97 93t-35.5 134.5t35.5 134.5zM162 334.5
q53 -50.5 137 -50.5t136.5 50.5t52.5 136.5t-52.5 136.5t-136.5 50.5t-137 -50.5t-53 -136.5t53 -136.5zM317 481q39 0 39 32t-39 32h-44v-64h44z" />
    <glyph glyph-name="trademark.ss14" horiz-adv-x="827" 
d="M386 474h97l34 -131l34 131h97v-228h-61v160l-44 -160h-52l-44 157v-157h-61v228zM80 552q50 85 137.5 132.5t195.5 47.5t195.5 -47.5t137.5 -132.5t50 -192t-50 -192t-137.5 -132.5t-195.5 -47.5t-195.5 47.5t-137.5 132.5t-50 192t50 192zM163 210.5
q37 -64.5 102 -99.5t148 -35t148.5 35t102 99.5t36.5 149.5t-36.5 149.5t-102 99.5t-148.5 35t-148 -35t-102 -99.5t-37 -149.5t37 -149.5zM170 474h198v-57h-67v-171h-63v171h-68v57z" />
    <glyph glyph-name="uni2120.ss14" horiz-adv-x="827" 
d="M387 474h97l34 -131l34 131h97v-228h-61v160l-44 -160h-52l-44 160v-160h-61v228zM80 552q50 85 137.5 132.5t195.5 47.5t195.5 -47.5t137.5 -132.5t50 -192t-50 -192t-137.5 -132.5t-195.5 -47.5t-195.5 47.5t-137.5 132.5t-50 192t50 192zM163 210.5
q37 -64.5 102 -99.5t148 -35t148.5 35t102 99.5t36.5 149.5t-36.5 149.5t-102 99.5t-148.5 35t-148 -35t-102 -99.5t-37 -149.5t37 -149.5zM227 322q0 -18 11.5 -24.5t31.5 -6.5q15 0 24 5t9 15q0 8 -9.5 13t-37.5 9q-47 7 -67.5 25.5t-20.5 50.5q0 30 25.5 50t70.5 20
t71 -20t27 -59h-61q-1 15 -10 22t-27 7q-30 0 -30 -18q0 -8 9.5 -13.5t34.5 -9.5q50 -7 70.5 -24t20.5 -49q0 -37 -28 -55.5t-74 -18.5q-49 0 -75.5 22t-26.5 59h62z" />
    <glyph glyph-name="cent.ss12" horiz-adv-x="562" 
d="M253 -10q-104 12 -163.5 86.5t-59.5 183.5t59.5 183.5t163.5 86.5v104h76v-104q93 -9 147 -62.5t66 -138.5h-146q-8 40 -35.5 62t-68.5 22q-57 0 -85.5 -41t-28.5 -112t28.5 -112t85.5 -41q43 0 70 24t34 68h146q-12 -87 -66.5 -143.5t-146.5 -65.5v-104h-76v104z" />
    <glyph glyph-name="dollar.ss12" horiz-adv-x="657" 
d="M269 -8q-115 14 -179.5 79t-65.5 170h154q1 -71 45.5 -99t117.5 -28q60 0 95.5 23t35.5 65q0 24 -12.5 40.5t-49 30t-107.5 25.5q-138 23 -200.5 76.5t-62.5 150.5q0 82 61.5 138t167.5 67v104h120v-107q107 -16 164.5 -77.5t61.5 -160.5h-152q-3 60 -38.5 88.5
t-107.5 28.5q-53 0 -84.5 -20.5t-31.5 -55.5q0 -25 12 -41.5t46.5 -30.5t99.5 -25q105 -18 165.5 -47t85.5 -71.5t25 -103.5q0 -95 -67 -152t-179 -68v-105h-120v106z" />
    <glyph glyph-name="Euro.ss12" horiz-adv-x="631" 
d="M254.5 58q-85.5 70 -113.5 187h-119v78h107q-1 12 -1 37q0 26 1 39h-107v78h120q28 116 113.5 185.5t221.5 69.5q72 0 132 -18v-135q-50 16 -114 16q-145 0 -189 -118h303v-78h-320q-2 -26 -2 -39q0 -25 2 -37h320v-78h-304q44 -120 190 -120q64 0 114 16v-135
q-60 -18 -132 -18q-137 0 -222.5 70z" />
    <glyph glyph-name="sterling.ss12" horiz-adv-x="600" 
d="M16 132h165q-8 74 -45 160h-106v78h71q-23 48 -35 83.5t-12 68.5q0 61 32 108.5t90 74.5t132 27q127 0 194.5 -65t67.5 -184h-152q1 57 -28.5 87t-81.5 30q-46 0 -73.5 -23t-27.5 -64q0 -28 11.5 -59t35.5 -84h215v-78h-181q34 -83 40 -160h250v-132h-562v132z" />
    <glyph glyph-name="uni030C.alt" horiz-adv-x="0" 
d="M24 720h147l-72 -170h-99z" />
    <glyph glyph-name="uni0308.case" horiz-adv-x="0" 
d="M0 720h146v-125h-146v125zM212 720h146v-125h-146v125z" />
    <glyph glyph-name="uni0307.case" horiz-adv-x="0" 
d="M0 720h146v-125h-146v125z" />
    <glyph glyph-name="gravecomb.case" horiz-adv-x="0" 
d="M143 586l-143 146h162l98 -146h-117z" />
    <glyph glyph-name="acutecomb.case" horiz-adv-x="0" 
d="M98 732h162l-143 -146h-117z" />
    <glyph glyph-name="uni0302.case" horiz-adv-x="0" 
d="M418 586h-130l-79 76l-79 -76h-130l126 146h166z" />
    <glyph glyph-name="uni030C.case" horiz-adv-x="0" 
d="M0 732h130l79 -76l79 76h130l-126 -146h-166z" />
    <glyph glyph-name="uni0306.case" horiz-adv-x="0" 
d="M56.5 620q-47.5 40 -56.5 112h109q3 -30 21 -46t48 -16t47.5 15.5t20.5 46.5h109q-9 -72 -56.5 -112t-120.5 -40q-74 0 -121.5 40z" />
    <glyph glyph-name="uni030A.case" horiz-adv-x="0" 
d="M74.5 598.5q-34.5 18.5 -54.5 51.5t-20 73q0 41 20 73.5t54.5 51t76.5 18.5t76.5 -18.5t54.5 -51t20 -73.5q0 -40 -20 -73t-54.5 -51.5t-76.5 -18.5t-76.5 18.5zM109.5 682q16.5 -16 41.5 -16t41.5 16t16.5 41t-16 41t-42 16q-25 0 -41.5 -16t-16.5 -41t16.5 -41z" />
    <glyph glyph-name="tildecomb.case" horiz-adv-x="0" 
d="M30 697.5q30 34.5 82 34.5q18 0 35 -5t41 -15q6 -2 26.5 -11.5t34.5 -9.5q17 0 24.5 9t7.5 32h95q0 -72 -30.5 -106.5t-82.5 -34.5q-28 0 -75 20q-6 2 -27 11.5t-35 9.5q-16 0 -23.5 -9.5t-7.5 -31.5h-95q0 72 30 106.5z" />
    <glyph glyph-name="dieresis.case" horiz-adv-x="359" 
d="M0 720h146v-125h-146v125zM212 720h146v-125h-146v125z" />
    <glyph glyph-name="dotaccent.case" horiz-adv-x="146" 
d="M0 720h146v-125h-146v125z" />
    <glyph glyph-name="grave.case" horiz-adv-x="260" 
d="M143 586l-143 146h162l98 -146h-117z" />
    <glyph glyph-name="acute.case" horiz-adv-x="260" 
d="M98 732h162l-143 -146h-117z" />
    <glyph glyph-name="circumflex.case" horiz-adv-x="418" 
d="M418 586h-130l-79 76l-79 -76h-130l126 146h166z" />
    <glyph glyph-name="caron.case" horiz-adv-x="418" 
d="M0 732h130l79 -76l79 76h130l-126 -146h-166z" />
    <glyph glyph-name="breve.case" horiz-adv-x="355" 
d="M56.5 620q-47.5 40 -56.5 112h109q3 -30 21 -46t48 -16t47.5 15.5t20.5 46.5h109q-9 -72 -56.5 -112t-120.5 -40q-74 0 -121.5 40z" />
    <glyph glyph-name="ring.case" horiz-adv-x="302" 
d="M74.5 598.5q-34.5 18.5 -54.5 51.5t-20 73q0 41 20 73.5t54.5 51t76.5 18.5t76.5 -18.5t54.5 -51t20 -73.5q0 -40 -20 -73t-54.5 -51.5t-76.5 -18.5t-76.5 18.5zM109.5 682q16.5 -16 41.5 -16t41.5 16t16.5 41t-16 41t-42 16q-25 0 -41.5 -16t-16.5 -41t16.5 -41z" />
    <glyph glyph-name="tilde.case" horiz-adv-x="376" 
d="M30 697.5q30 34.5 82 34.5q18 0 35 -5t41 -15q6 -2 26.5 -11.5t34.5 -9.5q17 0 24.5 9t7.5 32h95q0 -72 -30.5 -106.5t-82.5 -34.5q-28 0 -75 20q-6 2 -27 11.5t-35 9.5q-16 0 -23.5 -9.5t-7.5 -31.5h-95q0 72 30 106.5z" />
  </font>
</defs>
</svg>
