<?xml version="1.0" standalone="no"?>
<!DOCTYPE svg PUBLIC "-//W3C//DTD SVG 1.1//EN" "http://www.w3.org/Graphics/SVG/1.1/DTD/svg11.dtd" >
<svg xmlns="http://www.w3.org/2000/svg" xmlns:xlink="http://www.w3.org/1999/xlink" version="1.1">
<metadata>
Created by FontForge 20201107 at Mon Sep 19 21:02:23 2022
 By 
Copyright (c) 2022 Ivo Dolenc
</metadata>
<defs>
<font id="Aspekta-750" horiz-adv-x="597" >
  <font-face 
    font-family="Aspekta 750"
    font-weight="750"
    font-stretch="normal"
    units-per-em="1000"
    panose-1="0 0 0 0 0 0 0 0 0 0"
    ascent="800"
    descent="-200"
    x-height="520"
    cap-height="720"
    bbox="-88 -236 1293 932"
    underline-thickness="50"
    underline-position="-155"
    unicode-range="U+0020-25CF"
  />
<missing-glyph horiz-adv-x="699" 
d="M70 720h559v-720h-559v720z" />
    <glyph glyph-name=".notdef" horiz-adv-x="699" 
d="M70 720h559v-720h-559v720z" />
    <glyph glyph-name=".null" horiz-adv-x="0" 
 />
    <glyph glyph-name="nonmarkingreturn" horiz-adv-x="333" 
 />
    <glyph glyph-name="space" unicode=" " horiz-adv-x="236" 
 />
    <glyph glyph-name="space" unicode="&#xa0;" horiz-adv-x="236" 
 />
    <glyph glyph-name="exclam" unicode="!" horiz-adv-x="246" 
d="M38 500v220h169v-220l-41 -259h-87zM35 179h175v-179h-175v179z" />
    <glyph glyph-name="quotedbl" unicode="&#x22;" horiz-adv-x="509" 
d="M225 720l-26 -335h-117l-25 335h168zM453 720l-26 -335h-117l-25 335h168z" />
    <glyph glyph-name="numbersign" unicode="#" horiz-adv-x="790" 
d="M427 163h-139l-32 -163h-142l32 163h-93l25 128h93l27 139h-93l25 128h93l31 162h142l-31 -162h139l31 162h141l-31 -162h92l-24 -128h-93l-27 -139h92l-25 -128h-92l-32 -163h-141zM452 291l27 139h-139l-27 -139h139z" />
    <glyph glyph-name="dollar" unicode="$" horiz-adv-x="662" 
d="M293 -10q-127 10 -198.5 76t-72.5 175h165q1 -54 29 -81.5t77 -35.5v171q-135 23 -195.5 77t-60.5 149q0 58 30.5 104t88.5 74t137 32v103h77v-104q117 -11 181 -73.5t69 -168.5h-162q-4 90 -88 106v-158q103 -18 162 -47.5t84 -72t25 -103.5q0 -102 -74.5 -159.5
t-196.5 -64.5v-103h-77v104zM227.5 483q17.5 -18 65.5 -31v145q-38 -5 -60.5 -23t-22.5 -46q0 -27 17.5 -45zM440 148.5q26 21.5 26 54.5q0 27 -19.5 44.5t-76.5 31.5v-157q44 5 70 26.5z" />
    <glyph glyph-name="percent" unicode="%" horiz-adv-x="915" 
d="M67 359q-45 59 -45 157t45 157t135 59q89 0 134.5 -59t45.5 -157t-45.5 -157t-134.5 -59q-90 0 -135 59zM152.5 424q15.5 -31 49.5 -31t49.5 31t15.5 92t-15.5 92t-49.5 31t-49.5 -31t-15.5 -92t15.5 -92zM597 720h103l-382 -720h-103zM578 361q45 59 135 59
q89 0 134.5 -59t45.5 -157t-45.5 -157t-134.5 -59q-90 0 -135 59t-45 157t45 157zM663.5 112q15.5 -31 49.5 -31t49.5 31t15.5 92t-15.5 92t-49.5 31t-49.5 -31t-15.5 -92t15.5 -92z" />
    <glyph glyph-name="ampersand" unicode="&#x26;" horiz-adv-x="725" 
d="M148.5 15q-60.5 27 -92 75.5t-31.5 111.5q0 72 40 119t109 81q-38 42 -55 75t-17 76q0 82 59.5 130.5t157.5 48.5q99 0 158 -48t59 -131q0 -68 -39 -110.5t-107 -75.5l120 -131q31 56 32 128h137q-3 -132 -77 -230l123 -134h-185l-40 43q-92 -55 -206 -55
q-85 0 -145.5 27zM219 143q30 -26 82 -26q62 0 110 24l-149 164q-35 -20 -54 -43t-19 -54q0 -39 30 -65zM268 505q11 -19 37 -47q45 21 67.5 40.5t22.5 47.5q0 29 -18.5 46.5t-50.5 17.5t-50.5 -17.5t-18.5 -46.5q0 -22 11 -41z" />
    <glyph glyph-name="quotesingle" unicode="'" horiz-adv-x="281" 
d="M225 720l-26 -335h-117l-25 335h168z" />
    <glyph glyph-name="parenleft" unicode="(" horiz-adv-x="322" 
d="M36.5 53.5q-34.5 119.5 -34.5 246.5t34.5 246.5t101.5 253.5h143q-63 -133 -91.5 -251t-28.5 -249t28.5 -249t91.5 -251h-143q-67 134 -101.5 253.5z" />
    <glyph glyph-name="parenright" unicode=")" horiz-adv-x="325" 
d="M95.5 51q28.5 118 28.5 249t-28.5 249t-91.5 251h143q67 -134 101.5 -253.5t34.5 -246.5t-34.5 -246.5t-101.5 -253.5h-143q63 133 91.5 251z" />
    <glyph glyph-name="asterisk" unicode="*" horiz-adv-x="459" 
d="M230 433l-89 -118l-82 62l84 112l-122 37l30 99l127 -39v134h103v-134l127 39l30 -99l-122 -37l84 -112l-82 -62z" />
    <glyph glyph-name="plus" unicode="+" horiz-adv-x="540" 
d="M32 427h172v171h133v-171h171v-133h-171v-172h-133v172h-172v133z" />
    <glyph glyph-name="comma" unicode="," horiz-adv-x="291" 
d="M254 179l-115 -335h-122l65 335h172z" />
    <glyph glyph-name="hyphen" unicode="-" horiz-adv-x="372" 
d="M32 357h307v-134h-307v134z" />
    <glyph glyph-name="period" unicode="." horiz-adv-x="249" 
d="M37 179h175v-179h-175v179z" />
    <glyph glyph-name="slash" unicode="/" horiz-adv-x="418" 
d="M264 720h152l-262 -720h-152z" />
    <glyph glyph-name="zero" unicode="0" horiz-adv-x="664" 
d="M108.5 88q-71.5 100 -71.5 272t71.5 272t223.5 100t223 -100t71 -272t-71 -272t-223 -100t-223.5 100zM239 186.5q26 -58.5 93 -58.5q66 0 92 58.5t26 173.5t-26 173.5t-92 58.5q-67 0 -93 -58.5t-26 -173.5t26 -173.5z" />
    <glyph glyph-name="one" unicode="1" horiz-adv-x="403" 
d="M177 544l-147 -102v170l157 108h159v-720h-169v544z" />
    <glyph glyph-name="two" unicode="2" horiz-adv-x="604" 
d="M35 133l292 249q69 60 69 128q0 38 -26 60t-68 22q-50 0 -77.5 -28.5t-26.5 -82.5h-163q0 120 68 185.5t199 65.5q75 0 133.5 -26.5t91.5 -75t33 -110.5q0 -68 -35 -122.5t-92 -104.5l-176 -153h311v-140h-533v133z" />
    <glyph glyph-name="three" unicode="3" horiz-adv-x="619" 
d="M110 50q-71 62 -73 177h162q2 -52 31.5 -79t82.5 -27q50 0 79.5 26t29.5 70q0 52 -32.5 71.5t-97.5 19.5h-58v120h46q62 0 93 20.5t31 66.5q0 39 -26 61.5t-69 22.5q-47 0 -72 -25.5t-26 -74.5h-162q1 112 67 172.5t195 60.5q81 0 139.5 -27.5t88.5 -74t30 -101.5
q0 -49 -25 -90t-77 -62q59 -21 90 -65.5t31 -103.5q0 -64 -32 -113.5t-93.5 -78t-147.5 -28.5q-134 0 -205 62z" />
    <glyph glyph-name="four" unicode="4" horiz-adv-x="673" 
d="M35 297l328 423h185v-438h96v-140h-96v-142h-169v142h-344v155zM383 282v270l-204 -270h204z" />
    <glyph glyph-name="five" unicode="5" horiz-adv-x="598" 
d="M118 46q-71 58 -84 158h159q6 -37 34 -60.5t73 -23.5q50 0 81 34t31 87t-30.5 86.5t-81.5 33.5q-35 0 -60.5 -17t-39.5 -46h-156l63 422h429v-140h-299l-21 -136q47 34 117 34q78 0 131.5 -33t80 -87t26.5 -117q0 -76 -35.5 -133.5t-97 -88.5t-138.5 -31q-111 0 -182 58z
" />
    <glyph glyph-name="six" unicode="6" horiz-adv-x="621" 
d="M231 1q-40 13 -75 39q-118 84 -118 305q0 187 73 287t210 100q100 0 169 -55.5t83 -151.5h-155q-8 40 -34 61t-62 21q-60 0 -92.5 -47t-37.5 -151q58 66 155 66q81 0 135 -32.5t79.5 -85.5t25.5 -117q0 -76 -33 -133.5t-93.5 -88t-139.5 -30.5q-50 0 -90 13zM240 151
q28 -33 81 -33t80.5 33t27.5 86q0 52 -27.5 84.5t-80.5 32.5t-81 -32.5t-28 -84.5q0 -53 28 -86z" />
    <glyph glyph-name="seven" unicode="7" horiz-adv-x="534" 
d="M350 580h-335v140h504v-130l-253 -590h-173z" />
    <glyph glyph-name="eight" unicode="8" horiz-adv-x="613" 
d="M158.5 16q-63.5 28 -98.5 77.5t-35 113.5q0 60 29.5 104t84.5 70q-41 25 -63 64t-22 88q0 60 32 105t89.5 69.5t131.5 24.5t132 -24.5t90 -69.5t32 -105q0 -49 -22.5 -88t-63.5 -64q56 -26 85 -70.5t29 -103.5q0 -64 -34.5 -113.5t-98.5 -77.5t-149 -28t-148.5 28z
M220 147.5q30 -29.5 87 -29.5t87 29.5t30 74.5t-30.5 73.5t-86.5 28.5t-86.5 -28.5t-30.5 -73.5t30 -74.5zM232 456q27 -25 75 -25q49 0 76 25t27 64q0 40 -27.5 65.5t-75.5 25.5q-47 0 -74.5 -25.5t-27.5 -65.5q0 -39 27 -64z" />
    <glyph glyph-name="nine" unicode="9" horiz-adv-x="621" 
d="M390 719q40 -13 75 -39q118 -84 118 -305q0 -187 -73 -287t-210 -100q-100 0 -169 55.5t-83 151.5h155q8 -40 34 -61t62 -21q60 0 92.5 47t37.5 151q-58 -66 -155 -66q-81 0 -135 32.5t-79.5 85.5t-25.5 117q0 76 33 133.5t93.5 88t139.5 30.5q50 0 90 -13zM219.5 398.5
q27.5 -32.5 80.5 -32.5t81 32.5t28 84.5q0 53 -28 86t-81 33t-80.5 -33t-27.5 -86q0 -52 27.5 -84.5z" />
    <glyph glyph-name="colon" unicode=":" horiz-adv-x="249" 
d="M37 500h175v-179h-175v179zM37 179h175v-179h-175v179z" />
    <glyph glyph-name="semicolon" unicode=";" horiz-adv-x="292" 
d="M80 500h175v-179h-175v179zM254 179l-115 -335h-122l65 335h172z" />
    <glyph glyph-name="less" unicode="&#x3c;" horiz-adv-x="540" 
d="M508 624v-155l-324 -109l324 -109v-154l-476 186v154z" />
    <glyph glyph-name="equal" unicode="=" horiz-adv-x="540" 
d="M32 532h476v-133h-476v133zM32 322h476v-133h-476v133z" />
    <glyph glyph-name="greater" unicode="&#x3e;" horiz-adv-x="540" 
d="M32 97v154l324 109l-324 109v155l476 -187v-154z" />
    <glyph glyph-name="question" unicode="?" horiz-adv-x="562" 
d="M200 321.5q9 31.5 31 55t64 51.5q44 28 60 50t16 54q0 28 -23.5 48t-69.5 20q-49 0 -74 -27.5t-25 -77.5h-158q1 112 66 174.5t191 62.5q123 0 193 -52t70 -140q0 -61 -23.5 -100t-83.5 -75q-52 -33 -72 -58t-20 -66h-151q0 49 9 80.5zM179 179h175v-179h-175v179z" />
    <glyph glyph-name="at" unicode="@" horiz-adv-x="926" 
d="M237 -61.5q-100 54.5 -154.5 151t-54.5 218.5t54.5 218.5t154.5 151t230 54.5q131 0 228.5 -49.5t150 -140t52.5 -210.5q0 -73 -26 -131t-75.5 -90.5t-116.5 -32.5q-97 0 -128 67q-27 -36 -62.5 -51.5t-82.5 -15.5q-68 0 -111.5 35.5t-43.5 98.5q0 57 40 88.5t129 45.5
l114 19v19q0 23 -14 36t-49 13q-32 0 -51.5 -15t-19.5 -40h-133q0 74 57.5 114t144.5 40q96 0 146 -35.5t50 -97.5v-146q0 -35 12 -49t40 -14q36 0 51 39.5t15 102.5q0 149 -85 223t-232 74q-95 0 -168.5 -37t-115 -109.5t-41.5 -174.5t41.5 -175.5t115 -111.5t168.5 -38
q129 0 217 53v-103q-49 -23 -101 -36t-116 -13q-130 0 -230 54.5zM399 183.5q15 -11.5 44 -11.5q40 0 66 19.5t26 61.5v29l-88 -18q-35 -7 -49 -17t-14 -31t15 -32.5z" />
    <glyph glyph-name="A" unicode="A" horiz-adv-x="747" 
d="M518 132h-297l-45 -132h-172l265 720h201l273 -720h-180zM469 273l-99 291l-100 -291h199z" />
    <glyph glyph-name="B" unicode="B" horiz-adv-x="685" 
d="M57 720h304q133 0 203 -49.5t70 -138.5q0 -101 -90 -150q58 -25 89 -69.5t31 -100.5q0 -104 -69.5 -158t-203.5 -54h-334v720zM388 137q51 0 76.5 20t25.5 62q0 81 -102 81h-162v-163h162zM364 430q102 0 102 77q0 76 -102 76h-138v-153h138z" />
    <glyph glyph-name="C" unicode="C" horiz-adv-x="755" 
d="M195 37.5q-83 49.5 -125.5 134t-42.5 188.5t42.5 188.5t125.5 134t198 49.5q92 0 163 -35.5t115 -97.5t56 -141h-171q-15 57 -57.5 91t-105.5 34q-96 0 -143 -62.5t-47 -160.5t47 -160.5t143 -62.5q67 0 109 38.5t55 101.5h171q-10 -83 -53 -148.5t-115.5 -103
t-166.5 -37.5q-115 0 -198 49.5z" />
    <glyph glyph-name="D" unicode="D" horiz-adv-x="741" 
d="M57 720h288q123 0 206 -46.5t123 -127.5t40 -186t-40 -186t-123 -127.5t-206 -46.5h-288v720zM345 144q99 0 146 59.5t47 156.5t-47 156.5t-146 59.5h-119v-432h119z" />
    <glyph glyph-name="E" unicode="E" horiz-adv-x="633" 
d="M57 720h548v-151h-379v-132h350v-143h-350v-143h378v-151h-547v720z" />
    <glyph glyph-name="F" unicode="F" horiz-adv-x="600" 
d="M57 720h528v-151h-359v-132h340v-143h-340v-294h-169v720z" />
    <glyph glyph-name="G" unicode="G" horiz-adv-x="792" 
d="M186 37.5q-77 49.5 -118 134.5t-41 188q0 104 42.5 188.5t125.5 134t198 49.5q94 0 167 -33.5t117.5 -92.5t57.5 -135h-172q-17 52 -60.5 83t-109.5 31q-96 0 -143 -63.5t-47 -161.5t47 -161.5t143 -63.5q68 0 112 34t64 98h-206v133h382v-400h-121v124
q-74 -136 -259 -136q-102 0 -179 49.5z" />
    <glyph glyph-name="H" unicode="H" horiz-adv-x="742" 
d="M516 292h-290v-292h-169v720h169v-276h290v276h169v-720h-169v292z" />
    <glyph glyph-name="I" unicode="I" horiz-adv-x="283" 
d="M57 720h169v-720h-169v720z" />
    <glyph glyph-name="J" unicode="J" horiz-adv-x="579" 
d="M89.5 54q-64.5 66 -64.5 181v40h162v-40q0 -51 20.5 -77t67.5 -26t67.5 26t20.5 77v485h169v-485q0 -114 -67.5 -180.5t-189.5 -66.5q-121 0 -185.5 66z" />
    <glyph glyph-name="K" unicode="K" horiz-adv-x="740" 
d="M57 720h169v-323l302 323h208l-286 -292l286 -428h-202l-199 310l-109 -111v-199h-169v720z" />
    <glyph glyph-name="L" unicode="L" horiz-adv-x="574" 
d="M57 720h169v-569h333v-151h-502v720z" />
    <glyph glyph-name="M" unicode="M" horiz-adv-x="911" 
d="M218 527v-527h-161v720h252l146 -496l146 496h253v-720h-162v527l-166 -527h-141z" />
    <glyph glyph-name="N" unicode="N" horiz-adv-x="745" 
d="M219 483v-483h-162v720h183l286 -485v485h162v-720h-183z" />
    <glyph glyph-name="O" unicode="O" horiz-adv-x="786" 
d="M195 37.5q-83 49.5 -125.5 134t-42.5 188.5t42.5 188.5t125.5 134t198 49.5t198 -49.5t125.5 -134t42.5 -188.5t-42.5 -188.5t-125.5 -134t-198 -49.5t-198 49.5zM250 199.5q47 -62.5 143 -62.5t143 62.5t47 160.5t-47 160.5t-143 62.5t-143 -62.5t-47 -160.5t47 -160.5z
" />
    <glyph glyph-name="P" unicode="P" horiz-adv-x="672" 
d="M57 720h314q88 0 149.5 -31t93 -85.5t31.5 -124.5q0 -71 -31.5 -125.5t-93 -85.5t-149.5 -31h-145v-237h-169v720zM360 382q116 0 116 97t-116 97h-134v-194h134z" />
    <glyph glyph-name="Q" unicode="Q" horiz-adv-x="786" 
d="M508 3q-52 -15 -115 -15q-115 0 -198 49.5t-125.5 134t-42.5 188.5t42.5 188.5t125.5 134t198 49.5t198 -49.5t125.5 -134t42.5 -188.5q0 -94 -35.5 -173.5t-102.5 -129.5l88 -134h-148zM250 199.5q47 -62.5 143 -62.5q17 0 25 1l-93 141h149l57 -86q52 61 52 167
q0 98 -47 160.5t-143 62.5t-143 -62.5t-47 -160.5t47 -160.5z" />
    <glyph glyph-name="R" unicode="R" horiz-adv-x="691" 
d="M57 720h338q130 0 195 -59t65 -157q0 -55 -29 -99.5t-81 -76.5q45 -22 67.5 -57t29.5 -84l28 -187h-173l-24 162q-8 54 -34 79.5t-76 25.5h-137v-267h-169v720zM365 396q58 0 87 23t29 71t-29 71t-87 23h-139v-188h139z" />
    <glyph glyph-name="S" unicode="S" horiz-adv-x="662" 
d="M106 55.5q-83 67.5 -84 185.5h165q1 -68 43 -94t113 -26q56 0 89.5 22t33.5 60q0 22 -12 37t-47.5 28t-103.5 25q-140 22 -203 76.5t-63 151.5q0 61 34 109t98 75t151 27q141 0 218 -63.5t82 -180.5h-162q-3 57 -36.5 84t-101.5 27q-50 0 -80 -19.5t-30 -51.5
q0 -23 12 -39t45 -29t95 -23q106 -17 167 -46.5t86.5 -72.5t25.5 -105q0 -109 -84.5 -167t-220.5 -58q-147 0 -230 67.5z" />
    <glyph glyph-name="T" unicode="T" horiz-adv-x="637" 
d="M234 569h-221v151h611v-151h-220v-569h-170v569z" />
    <glyph glyph-name="U" unicode="U" horiz-adv-x="714" 
d="M196 21q-70 33 -109.5 97.5t-39.5 157.5v444h169v-444q0 -70 37 -105.5t104 -35.5t104 35.5t37 105.5v444h169v-444q0 -93 -39.5 -157.5t-109.5 -97.5t-161 -33t-161 33z" />
    <glyph glyph-name="V" unicode="V" horiz-adv-x="733" 
d="M4 720h181l185 -571l179 571h180l-263 -720h-199z" />
    <glyph glyph-name="W" unicode="W" horiz-adv-x="1011" 
d="M506 500l-110 -500h-191l-201 720h179l126 -522l111 522h171l111 -521l127 521h178l-201 -720h-190z" />
    <glyph glyph-name="X" unicode="X" horiz-adv-x="692" 
d="M344 224l-149 -224h-191l244 368l-234 352h195l137 -205l136 205h191l-232 -349l247 -371h-196z" />
    <glyph glyph-name="Y" unicode="Y" horiz-adv-x="725" 
d="M282 277l-278 443h194l168 -286l168 286h187l-270 -439v-281h-169v277z" />
    <glyph glyph-name="Z" unicode="Z" horiz-adv-x="654" 
d="M28 135l372 437l-182 -3h-178v151h581v-130l-378 -442l189 3h194v-151h-598v135z" />
    <glyph glyph-name="bracketleft" unicode="[" horiz-adv-x="380" 
d="M19 800h304v-131h-154v-738h154v-131h-304v1000z" />
    <glyph glyph-name="backslash" unicode="\" horiz-adv-x="418" 
d="M264 0l-262 720h152l262 -720h-152z" />
    <glyph glyph-name="bracketright" unicode="]" horiz-adv-x="376" 
d="M15 -69h154v738h-154v131h304v-1000h-304v131z" />
    <glyph glyph-name="underscore" unicode="_" horiz-adv-x="531" 
d="M-2 -65h535v-115h-535v115z" />
    <glyph glyph-name="grave" unicode="`" horiz-adv-x="269" 
d="M145 586l-145 146h171l98 -146h-124z" />
    <glyph glyph-name="a" unicode="a" horiz-adv-x="562" 
d="M377 55q-32 -36 -71.5 -51.5t-92.5 -15.5q-86 0 -138.5 42t-52.5 118q0 69 48.5 105.5t160.5 55.5l142 24v21q0 30 -18 46.5t-62 16.5q-40 0 -63.5 -18t-24.5 -49h-156q1 88 68 135t174 47q116 0 175.5 -42t59.5 -117v-373h-149v55zM201.5 111.5q19.5 -15.5 56.5 -15.5
q49 0 82 25.5t33 76.5v39l-110 -22q-43 -8 -62 -21t-19 -40t19.5 -42.5z" />
    <glyph glyph-name="b" unicode="b" horiz-adv-x="610" 
d="M48 720h157v-258q54 70 152 70q72 0 123 -35t77 -97t26 -140t-26 -140t-77 -97t-123 -35q-102 0 -157 77v-65h-152v720zM230 152.5q27 -38.5 84 -38.5t84 38.5t27 107.5t-27 107.5t-84 38.5t-84 -38.5t-27 -107.5t27 -107.5z" />
    <glyph glyph-name="c" unicode="c" horiz-adv-x="566" 
d="M151 23q-60 35 -91.5 97t-31.5 140t31.5 140t91.5 97t142 35q112 0 177.5 -55.5t77.5 -149.5h-156q-8 38 -33.5 58.5t-65.5 20.5q-54 0 -80.5 -38.5t-26.5 -107.5t26.5 -107.5t80.5 -38.5q42 0 67 23t32 66h156q-12 -98 -77.5 -156.5t-177.5 -58.5q-82 0 -142 35z" />
    <glyph glyph-name="d" unicode="d" horiz-adv-x="610" 
d="M410 0v65q-55 -77 -157 -77q-72 0 -123 35t-77 97t-26 140t26 140t77 97t123 35q98 0 152 -70v258h157v-720h-152zM212 152.5q27 -38.5 84 -38.5t84 38.5t27 107.5t-27 107.5t-84 38.5t-84 -38.5t-27 -107.5t27 -107.5z" />
    <glyph glyph-name="e" unicode="e" horiz-adv-x="589" 
d="M150.5 23q-60.5 35 -92 97t-31.5 140t31.5 140t92 97t143.5 35q128 0 198 -77t70 -212v-30h-383q9 -52 38.5 -80t76.5 -28q41 0 67.5 13.5t41.5 41.5h150q-26 -79 -93.5 -125.5t-165.5 -46.5q-83 0 -143.5 35zM409 314q-11 48 -40.5 74.5t-74.5 26.5t-74 -26.5t-40 -74.5
h229z" />
    <glyph glyph-name="f" unicode="f" horiz-adv-x="408" 
d="M143.5 690.5q42.5 29.5 118.5 29.5h122v-115h-79q-26 0 -36.5 -10.5t-10.5 -33.5v-41h126v-115h-126v-405h-157v405h-87v115h87v56q0 85 42.5 114.5z" />
    <glyph glyph-name="g" unicode="g" horiz-adv-x="610" 
d="M111 -161.5q-63 50.5 -67 138.5h154q7 -71 96 -71q48 0 79.5 24t31.5 83v65q-54 -67 -152 -67q-72 0 -123 33.5t-77 92.5t-26 134t26 134.5t77 93t123 33.5q102 0 156 -72v60h153v-507q0 -109 -77 -167t-198 -58q-113 0 -176 50.5zM212 168.5q27 -36.5 84 -36.5t84 36.5
t27 102.5q0 67 -27 103.5t-84 36.5t-84 -36.5t-27 -103.5q0 -66 27 -102.5z" />
    <glyph glyph-name="h" unicode="h" 
d="M48 720h157v-265q29 36 69 56.5t90 20.5q86 0 135.5 -54.5t49.5 -160.5v-317h-157v298q0 99 -86 99q-43 0 -72 -29.5t-29 -85.5v-282h-157v720z" />
    <glyph glyph-name="i" unicode="i" horiz-adv-x="252" 
d="M47 520h157v-520h-157v520zM47 720h157v-129h-157v129z" />
    <glyph glyph-name="j" unicode="j" horiz-adv-x="258" 
d="M168.5 -170q-42.5 -30 -118.5 -30h-110v115h67q27 0 37 10.5t10 34.5v560h157v-576q0 -84 -42.5 -114zM54 720h157v-129h-157v129z" />
    <glyph glyph-name="k" unicode="k" horiz-adv-x="588" 
d="M48 720h155v-397l190 197h181l-194 -196l205 -324h-181l-132 215l-69 -70v-145h-155v720z" />
    <glyph glyph-name="l" unicode="l" horiz-adv-x="343" 
d="M205 720v-560q0 -24 10 -34.5t37 -10.5h67v-115h-110q-76 0 -118.5 30t-42.5 114v576h157z" />
    <glyph glyph-name="m" unicode="m" horiz-adv-x="904" 
d="M681 370q-18 27 -58 27q-42 0 -67 -29.5t-25 -85.5v-282h-157v298q0 45 -18.5 72t-58.5 27q-42 0 -67 -29.5t-25 -85.5v-282h-157v520h153v-74q26 40 64.5 63t89.5 23t91 -24t62 -71q30 43 74.5 69t98.5 26q79 0 127 -55t48 -160v-317h-157v298q0 45 -18 72z" />
    <glyph glyph-name="n" unicode="n" 
d="M306 397q-43 0 -72 -29.5t-29 -85.5v-282h-157v520h153v-70q29 38 70 60t93 22q86 0 135.5 -54.5t49.5 -160.5v-317h-157v298q0 99 -86 99z" />
    <glyph glyph-name="o" unicode="o" 
d="M151.5 23q-61.5 35 -93 97t-31.5 140t31.5 140t93 97t146.5 35q86 0 147.5 -35t93 -97t31.5 -140t-31.5 -140t-93 -97t-147.5 -35q-85 0 -146.5 35zM212.5 152q27.5 -38 85.5 -38q59 0 86.5 38t27.5 108t-27.5 108t-86.5 38q-58 0 -85.5 -38t-27.5 -108t27.5 -108z" />
    <glyph glyph-name="p" unicode="p" horiz-adv-x="610" 
d="M200 520v-65q55 77 157 77q72 0 123 -35t77 -97t26 -140t-26 -140t-77 -97t-123 -35q-98 0 -152 70v-258h-157v720h152zM230 152.5q27 -38.5 84 -38.5t84 38.5t27 107.5t-27 107.5t-84 38.5t-84 -38.5t-27 -107.5t27 -107.5z" />
    <glyph glyph-name="q" unicode="q" horiz-adv-x="610" 
d="M562 -200h-157v258q-54 -70 -152 -70q-72 0 -123 35t-77 97t-26 140t26 140t77 97t123 35q102 0 157 -77v65h152v-720zM212 152.5q27 -38.5 84 -38.5t84 38.5t27 107.5t-27 107.5t-84 38.5t-84 -38.5t-27 -107.5t27 -107.5z" />
    <glyph glyph-name="r" unicode="r" horiz-adv-x="418" 
d="M48 520h153v-95q44 101 150 101h43v-143h-50q-69 0 -104 -34.5t-35 -116.5v-232h-157v520z" />
    <glyph glyph-name="s" unicode="s" horiz-adv-x="527" 
d="M86 31q-64 43 -70 140h150q5 -44 31.5 -61.5t75.5 -17.5q37 0 60 13t23 36q0 17 -8 27t-32 18t-75 17q-120 21 -168 60t-48 106q0 77 62 120t170 43q118 0 177.5 -48.5t62.5 -131.5h-143q-2 76 -97 76q-36 0 -58 -13t-22 -36q0 -16 10 -26.5t36.5 -18t76.5 -15.5
q117 -18 164 -58t47 -109q0 -78 -66.5 -121t-178.5 -43q-116 0 -180 43z" />
    <glyph glyph-name="t" unicode="t" horiz-adv-x="408" 
d="M258 680v-160h126v-115h-126v-245q0 -24 10.5 -34.5t36.5 -10.5h79v-115h-122q-76 0 -118.5 30t-42.5 114v261h-87v115h87v160h157z" />
    <glyph glyph-name="u" unicode="u" 
d="M291 123q43 0 72 29.5t29 85.5v282h157v-520h-153v70q-29 -38 -70 -60t-93 -22q-86 0 -135.5 54.5t-49.5 160.5v317h157v-298q0 -99 86 -99z" />
    <glyph glyph-name="v" unicode="v" horiz-adv-x="573" 
d="M4 520h169l116 -384l111 384h169l-191 -520h-184z" />
    <glyph glyph-name="w" unicode="w" horiz-adv-x="876" 
d="M438 329l-92 -329h-165l-177 520h169l101 -340l91 340h146l91 -340l101 340h169l-178 -520h-164z" />
    <glyph glyph-name="x" unicode="x" horiz-adv-x="555" 
d="M277 142l-100 -142h-175l187 267l-177 253h178l88 -126l88 126h175l-175 -251l188 -269h-178z" />
    <glyph glyph-name="y" unicode="y" horiz-adv-x="567" 
d="M31 -76h86q39 0 54.5 12.5t27.5 51.5l1 2l-196 530h169l112 -380l109 380h169l-202 -558q-29 -80 -74 -121t-126 -41h-130v124z" />
    <glyph glyph-name="z" unicode="z" horiz-adv-x="531" 
d="M38 102l253 299h-250v119h442v-102l-254 -299h264v-119h-455v102z" />
    <glyph glyph-name="braceleft" unicode="{" horiz-adv-x="435" 
d="M148 -165.5q-48 34.5 -48 119.5v219q0 32 -18.5 47.5t-66.5 15.5v128q48 0 66.5 15.5t18.5 47.5v219q0 154 171 154h133v-129h-101q-27 0 -42 -15.5t-15 -38.5v-218q0 -46 -24 -69t-67 -30q43 -7 67 -30t24 -69v-217q0 -24 15 -39.5t42 -15.5h101v-129h-133
q-75 0 -123 34.5z" />
    <glyph glyph-name="bar" unicode="|" horiz-adv-x="247" 
d="M58 810h131v-1030h-131v1030z" />
    <glyph glyph-name="braceright" unicode="}" horiz-adv-x="435" 
d="M15 -71h101q27 0 42 15.5t15 39.5v217q0 46 24 69t67 30q-43 7 -67 30t-24 69v218q0 23 -15 38.5t-42 15.5h-101v129h133q171 0 171 -154v-219q0 -32 18.5 -47.5t66.5 -15.5v-128q-48 0 -66.5 -15.5t-18.5 -47.5v-219q0 -85 -48 -119.5t-123 -34.5h-133v129z" />
    <glyph glyph-name="exclamdown" unicode="&#xa1;" horiz-adv-x="246" 
d="M166 279l41 -259v-220h-169v220l41 259h87zM35 520h175v-179h-175v179z" />
    <glyph glyph-name="cent" unicode="&#xa2;" horiz-adv-x="566" 
d="M255 -10q-107 12 -167 86t-60 184t60 184t167 86v104h76v-104q95 -10 150 -63.5t67 -139.5h-156q-11 56 -61 73v-280q50 18 61 83h156q-12 -90 -67 -147t-150 -66v-104h-76v104zM203 168.5q17 -36.5 52 -48.5v280q-35 -12 -52 -48.5t-17 -91.5t17 -91.5z" />
    <glyph glyph-name="sterling" unicode="&#xa3;" horiz-adv-x="611" 
d="M134 261q0 10 -4 32h-112v79h82q-22 44 -32 76t-10 72q0 62 33 110.5t92 75t134 26.5q130 0 198 -65.5t68 -185.5h-162q1 54 -26.5 82.5t-77.5 28.5q-43 0 -69 -21.5t-26 -60.5q0 -27 9 -53t28 -64l10 -21h211v-79h-186q3 -41 -13.5 -80t-49.5 -73h359v-140h-555v133
q99 51 99 128z" />
    <glyph glyph-name="yen" unicode="&#xa5;" horiz-adv-x="725" 
d="M123 334h123l-242 386h194l168 -286l168 286h187l-237 -386h118v-79h-151v-73h151v-79h-151v-103h-169v103h-159v79h159v73h-159v79z" />
    <glyph glyph-name="dieresis" unicode="&#xa8;" horiz-adv-x="376" 
d="M0 720h157v-129h-157v129zM219 720h157v-129h-157v129z" />
    <glyph glyph-name="copyright" unicode="&#xa9;" horiz-adv-x="826" 
d="M278 218.5q-51 55.5 -51 141.5t51 141.5t139 55.5q81 0 128 -40.5t56 -109.5h-114q-5 27 -23 42t-47 15q-39 0 -57.5 -27t-18.5 -77t18.5 -77.5t57.5 -27.5q31 0 49 17t21 47h114q-9 -71 -56 -113.5t-128 -42.5q-88 0 -139 55.5zM79.5 552q50.5 85 138 132.5t195.5 47.5
t196 -47.5t138.5 -132.5t50.5 -192t-50.5 -192t-138.5 -132.5t-196 -47.5t-195.5 47.5t-138 132.5t-50.5 192t50.5 192zM178.5 220q34.5 -60 95.5 -92.5t139 -32.5t139 32.5t95.5 92.5t34.5 140t-34.5 140t-95.5 92.5t-139 32.5t-139 -32.5t-95.5 -92.5t-34.5 -140
t34.5 -140z" />
    <glyph glyph-name="registered" unicode="&#xae;" horiz-adv-x="826" 
d="M258 546h182q68 0 102 -31t34 -82q0 -29 -15 -52.5t-41 -39.5q24 -12 35.5 -31t14.5 -45l14 -91h-102l-11 80q-6 52 -52 52h-61v-132h-100v372zM79.5 552q50.5 85 138 132.5t195.5 47.5t196 -47.5t138.5 -132.5t50.5 -192t-50.5 -192t-138.5 -132.5t-196 -47.5
t-195.5 47.5t-138 132.5t-50.5 192t50.5 192zM178.5 220q34.5 -60 95.5 -92.5t139 -32.5t139 32.5t95.5 92.5t34.5 140t-34.5 140t-95.5 92.5t-139 32.5t-139 -32.5t-95.5 -92.5t-34.5 -140t34.5 -140zM421 380q26 0 39.5 10.5t13.5 33.5t-13 33t-40 10h-63v-87h63z" />
    <glyph glyph-name="degree" unicode="&#xb0;" horiz-adv-x="361" 
d="M100.5 449.5q-36.5 19.5 -58 54t-21.5 77.5t21.5 77.5t58 54t80.5 19.5t80 -19.5t57.5 -54t21.5 -77.5t-21.5 -77.5t-57.5 -54t-80 -19.5t-80.5 19.5zM137 537.5q17 -17.5 44 -17.5q26 0 43 17.5t17 43.5t-17 43t-43 17q-27 0 -44 -17t-17 -43t17 -43.5z" />
    <glyph glyph-name="acute" unicode="&#xb4;" horiz-adv-x="269" 
d="M98 732h171l-145 -146h-124z" />
    <glyph glyph-name="periodcentered" unicode="&#xb7;" horiz-adv-x="249" 
d="M37 450h175v-179h-175v179z" />
    <glyph glyph-name="cedilla" unicode="&#xb8;" horiz-adv-x="229" 
d="M0 -216v58q33 -6 57 -6q67 0 67 39q0 36 -59 36q-20 0 -30 -2v40l43 57h76l-48 -50h9q54 0 86 -21.5t32 -59.5q0 -42 -39.5 -70.5t-118.5 -28.5q-42 0 -75 8z" />
    <glyph glyph-name="questiondown" unicode="&#xbf;" horiz-adv-x="562" 
d="M362 198.5q-9 -31.5 -31 -55t-64 -51.5q-44 -28 -60 -50t-16 -54q0 -28 23.5 -48t69.5 -20q49 0 74 27.5t25 77.5h158q-1 -112 -66 -174.5t-191 -62.5q-123 0 -193 52t-70 140q0 61 23.5 100t83.5 75q52 33 72 58t20 66h151q0 -49 -9 -80.5zM208 520h175v-179h-175v179z
" />
    <glyph glyph-name="Agrave" unicode="&#xc0;" horiz-adv-x="747" 
d="M518 132h-297l-45 -132h-172l265 720h201l273 -720h-180zM469 273l-99 291l-100 -291h199zM308 768l-145 146h171l98 -146h-124z" />
    <glyph glyph-name="Aacute" unicode="&#xc1;" horiz-adv-x="747" 
d="M518 132h-297l-45 -132h-172l265 720h201l273 -720h-180zM469 273l-99 291l-100 -291h199zM406 914h171l-145 -146h-124z" />
    <glyph glyph-name="Acircumflex" unicode="&#xc2;" horiz-adv-x="747" 
d="M518 132h-297l-45 -132h-172l265 720h201l273 -720h-180zM469 273l-99 291l-100 -291h199zM583 768h-138l-75 73l-76 -73h-138l127 146h173z" />
    <glyph glyph-name="Atilde" unicode="&#xc3;" horiz-adv-x="747" 
d="M518 132h-297l-45 -132h-172l265 720h201l273 -720h-180zM469 273l-99 291l-100 -291h199zM210 876q31 35 84 35q18 0 35 -5t41 -15q6 -2 26 -10.5t34 -8.5q17 0 24.5 9t7.5 30h98q0 -73 -31 -108t-84 -35q-18 0 -33.5 4.5t-41.5 14.5q-5 2 -25.5 11t-35.5 9
q-16 0 -23.5 -9t-7.5 -30h-99q0 73 31 108z" />
    <glyph glyph-name="Adieresis" unicode="&#xc4;" horiz-adv-x="747" 
d="M518 132h-297l-45 -132h-172l265 720h201l273 -720h-180zM469 273l-99 291l-100 -291h199zM182 897h157v-129h-157v129zM401 897h157v-129h-157v129z" />
    <glyph glyph-name="Aring" unicode="&#xc5;" horiz-adv-x="747" 
d="M518 132h-297l-45 -132h-172l250 678q-39 42 -39 98q0 42 20.5 75.5t56 52.5t78.5 19t78.5 -19t56 -52.5t20.5 -75.5q0 -57 -39 -98l257 -678h-180zM469 273l-99 291l-100 -291h199zM329 735.5q16 -15.5 41 -15.5t41 15.5t16 40.5t-16 41t-41 16t-41 -16t-16 -41
t16 -40.5z" />
    <glyph glyph-name="Ccedilla" unicode="&#xc7;" horiz-adv-x="755" 
d="M282 -228v58q33 -6 57 -6q67 0 67 39q0 36 -59 36q-20 0 -30 -2v40l40 52q-104 8 -178.5 59t-113 132.5t-38.5 179.5q0 104 42.5 188.5t125.5 134t198 49.5q92 0 163 -35.5t115 -97.5t56 -141h-171q-15 57 -57.5 91t-105.5 34q-96 0 -143 -62.5t-47 -160.5t47 -160.5
t143 -62.5q67 0 109 38.5t55 101.5h171q-9 -77 -47 -139.5t-101.5 -101.5t-147.5 -46l-44 -46h9q54 0 86 -21.5t32 -59.5q0 -42 -39.5 -70.5t-118.5 -28.5q-42 0 -75 8z" />
    <glyph glyph-name="Egrave" unicode="&#xc8;" horiz-adv-x="633" 
d="M57 720h548v-151h-379v-132h350v-143h-350v-143h378v-151h-547v720zM269 768l-145 146h171l98 -146h-124z" />
    <glyph glyph-name="Eacute" unicode="&#xc9;" horiz-adv-x="633" 
d="M57 720h548v-151h-379v-132h350v-143h-350v-143h378v-151h-547v720zM367 914h171l-145 -146h-124z" />
    <glyph glyph-name="Ecircumflex" unicode="&#xca;" horiz-adv-x="633" 
d="M57 720h548v-151h-379v-132h350v-143h-350v-143h378v-151h-547v720zM545 768h-138l-75 73l-76 -73h-138l127 146h173z" />
    <glyph glyph-name="Edieresis" unicode="&#xcb;" horiz-adv-x="633" 
d="M57 720h548v-151h-379v-132h350v-143h-350v-143h378v-151h-547v720zM143 897h157v-129h-157v129zM362 897h157v-129h-157v129z" />
    <glyph glyph-name="Igrave" unicode="&#xcc;" horiz-adv-x="283" 
d="M57 720h169v-720h-169v720zM80 768l-145 146h171l98 -146h-124z" />
    <glyph glyph-name="Iacute" unicode="&#xcd;" horiz-adv-x="283" 
d="M57 720h169v-720h-169v720zM177 914h171l-145 -146h-124z" />
    <glyph glyph-name="Icircumflex" unicode="&#xce;" horiz-adv-x="283" 
d="M57 720h169v-720h-169v720zM355 768h-138l-75 73l-76 -73h-138l127 146h173z" />
    <glyph glyph-name="Idieresis" unicode="&#xcf;" horiz-adv-x="283" 
d="M57 720h169v-720h-169v720zM-46 897h157v-129h-157v129zM173 897h157v-129h-157v129z" />
    <glyph glyph-name="Ntilde" unicode="&#xd1;" horiz-adv-x="745" 
d="M219 483v-483h-162v720h183l286 -485v485h162v-720h-183zM213 876q31 35 84 35q18 0 35 -5t41 -15q6 -2 26 -10.5t34 -8.5q17 0 24.5 9t7.5 30h98q0 -73 -31 -108t-84 -35q-18 0 -33.5 4.5t-41.5 14.5q-5 2 -25.5 11t-35.5 9q-16 0 -23.5 -9t-7.5 -30h-99q0 73 31 108z
" />
    <glyph glyph-name="Ograve" unicode="&#xd2;" horiz-adv-x="786" 
d="M195 37.5q-83 49.5 -125.5 134t-42.5 188.5t42.5 188.5t125.5 134t198 49.5t198 -49.5t125.5 -134t42.5 -188.5t-42.5 -188.5t-125.5 -134t-198 -49.5t-198 49.5zM250 199.5q47 -62.5 143 -62.5t143 62.5t47 160.5t-47 160.5t-143 62.5t-143 -62.5t-47 -160.5t47 -160.5z
M331 780l-145 146h171l98 -146h-124z" />
    <glyph glyph-name="Oacute" unicode="&#xd3;" horiz-adv-x="786" 
d="M195 37.5q-83 49.5 -125.5 134t-42.5 188.5t42.5 188.5t125.5 134t198 49.5t198 -49.5t125.5 -134t42.5 -188.5t-42.5 -188.5t-125.5 -134t-198 -49.5t-198 49.5zM250 199.5q47 -62.5 143 -62.5t143 62.5t47 160.5t-47 160.5t-143 62.5t-143 -62.5t-47 -160.5t47 -160.5z
M429 926h171l-145 -146h-124z" />
    <glyph glyph-name="Ocircumflex" unicode="&#xd4;" horiz-adv-x="786" 
d="M195 37.5q-83 49.5 -125.5 134t-42.5 188.5t42.5 188.5t125.5 134t198 49.5t198 -49.5t125.5 -134t42.5 -188.5t-42.5 -188.5t-125.5 -134t-198 -49.5t-198 49.5zM250 199.5q47 -62.5 143 -62.5t143 62.5t47 160.5t-47 160.5t-143 62.5t-143 -62.5t-47 -160.5t47 -160.5z
M607 780h-138l-75 73l-76 -73h-138l127 146h173z" />
    <glyph glyph-name="Otilde" unicode="&#xd5;" horiz-adv-x="786" 
d="M195 37.5q-83 49.5 -125.5 134t-42.5 188.5t42.5 188.5t125.5 134t198 49.5t198 -49.5t125.5 -134t42.5 -188.5t-42.5 -188.5t-125.5 -134t-198 -49.5t-198 49.5zM250 199.5q47 -62.5 143 -62.5t143 62.5t47 160.5t-47 160.5t-143 62.5t-143 -62.5t-47 -160.5t47 -160.5z
M233 888q31 35 84 35q18 0 35 -5t41 -15q6 -2 26 -10.5t34 -8.5q17 0 24.5 9t7.5 30h98q0 -73 -31 -108t-84 -35q-18 0 -33.5 4.5t-41.5 14.5q-5 2 -25.5 11t-35.5 9q-16 0 -23.5 -9t-7.5 -30h-99q0 73 31 108z" />
    <glyph glyph-name="Odieresis" unicode="&#xd6;" horiz-adv-x="786" 
d="M195 37.5q-83 49.5 -125.5 134t-42.5 188.5t42.5 188.5t125.5 134t198 49.5t198 -49.5t125.5 -134t42.5 -188.5t-42.5 -188.5t-125.5 -134t-198 -49.5t-198 49.5zM250 199.5q47 -62.5 143 -62.5t143 62.5t47 160.5t-47 160.5t-143 62.5t-143 -62.5t-47 -160.5t47 -160.5z
M205 909h157v-129h-157v129zM424 909h157v-129h-157v129z" />
    <glyph glyph-name="multiply" unicode="&#xd7;" horiz-adv-x="515" 
d="M137 576l121 -121l121 121l94 -94l-121 -121l121 -122l-94 -94l-121 121l-121 -121l-94 94l121 122l-121 121z" />
    <glyph glyph-name="Ugrave" unicode="&#xd9;" horiz-adv-x="714" 
d="M196 21q-70 33 -109.5 97.5t-39.5 157.5v444h169v-444q0 -70 37 -105.5t104 -35.5t104 35.5t37 105.5v444h169v-444q0 -93 -39.5 -157.5t-109.5 -97.5t-161 -33t-161 33zM295 768l-145 146h171l98 -146h-124z" />
    <glyph glyph-name="Uacute" unicode="&#xda;" horiz-adv-x="714" 
d="M196 21q-70 33 -109.5 97.5t-39.5 157.5v444h169v-444q0 -70 37 -105.5t104 -35.5t104 35.5t37 105.5v444h169v-444q0 -93 -39.5 -157.5t-109.5 -97.5t-161 -33t-161 33zM393 914h171l-145 -146h-124z" />
    <glyph glyph-name="Ucircumflex" unicode="&#xdb;" horiz-adv-x="714" 
d="M196 21q-70 33 -109.5 97.5t-39.5 157.5v444h169v-444q0 -70 37 -105.5t104 -35.5t104 35.5t37 105.5v444h169v-444q0 -93 -39.5 -157.5t-109.5 -97.5t-161 -33t-161 33zM570 768h-138l-75 73l-76 -73h-138l127 146h173z" />
    <glyph glyph-name="Udieresis" unicode="&#xdc;" horiz-adv-x="714" 
d="M196 21q-70 33 -109.5 97.5t-39.5 157.5v444h169v-444q0 -70 37 -105.5t104 -35.5t104 35.5t37 105.5v444h169v-444q0 -93 -39.5 -157.5t-109.5 -97.5t-161 -33t-161 33zM169 897h157v-129h-157v129zM388 897h157v-129h-157v129z" />
    <glyph glyph-name="Yacute" unicode="&#xdd;" horiz-adv-x="725" 
d="M282 277l-278 443h194l168 -286l168 286h187l-270 -439v-281h-169v277zM402 914h171l-145 -146h-124z" />
    <glyph glyph-name="germandbls" unicode="&#xdf;" horiz-adv-x="601" 
d="M112.5 673q64.5 59 182.5 59q69 0 122 -25t82.5 -70t29.5 -102q0 -46 -18.5 -83t-52.5 -63q58 -25 87.5 -69.5t29.5 -105.5q0 -109 -68 -167.5t-196 -58.5q-31 0 -54 5v124q27 -5 47 -5q49 0 79.5 27t30.5 75q0 51 -31 77t-86 26h-33v106h31q41 0 66 23.5t25 63.5
t-25.5 63.5t-65.5 23.5q-41 0 -65.5 -24.5t-24.5 -67.5v-505h-157v505q0 109 64.5 168z" />
    <glyph glyph-name="agrave" unicode="&#xe0;" horiz-adv-x="562" 
d="M377 55q-32 -36 -71.5 -51.5t-92.5 -15.5q-86 0 -138.5 42t-52.5 118q0 69 48.5 105.5t160.5 55.5l142 24v21q0 30 -18 46.5t-62 16.5q-40 0 -63.5 -18t-24.5 -49h-156q1 88 68 135t174 47q116 0 175.5 -42t59.5 -117v-373h-149v55zM201.5 111.5q19.5 -15.5 56.5 -15.5
q49 0 82 25.5t33 76.5v39l-110 -22q-43 -8 -62 -21t-19 -40t19.5 -42.5zM226 586l-145 146h171l98 -146h-124z" />
    <glyph glyph-name="aacute" unicode="&#xe1;" horiz-adv-x="562" 
d="M377 55q-32 -36 -71.5 -51.5t-92.5 -15.5q-86 0 -138.5 42t-52.5 118q0 69 48.5 105.5t160.5 55.5l142 24v21q0 30 -18 46.5t-62 16.5q-40 0 -63.5 -18t-24.5 -49h-156q1 88 68 135t174 47q116 0 175.5 -42t59.5 -117v-373h-149v55zM201.5 111.5q19.5 -15.5 56.5 -15.5
q49 0 82 25.5t33 76.5v39l-110 -22q-43 -8 -62 -21t-19 -40t19.5 -42.5zM324 732h171l-145 -146h-124z" />
    <glyph glyph-name="acircumflex" unicode="&#xe2;" horiz-adv-x="562" 
d="M377 55q-32 -36 -71.5 -51.5t-92.5 -15.5q-86 0 -138.5 42t-52.5 118q0 69 48.5 105.5t160.5 55.5l142 24v21q0 30 -18 46.5t-62 16.5q-40 0 -63.5 -18t-24.5 -49h-156q1 88 68 135t174 47q116 0 175.5 -42t59.5 -117v-373h-149v55zM201.5 111.5q19.5 -15.5 56.5 -15.5
q49 0 82 25.5t33 76.5v39l-110 -22q-43 -8 -62 -21t-19 -40t19.5 -42.5zM501 586h-138l-75 73l-76 -73h-138l127 146h173z" />
    <glyph glyph-name="atilde" unicode="&#xe3;" horiz-adv-x="562" 
d="M377 55q-32 -36 -71.5 -51.5t-92.5 -15.5q-86 0 -138.5 42t-52.5 118q0 69 48.5 105.5t160.5 55.5l142 24v21q0 30 -18 46.5t-62 16.5q-40 0 -63.5 -18t-24.5 -49h-156q1 88 68 135t174 47q116 0 175.5 -42t59.5 -117v-373h-149v55zM201.5 111.5q19.5 -15.5 56.5 -15.5
q49 0 82 25.5t33 76.5v39l-110 -22q-43 -8 -62 -21t-19 -40t19.5 -42.5zM128 697q31 35 84 35q18 0 35 -5t41 -15q6 -2 26 -10.5t34 -8.5q17 0 24.5 9t7.5 30h98q0 -73 -31 -108t-84 -35q-18 0 -33.5 4.5t-41.5 14.5q-5 2 -25.5 11t-35.5 9q-16 0 -23.5 -9t-7.5 -30h-99
q0 73 31 108z" />
    <glyph glyph-name="adieresis" unicode="&#xe4;" horiz-adv-x="562" 
d="M377 55q-32 -36 -71.5 -51.5t-92.5 -15.5q-86 0 -138.5 42t-52.5 118q0 69 48.5 105.5t160.5 55.5l142 24v21q0 30 -18 46.5t-62 16.5q-40 0 -63.5 -18t-24.5 -49h-156q1 88 68 135t174 47q116 0 175.5 -42t59.5 -117v-373h-149v55zM201.5 111.5q19.5 -15.5 56.5 -15.5
q49 0 82 25.5t33 76.5v39l-110 -22q-43 -8 -62 -21t-19 -40t19.5 -42.5zM100 720h157v-129h-157v129zM319 720h157v-129h-157v129z" />
    <glyph glyph-name="aring" unicode="&#xe5;" horiz-adv-x="562" 
d="M377 55q-32 -36 -71.5 -51.5t-92.5 -15.5q-86 0 -138.5 42t-52.5 118q0 69 48.5 105.5t160.5 55.5l142 24v21q0 30 -18 46.5t-62 16.5q-40 0 -63.5 -18t-24.5 -49h-156q1 88 68 135t174 47q116 0 175.5 -42t59.5 -117v-373h-149v55zM201.5 111.5q19.5 -15.5 56.5 -15.5
q49 0 82 25.5t33 76.5v39l-110 -22q-43 -8 -62 -21t-19 -40t19.5 -42.5zM209.5 599q-35.5 19 -56 52.5t-20.5 74.5q0 42 20.5 75.5t56 52.5t78.5 19t78.5 -19t56 -52.5t20.5 -75.5q0 -41 -20.5 -74.5t-56 -52.5t-78.5 -19t-78.5 19zM247 685.5q16 -15.5 41 -15.5t41 15.5
t16 40.5t-16 41t-41 16t-41 -16t-16 -41t16 -40.5z" />
    <glyph glyph-name="ccedilla" unicode="&#xe7;" horiz-adv-x="566" 
d="M182 -228v58q33 -6 57 -6q67 0 67 39q0 36 -59 36q-20 0 -30 -2v40l40 53q-108 11 -168.5 85t-60.5 185q0 78 31.5 140t91.5 97t142 35q112 0 177.5 -55.5t77.5 -149.5h-156q-8 38 -33.5 58.5t-65.5 20.5q-54 0 -80.5 -38.5t-26.5 -107.5t26.5 -107.5t80.5 -38.5
q42 0 67 23t32 66h156q-12 -89 -66.5 -146t-149.5 -67l-44 -46h9q54 0 86 -21.5t32 -59.5q0 -42 -39.5 -70.5t-118.5 -28.5q-42 0 -75 8z" />
    <glyph glyph-name="egrave" unicode="&#xe8;" horiz-adv-x="589" 
d="M150.5 23q-60.5 35 -92 97t-31.5 140t31.5 140t92 97t143.5 35q128 0 198 -77t70 -212v-30h-383q9 -52 38.5 -80t76.5 -28q41 0 67.5 13.5t41.5 41.5h150q-26 -79 -93.5 -125.5t-165.5 -46.5q-83 0 -143.5 35zM409 314q-11 48 -40.5 74.5t-74.5 26.5t-74 -26.5t-40 -74.5
h229zM233 586l-145 146h171l98 -146h-124z" />
    <glyph glyph-name="eacute" unicode="&#xe9;" horiz-adv-x="589" 
d="M150.5 23q-60.5 35 -92 97t-31.5 140t31.5 140t92 97t143.5 35q128 0 198 -77t70 -212v-30h-383q9 -52 38.5 -80t76.5 -28q41 0 67.5 13.5t41.5 41.5h150q-26 -79 -93.5 -125.5t-165.5 -46.5q-83 0 -143.5 35zM409 314q-11 48 -40.5 74.5t-74.5 26.5t-74 -26.5t-40 -74.5
h229zM330 732h171l-145 -146h-124z" />
    <glyph glyph-name="ecircumflex" unicode="&#xea;" horiz-adv-x="589" 
d="M150.5 23q-60.5 35 -92 97t-31.5 140t31.5 140t92 97t143.5 35q128 0 198 -77t70 -212v-30h-383q9 -52 38.5 -80t76.5 -28q41 0 67.5 13.5t41.5 41.5h150q-26 -79 -93.5 -125.5t-165.5 -46.5q-83 0 -143.5 35zM409 314q-11 48 -40.5 74.5t-74.5 26.5t-74 -26.5t-40 -74.5
h229zM508 586h-138l-75 73l-76 -73h-138l127 146h173z" />
    <glyph glyph-name="edieresis" unicode="&#xeb;" horiz-adv-x="589" 
d="M150.5 23q-60.5 35 -92 97t-31.5 140t31.5 140t92 97t143.5 35q128 0 198 -77t70 -212v-30h-383q9 -52 38.5 -80t76.5 -28q41 0 67.5 13.5t41.5 41.5h150q-26 -79 -93.5 -125.5t-165.5 -46.5q-83 0 -143.5 35zM409 314q-11 48 -40.5 74.5t-74.5 26.5t-74 -26.5t-40 -74.5
h229zM107 720h157v-129h-157v129zM326 720h157v-129h-157v129z" />
    <glyph glyph-name="igrave" unicode="&#xec;" horiz-adv-x="252" 
d="M47 520h157v-520h-157v520zM64 586l-145 146h171l98 -146h-124z" />
    <glyph glyph-name="iacute" unicode="&#xed;" horiz-adv-x="252" 
d="M47 520h157v-520h-157v520zM162 732h171l-145 -146h-124z" />
    <glyph glyph-name="icircumflex" unicode="&#xee;" horiz-adv-x="252" 
d="M47 520h157v-520h-157v520zM339 586h-138l-75 73l-76 -73h-138l127 146h173z" />
    <glyph glyph-name="idieresis" unicode="&#xef;" horiz-adv-x="252" 
d="M47 520h157v-520h-157v520zM-62 720h157v-129h-157v129zM157 720h157v-129h-157v129z" />
    <glyph glyph-name="ntilde" unicode="&#xf1;" 
d="M306 397q-43 0 -72 -29.5t-29 -85.5v-282h-157v520h153v-70q29 38 70 60t93 22q86 0 135.5 -54.5t49.5 -160.5v-317h-157v298q0 99 -86 99zM139 697q31 35 84 35q18 0 35 -5t41 -15q6 -2 26 -10.5t34 -8.5q17 0 24.5 9t7.5 30h98q0 -73 -31 -108t-84 -35q-18 0 -33.5 4.5
t-41.5 14.5q-5 2 -25.5 11t-35.5 9q-16 0 -23.5 -9t-7.5 -30h-99q0 73 31 108z" />
    <glyph glyph-name="ograve" unicode="&#xf2;" 
d="M151.5 23q-61.5 35 -93 97t-31.5 140t31.5 140t93 97t146.5 35q86 0 147.5 -35t93 -97t31.5 -140t-31.5 -140t-93 -97t-147.5 -35q-85 0 -146.5 35zM212.5 152q27.5 -38 85.5 -38q59 0 86.5 38t27.5 108t-27.5 108t-86.5 38q-58 0 -85.5 -38t-27.5 -108t27.5 -108z
M237 586l-145 146h171l98 -146h-124z" />
    <glyph glyph-name="oacute" unicode="&#xf3;" 
d="M151.5 23q-61.5 35 -93 97t-31.5 140t31.5 140t93 97t146.5 35q86 0 147.5 -35t93 -97t31.5 -140t-31.5 -140t-93 -97t-147.5 -35q-85 0 -146.5 35zM212.5 152q27.5 -38 85.5 -38q59 0 86.5 38t27.5 108t-27.5 108t-86.5 38q-58 0 -85.5 -38t-27.5 -108t27.5 -108z
M334 732h171l-145 -146h-124z" />
    <glyph glyph-name="ocircumflex" unicode="&#xf4;" 
d="M151.5 23q-61.5 35 -93 97t-31.5 140t31.5 140t93 97t146.5 35q86 0 147.5 -35t93 -97t31.5 -140t-31.5 -140t-93 -97t-147.5 -35q-85 0 -146.5 35zM212.5 152q27.5 -38 85.5 -38q59 0 86.5 38t27.5 108t-27.5 108t-86.5 38q-58 0 -85.5 -38t-27.5 -108t27.5 -108z
M512 586h-138l-75 73l-76 -73h-138l127 146h173z" />
    <glyph glyph-name="otilde" unicode="&#xf5;" 
d="M151.5 23q-61.5 35 -93 97t-31.5 140t31.5 140t93 97t146.5 35q86 0 147.5 -35t93 -97t31.5 -140t-31.5 -140t-93 -97t-147.5 -35q-85 0 -146.5 35zM212.5 152q27.5 -38 85.5 -38q59 0 86.5 38t27.5 108t-27.5 108t-86.5 38q-58 0 -85.5 -38t-27.5 -108t27.5 -108z
M139 697q31 35 84 35q18 0 35 -5t41 -15q6 -2 26 -10.5t34 -8.5q17 0 24.5 9t7.5 30h98q0 -73 -31 -108t-84 -35q-18 0 -33.5 4.5t-41.5 14.5q-5 2 -25.5 11t-35.5 9q-16 0 -23.5 -9t-7.5 -30h-99q0 73 31 108z" />
    <glyph glyph-name="odieresis" unicode="&#xf6;" 
d="M151.5 23q-61.5 35 -93 97t-31.5 140t31.5 140t93 97t146.5 35q86 0 147.5 -35t93 -97t31.5 -140t-31.5 -140t-93 -97t-147.5 -35q-85 0 -146.5 35zM212.5 152q27.5 -38 85.5 -38q59 0 86.5 38t27.5 108t-27.5 108t-86.5 38q-58 0 -85.5 -38t-27.5 -108t27.5 -108z
M111 720h157v-129h-157v129zM330 720h157v-129h-157v129z" />
    <glyph glyph-name="divide" unicode="&#xf7;" horiz-adv-x="540" 
d="M32 427h476v-133h-476v133zM192 228h157v-129h-157v129zM192 621h157v-129h-157v129z" />
    <glyph glyph-name="ugrave" unicode="&#xf9;" 
d="M291 123q43 0 72 29.5t29 85.5v282h157v-520h-153v70q-29 -38 -70 -60t-93 -22q-86 0 -135.5 54.5t-49.5 160.5v317h157v-298q0 -99 86 -99zM237 586l-145 146h171l98 -146h-124z" />
    <glyph glyph-name="uacute" unicode="&#xfa;" 
d="M291 123q43 0 72 29.5t29 85.5v282h157v-520h-153v70q-29 -38 -70 -60t-93 -22q-86 0 -135.5 54.5t-49.5 160.5v317h157v-298q0 -99 86 -99zM334 732h171l-145 -146h-124z" />
    <glyph glyph-name="ucircumflex" unicode="&#xfb;" 
d="M291 123q43 0 72 29.5t29 85.5v282h157v-520h-153v70q-29 -38 -70 -60t-93 -22q-86 0 -135.5 54.5t-49.5 160.5v317h157v-298q0 -99 86 -99zM512 586h-138l-75 73l-76 -73h-138l127 146h173z" />
    <glyph glyph-name="udieresis" unicode="&#xfc;" 
d="M291 123q43 0 72 29.5t29 85.5v282h157v-520h-153v70q-29 -38 -70 -60t-93 -22q-86 0 -135.5 54.5t-49.5 160.5v317h157v-298q0 -99 86 -99zM111 720h157v-129h-157v129zM330 720h157v-129h-157v129z" />
    <glyph glyph-name="yacute" unicode="&#xfd;" horiz-adv-x="567" 
d="M31 -76h86q39 0 54.5 12.5t27.5 51.5l1 2l-196 530h169l112 -380l109 380h169l-202 -558q-29 -80 -74 -121t-126 -41h-130v124zM319 732h171l-145 -146h-124z" />
    <glyph glyph-name="ydieresis" unicode="&#xff;" horiz-adv-x="567" 
d="M31 -76h86q39 0 54.5 12.5t27.5 51.5l1 2l-196 530h169l112 -380l109 380h169l-202 -558q-29 -80 -74 -121t-126 -41h-130v124zM96 720h157v-129h-157v129zM315 720h157v-129h-157v129z" />
    <glyph glyph-name="Abreve" unicode="&#x102;" horiz-adv-x="747" 
d="M518 132h-297l-45 -132h-172l265 720h201l273 -720h-180zM469 273l-99 291l-100 -291h199zM247.5 802q-48.5 40 -58.5 112h115q3 -28 20 -43t46 -15t46 15t20 43h115q-10 -72 -58 -112t-123 -40q-74 0 -122.5 40z" />
    <glyph glyph-name="abreve" unicode="&#x103;" horiz-adv-x="562" 
d="M377 55q-32 -36 -71.5 -51.5t-92.5 -15.5q-86 0 -138.5 42t-52.5 118q0 69 48.5 105.5t160.5 55.5l142 24v21q0 30 -18 46.5t-62 16.5q-40 0 -63.5 -18t-24.5 -49h-156q1 88 68 135t174 47q116 0 175.5 -42t59.5 -117v-373h-149v55zM201.5 111.5q19.5 -15.5 56.5 -15.5
q49 0 82 25.5t33 76.5v39l-110 -22q-43 -8 -62 -21t-19 -40t19.5 -42.5zM165.5 620q-48.5 40 -58.5 112h115q3 -28 20 -43t46 -15t46 15t20 43h115q-10 -72 -58 -112t-123 -40q-74 0 -122.5 40z" />
    <glyph glyph-name="Aogonek" unicode="&#x104;" horiz-adv-x="747" 
d="M518 132h-297l-45 -132h-172l265 720h201l273 -720h-1q-51 -25 -73 -46.5t-22 -41.5q0 -19 14 -27.5t37 -8.5q20 0 44 7v-85q-33 -10 -77 -10q-62 0 -99 24t-37 73q0 33 26 64t72 51h-64zM469 273l-99 291l-100 -291h199z" />
    <glyph glyph-name="aogonek" unicode="&#x105;" horiz-adv-x="562" 
d="M377 55q-32 -36 -71.5 -51.5t-92.5 -15.5q-86 0 -138.5 42t-52.5 118q0 69 48.5 105.5t160.5 55.5l142 24v21q0 30 -18 46.5t-62 16.5q-40 0 -63.5 -18t-24.5 -49h-156q1 88 68 135t174 47q116 0 175.5 -42t59.5 -117v-373q-51 -25 -73 -46.5t-22 -41.5q0 -19 14 -27.5
t37 -8.5q20 0 44 7v-85q-33 -10 -77 -10q-62 0 -99 24t-37 73q0 33 26 64t72 51h-34v55zM201.5 111.5q19.5 -15.5 56.5 -15.5q49 0 82 25.5t33 76.5v39l-110 -22q-43 -8 -62 -21t-19 -40t19.5 -42.5z" />
    <glyph glyph-name="Cacute" unicode="&#x106;" horiz-adv-x="755" 
d="M195 37.5q-83 49.5 -125.5 134t-42.5 188.5t42.5 188.5t125.5 134t198 49.5q92 0 163 -35.5t115 -97.5t56 -141h-171q-15 57 -57.5 91t-105.5 34q-96 0 -143 -62.5t-47 -160.5t47 -160.5t143 -62.5q67 0 109 38.5t55 101.5h171q-10 -83 -53 -148.5t-115.5 -103
t-166.5 -37.5q-115 0 -198 49.5zM429 926h171l-145 -146h-124z" />
    <glyph glyph-name="cacute" unicode="&#x107;" horiz-adv-x="566" 
d="M151 23q-60 35 -91.5 97t-31.5 140t31.5 140t91.5 97t142 35q112 0 177.5 -55.5t77.5 -149.5h-156q-8 38 -33.5 58.5t-65.5 20.5q-54 0 -80.5 -38.5t-26.5 -107.5t26.5 -107.5t80.5 -38.5q42 0 67 23t32 66h156q-12 -98 -77.5 -156.5t-177.5 -58.5q-82 0 -142 35z
M329 732h171l-145 -146h-124z" />
    <glyph glyph-name="Ccircumflex" unicode="&#x108;" horiz-adv-x="755" 
d="M195 37.5q-83 49.5 -125.5 134t-42.5 188.5t42.5 188.5t125.5 134t198 49.5q92 0 163 -35.5t115 -97.5t56 -141h-171q-15 57 -57.5 91t-105.5 34q-96 0 -143 -62.5t-47 -160.5t47 -160.5t143 -62.5q67 0 109 38.5t55 101.5h171q-10 -83 -53 -148.5t-115.5 -103
t-166.5 -37.5q-115 0 -198 49.5zM607 780h-138l-75 73l-76 -73h-138l127 146h173z" />
    <glyph glyph-name="ccircumflex" unicode="&#x109;" horiz-adv-x="566" 
d="M151 23q-60 35 -91.5 97t-31.5 140t31.5 140t91.5 97t142 35q112 0 177.5 -55.5t77.5 -149.5h-156q-8 38 -33.5 58.5t-65.5 20.5q-54 0 -80.5 -38.5t-26.5 -107.5t26.5 -107.5t80.5 -38.5q42 0 67 23t32 66h156q-12 -98 -77.5 -156.5t-177.5 -58.5q-82 0 -142 35z
M507 586h-138l-75 73l-76 -73h-138l127 146h173z" />
    <glyph glyph-name="Cdotaccent" unicode="&#x10a;" horiz-adv-x="755" 
d="M195 37.5q-83 49.5 -125.5 134t-42.5 188.5t42.5 188.5t125.5 134t198 49.5q92 0 163 -35.5t115 -97.5t56 -141h-171q-15 57 -57.5 91t-105.5 34q-96 0 -143 -62.5t-47 -160.5t47 -160.5t143 -62.5q67 0 109 38.5t55 101.5h171q-10 -83 -53 -148.5t-115.5 -103
t-166.5 -37.5q-115 0 -198 49.5zM315 909h157v-129h-157v129z" />
    <glyph glyph-name="cdotaccent" unicode="&#x10b;" horiz-adv-x="566" 
d="M151 23q-60 35 -91.5 97t-31.5 140t31.5 140t91.5 97t142 35q112 0 177.5 -55.5t77.5 -149.5h-156q-8 38 -33.5 58.5t-65.5 20.5q-54 0 -80.5 -38.5t-26.5 -107.5t26.5 -107.5t80.5 -38.5q42 0 67 23t32 66h156q-12 -98 -77.5 -156.5t-177.5 -58.5q-82 0 -142 35z
M215 720h157v-129h-157v129z" />
    <glyph glyph-name="Ccaron" unicode="&#x10c;" horiz-adv-x="755" 
d="M195 37.5q-83 49.5 -125.5 134t-42.5 188.5t42.5 188.5t125.5 134t198 49.5q92 0 163 -35.5t115 -97.5t56 -141h-171q-15 57 -57.5 91t-105.5 34q-96 0 -143 -62.5t-47 -160.5t47 -160.5t143 -62.5q67 0 109 38.5t55 101.5h171q-10 -83 -53 -148.5t-115.5 -103
t-166.5 -37.5q-115 0 -198 49.5zM180 926h138l76 -73l75 73h138l-127 -146h-173z" />
    <glyph glyph-name="ccaron" unicode="&#x10d;" horiz-adv-x="566" 
d="M151 23q-60 35 -91.5 97t-31.5 140t31.5 140t91.5 97t142 35q112 0 177.5 -55.5t77.5 -149.5h-156q-8 38 -33.5 58.5t-65.5 20.5q-54 0 -80.5 -38.5t-26.5 -107.5t26.5 -107.5t80.5 -38.5q42 0 67 23t32 66h156q-12 -98 -77.5 -156.5t-177.5 -58.5q-82 0 -142 35zM80 732
h138l76 -73l75 73h138l-127 -146h-173z" />
    <glyph glyph-name="Dcaron" unicode="&#x10e;" horiz-adv-x="741" 
d="M57 720h288q123 0 206 -46.5t123 -127.5t40 -186t-40 -186t-123 -127.5t-206 -46.5h-288v720zM345 144q99 0 146 59.5t47 156.5t-47 156.5t-146 59.5h-119v-432h119zM138 914h138l76 -73l75 73h138l-127 -146h-173z" />
    <glyph glyph-name="dcaron" unicode="&#x10f;" horiz-adv-x="610" 
d="M410 0v65q-55 -77 -157 -77q-72 0 -123 35t-77 97t-26 140t26 140t77 97t123 35q98 0 152 -70v258h157v-720h-152zM212 152.5q27 -38.5 84 -38.5t84 38.5t27 107.5t-27 107.5t-84 38.5t-84 -38.5t-27 -107.5t27 -107.5zM624 720h156l-74 -170h-104z" />
    <glyph glyph-name="Dcroat" unicode="&#x110;" horiz-adv-x="762" 
d="M0 412h78v311h288q123 0 206 -46.5t123 -127.5t40 -186t-40 -186t-123 -127.5t-206 -46.5h-288v319h-78v90zM366 147q99 0 146 59.5t47 156.5t-47 156.5t-146 59.5h-119v-167h158v-90h-158v-175h119z" />
    <glyph glyph-name="dcroat" unicode="&#x111;" horiz-adv-x="648" 
d="M306 667h99v53h157v-53h86v-90h-86v-577h-152v65q-55 -77 -157 -77q-72 0 -123 35t-77 97t-26 140t26 140t77 97t123 35q98 0 152 -70v115h-99v90zM212 152.5q27 -38.5 84 -38.5t84 38.5t27 107.5t-27 107.5t-84 38.5t-84 -38.5t-27 -107.5t27 -107.5z" />
    <glyph glyph-name="Ebreve" unicode="&#x114;" horiz-adv-x="633" 
d="M57 720h548v-151h-379v-132h350v-143h-350v-143h378v-151h-547v720zM208.5 802q-48.5 40 -58.5 112h115q3 -28 20 -43t46 -15t46 15t20 43h115q-10 -72 -58 -112t-123 -40q-74 0 -122.5 40z" />
    <glyph glyph-name="ebreve" unicode="&#x115;" horiz-adv-x="589" 
d="M150.5 23q-60.5 35 -92 97t-31.5 140t31.5 140t92 97t143.5 35q128 0 198 -77t70 -212v-30h-383q9 -52 38.5 -80t76.5 -28q41 0 67.5 13.5t41.5 41.5h150q-26 -79 -93.5 -125.5t-165.5 -46.5q-83 0 -143.5 35zM409 314q-11 48 -40.5 74.5t-74.5 26.5t-74 -26.5t-40 -74.5
h229zM171.5 620q-48.5 40 -58.5 112h115q3 -28 20 -43t46 -15t46 15t20 43h115q-10 -72 -58 -112t-123 -40q-74 0 -122.5 40z" />
    <glyph glyph-name="Edotaccent" unicode="&#x116;" horiz-adv-x="633" 
d="M57 720h548v-151h-379v-132h350v-143h-350v-143h378v-151h-547v720zM253 897h157v-129h-157v129z" />
    <glyph glyph-name="edotaccent" unicode="&#x117;" horiz-adv-x="589" 
d="M150.5 23q-60.5 35 -92 97t-31.5 140t31.5 140t92 97t143.5 35q128 0 198 -77t70 -212v-30h-383q9 -52 38.5 -80t76.5 -28q41 0 67.5 13.5t41.5 41.5h150q-26 -79 -93.5 -125.5t-165.5 -46.5q-83 0 -143.5 35zM409 314q-11 48 -40.5 74.5t-74.5 26.5t-74 -26.5t-40 -74.5
h229zM216 720h157v-129h-157v129z" />
    <glyph glyph-name="Eogonek" unicode="&#x118;" horiz-adv-x="633" 
d="M57 720h548v-151h-379v-132h350v-143h-350v-143h378v-151h-1q-51 -25 -73 -46.5t-22 -41.5q0 -19 14 -27.5t37 -8.5q20 0 44 7v-85q-33 -10 -77 -10q-62 0 -99 24t-37 73q0 33 26 64t72 51h-431v720z" />
    <glyph glyph-name="eogonek" unicode="&#x119;" horiz-adv-x="589" 
d="M208 -188q-37 24 -37 73q0 29 21 57t58 49q-105 13 -164 87t-59 182q0 78 31.5 140t92 97t143.5 35q128 0 198 -77t70 -212v-30h-383q9 -52 38.5 -80t76.5 -28q41 0 67.5 13.5t41.5 41.5h150q-20 -59 -63.5 -101t-106.5 -60q-51 -25 -72.5 -46t-21.5 -41q0 -19 14 -27.5
t37 -8.5q20 0 44 7v-85q-33 -10 -77 -10q-62 0 -99 24zM409 314q-11 48 -40.5 74.5t-74.5 26.5t-74 -26.5t-40 -74.5h229z" />
    <glyph glyph-name="Ecaron" unicode="&#x11a;" horiz-adv-x="633" 
d="M57 720h548v-151h-379v-132h350v-143h-350v-143h378v-151h-547v720zM118 914h138l76 -73l75 73h138l-127 -146h-173z" />
    <glyph glyph-name="ecaron" unicode="&#x11b;" horiz-adv-x="589" 
d="M150.5 23q-60.5 35 -92 97t-31.5 140t31.5 140t92 97t143.5 35q128 0 198 -77t70 -212v-30h-383q9 -52 38.5 -80t76.5 -28q41 0 67.5 13.5t41.5 41.5h150q-26 -79 -93.5 -125.5t-165.5 -46.5q-83 0 -143.5 35zM409 314q-11 48 -40.5 74.5t-74.5 26.5t-74 -26.5t-40 -74.5
h229zM81 732h138l76 -73l75 73h138l-127 -146h-173z" />
    <glyph glyph-name="Gcircumflex" unicode="&#x11c;" horiz-adv-x="792" 
d="M186 37.5q-77 49.5 -118 134.5t-41 188q0 104 42.5 188.5t125.5 134t198 49.5q94 0 167 -33.5t117.5 -92.5t57.5 -135h-172q-17 52 -60.5 83t-109.5 31q-96 0 -143 -63.5t-47 -161.5t47 -161.5t143 -63.5q68 0 112 34t64 98h-206v133h382v-400h-121v124
q-74 -136 -259 -136q-102 0 -179 49.5zM607 780h-138l-75 73l-76 -73h-138l127 146h173z" />
    <glyph glyph-name="gcircumflex" unicode="&#x11d;" horiz-adv-x="610" 
d="M111 -161.5q-63 50.5 -67 138.5h154q7 -71 96 -71q48 0 79.5 24t31.5 83v65q-54 -67 -152 -67q-72 0 -123 33.5t-77 92.5t-26 134t26 134.5t77 93t123 33.5q102 0 156 -72v60h153v-507q0 -109 -77 -167t-198 -58q-113 0 -176 50.5zM212 168.5q27 -36.5 84 -36.5t84 36.5
t27 102.5q0 67 -27 103.5t-84 36.5t-84 -36.5t-27 -103.5q0 -66 27 -102.5zM508 586h-138l-75 73l-76 -73h-138l127 146h173z" />
    <glyph glyph-name="Gbreve" unicode="&#x11e;" horiz-adv-x="792" 
d="M186 37.5q-77 49.5 -118 134.5t-41 188q0 104 42.5 188.5t125.5 134t198 49.5q94 0 167 -33.5t117.5 -92.5t57.5 -135h-172q-17 52 -60.5 83t-109.5 31q-96 0 -143 -63.5t-47 -161.5t47 -161.5t143 -63.5q68 0 112 34t64 98h-206v133h382v-400h-121v124
q-74 -136 -259 -136q-102 0 -179 49.5zM270.5 814q-48.5 40 -58.5 112h115q3 -28 20 -43t46 -15t46 15t20 43h115q-10 -72 -58 -112t-123 -40q-74 0 -122.5 40z" />
    <glyph glyph-name="gbreve" unicode="&#x11f;" horiz-adv-x="610" 
d="M111 -161.5q-63 50.5 -67 138.5h154q7 -71 96 -71q48 0 79.5 24t31.5 83v65q-54 -67 -152 -67q-72 0 -123 33.5t-77 92.5t-26 134t26 134.5t77 93t123 33.5q102 0 156 -72v60h153v-507q0 -109 -77 -167t-198 -58q-113 0 -176 50.5zM212 168.5q27 -36.5 84 -36.5t84 36.5
t27 102.5q0 67 -27 103.5t-84 36.5t-84 -36.5t-27 -103.5q0 -66 27 -102.5zM172.5 620q-48.5 40 -58.5 112h115q3 -28 20 -43t46 -15t46 15t20 43h115q-10 -72 -58 -112t-123 -40q-74 0 -122.5 40z" />
    <glyph glyph-name="Gdotaccent" unicode="&#x120;" horiz-adv-x="792" 
d="M186 37.5q-77 49.5 -118 134.5t-41 188q0 104 42.5 188.5t125.5 134t198 49.5q94 0 167 -33.5t117.5 -92.5t57.5 -135h-172q-17 52 -60.5 83t-109.5 31q-96 0 -143 -63.5t-47 -161.5t47 -161.5t143 -63.5q68 0 112 34t64 98h-206v133h382v-400h-121v124
q-74 -136 -259 -136q-102 0 -179 49.5zM315 909h157v-129h-157v129z" />
    <glyph glyph-name="gdotaccent" unicode="&#x121;" horiz-adv-x="610" 
d="M111 -161.5q-63 50.5 -67 138.5h154q7 -71 96 -71q48 0 79.5 24t31.5 83v65q-54 -67 -152 -67q-72 0 -123 33.5t-77 92.5t-26 134t26 134.5t77 93t123 33.5q102 0 156 -72v60h153v-507q0 -109 -77 -167t-198 -58q-113 0 -176 50.5zM212 168.5q27 -36.5 84 -36.5t84 36.5
t27 102.5q0 67 -27 103.5t-84 36.5t-84 -36.5t-27 -103.5q0 -66 27 -102.5zM216 720h157v-129h-157v129z" />
    <glyph glyph-name="Hcircumflex" unicode="&#x124;" horiz-adv-x="742" 
d="M516 292h-290v-292h-169v720h169v-276h290v276h169v-720h-169v292zM584 768h-138l-75 73l-76 -73h-138l127 146h173z" />
    <glyph glyph-name="hcircumflex" unicode="&#x125;" 
d="M48 720h157v-265q29 36 69 56.5t90 20.5q86 0 135.5 -54.5t49.5 -160.5v-317h-157v298q0 99 -86 99q-43 0 -72 -29.5t-29 -85.5v-282h-157v720zM340 768h-138l-75 73l-76 -73h-138l127 146h173z" />
    <glyph glyph-name="Itilde" unicode="&#x128;" horiz-adv-x="283" 
d="M57 720h169v-720h-169v720zM-18 876q31 35 84 35q18 0 35 -5t41 -15q6 -2 26 -10.5t34 -8.5q17 0 24.5 9t7.5 30h98q0 -73 -31 -108t-84 -35q-18 0 -33.5 4.5t-41.5 14.5q-5 2 -25.5 11t-35.5 9q-16 0 -23.5 -9t-7.5 -30h-99q0 73 31 108z" />
    <glyph glyph-name="itilde" unicode="&#x129;" horiz-adv-x="252" 
d="M47 520h157v-520h-157v520zM-34 697q31 35 84 35q18 0 35 -5t41 -15q6 -2 26 -10.5t34 -8.5q17 0 24.5 9t7.5 30h98q0 -73 -31 -108t-84 -35q-18 0 -33.5 4.5t-41.5 14.5q-5 2 -25.5 11t-35.5 9q-16 0 -23.5 -9t-7.5 -30h-99q0 73 31 108z" />
    <glyph glyph-name="Ibreve" unicode="&#x12c;" horiz-adv-x="283" 
d="M57 720h169v-720h-169v720zM18.5 802q-48.5 40 -58.5 112h115q3 -28 20 -43t46 -15t46 15t20 43h115q-10 -72 -58 -112t-123 -40q-74 0 -122.5 40z" />
    <glyph glyph-name="ibreve" unicode="&#x12d;" horiz-adv-x="252" 
d="M47 520h157v-520h-157v520zM3.5 620q-48.5 40 -58.5 112h115q3 -28 20 -43t46 -15t46 15t20 43h115q-10 -72 -58 -112t-123 -40q-74 0 -122.5 40z" />
    <glyph glyph-name="Iogonek" unicode="&#x12e;" horiz-adv-x="283" 
d="M57 720h169v-720q-51 -25 -73 -46.5t-22 -41.5q0 -19 14 -27.5t37 -8.5q20 0 44 7v-85q-33 -10 -77 -10q-62 0 -99 24t-37 73q0 33 26 64t72 51h-54v720z" />
    <glyph glyph-name="iogonek" unicode="&#x12f;" horiz-adv-x="252" 
d="M47 520h157v-520q-51 -25 -73 -46.5t-22 -41.5q0 -19 14 -27.5t37 -8.5q20 0 44 7v-85q-33 -10 -77 -10q-62 0 -99 24t-37 73q0 33 26 64t72 51h-42v520zM47 720h157v-129h-157v129z" />
    <glyph glyph-name="Idotaccent" unicode="&#x130;" horiz-adv-x="283" 
d="M57 720h169v-720h-169v720zM63 897h157v-129h-157v129z" />
    <glyph glyph-name="dotlessi" unicode="&#x131;" horiz-adv-x="252" 
d="M47 520h157v-520h-157v520z" />
    <glyph glyph-name="Jcircumflex" unicode="&#x134;" horiz-adv-x="579" 
d="M89.5 54q-64.5 66 -64.5 181v40h162v-40q0 -51 20.5 -77t67.5 -26t67.5 26t20.5 77v485h169v-485q0 -114 -67.5 -180.5t-189.5 -66.5q-121 0 -185.5 66zM661 768h-138l-75 73l-76 -73h-138l127 146h173z" />
    <glyph glyph-name="jcircumflex" unicode="&#x135;" horiz-adv-x="258" 
d="M168.5 -170q-42.5 -30 -118.5 -30h-110v115h67q27 0 37 10.5t10 34.5v560h157v-576q0 -84 -42.5 -114zM346 586h-138l-75 73l-76 -73h-138l127 146h173z" />
    <glyph glyph-name="Lacute" unicode="&#x139;" horiz-adv-x="574" 
d="M57 720h169v-569h333v-151h-502v720zM177 914h171l-145 -146h-124z" />
    <glyph glyph-name="lacute" unicode="&#x13a;" horiz-adv-x="343" 
d="M205 720v-560q0 -24 10 -34.5t37 -10.5h67v-115h-110q-76 0 -118.5 30t-42.5 114v576h157zM162 914h171l-145 -146h-124z" />
    <glyph glyph-name="Lcaron" unicode="&#x13d;" horiz-adv-x="574" 
d="M57 720h169v-569h333v-151h-502v720zM314 720h156l-74 -170h-104z" />
    <glyph glyph-name="lcaron" unicode="&#x13e;" horiz-adv-x="343" 
d="M205 720v-560q0 -24 10 -34.5t37 -10.5h67v-115h-110q-76 0 -118.5 30t-42.5 114v576h157zM267 720h156l-74 -170h-104z" />
    <glyph glyph-name="Lslash" unicode="&#x141;" horiz-adv-x="596" 
d="M79 296l-79 -35v101l79 35v323h169v-250l175 77v-101l-175 -77v-218h333v-151h-502v296z" />
    <glyph glyph-name="lslash" unicode="&#x142;" horiz-adv-x="343" 
d="M205 720v-270l79 34v-101l-79 -34v-189q0 -24 10 -34.5t37 -10.5h67v-115h-110q-76 0 -118.5 30t-42.5 114v136l-79 -34v101l79 34v339h157z" />
    <glyph glyph-name="Nacute" unicode="&#x143;" horiz-adv-x="745" 
d="M219 483v-483h-162v720h183l286 -485v485h162v-720h-183zM408 914h171l-145 -146h-124z" />
    <glyph glyph-name="nacute" unicode="&#x144;" 
d="M306 397q-43 0 -72 -29.5t-29 -85.5v-282h-157v520h153v-70q29 38 70 60t93 22q86 0 135.5 -54.5t49.5 -160.5v-317h-157v298q0 99 -86 99zM334 732h171l-145 -146h-124z" />
    <glyph glyph-name="Ncaron" unicode="&#x147;" horiz-adv-x="745" 
d="M219 483v-483h-162v720h183l286 -485v485h162v-720h-183zM159 914h138l76 -73l75 73h138l-127 -146h-173z" />
    <glyph glyph-name="ncaron" unicode="&#x148;" 
d="M306 397q-43 0 -72 -29.5t-29 -85.5v-282h-157v520h153v-70q29 38 70 60t93 22q86 0 135.5 -54.5t49.5 -160.5v-317h-157v298q0 99 -86 99zM85 732h138l76 -73l75 73h138l-127 -146h-173z" />
    <glyph glyph-name="Obreve" unicode="&#x14e;" horiz-adv-x="786" 
d="M195 37.5q-83 49.5 -125.5 134t-42.5 188.5t42.5 188.5t125.5 134t198 49.5t198 -49.5t125.5 -134t42.5 -188.5t-42.5 -188.5t-125.5 -134t-198 -49.5t-198 49.5zM250 199.5q47 -62.5 143 -62.5t143 62.5t47 160.5t-47 160.5t-143 62.5t-143 -62.5t-47 -160.5t47 -160.5z
M270.5 814q-48.5 40 -58.5 112h115q3 -28 20 -43t46 -15t46 15t20 43h115q-10 -72 -58 -112t-123 -40q-74 0 -122.5 40z" />
    <glyph glyph-name="obreve" unicode="&#x14f;" 
d="M151.5 23q-61.5 35 -93 97t-31.5 140t31.5 140t93 97t146.5 35q86 0 147.5 -35t93 -97t31.5 -140t-31.5 -140t-93 -97t-147.5 -35q-85 0 -146.5 35zM212.5 152q27.5 -38 85.5 -38q59 0 86.5 38t27.5 108t-27.5 108t-86.5 38q-58 0 -85.5 -38t-27.5 -108t27.5 -108z
M175.5 620q-48.5 40 -58.5 112h115q3 -28 20 -43t46 -15t46 15t20 43h115q-10 -72 -58 -112t-123 -40q-74 0 -122.5 40z" />
    <glyph glyph-name="Racute" unicode="&#x154;" horiz-adv-x="691" 
d="M57 720h338q130 0 195 -59t65 -157q0 -55 -29 -99.5t-81 -76.5q45 -22 67.5 -57t29.5 -84l28 -187h-173l-24 162q-8 54 -34 79.5t-76 25.5h-137v-267h-169v720zM365 396q58 0 87 23t29 71t-29 71t-87 23h-139v-188h139zM381 914h171l-145 -146h-124z" />
    <glyph glyph-name="racute" unicode="&#x155;" horiz-adv-x="418" 
d="M48 520h153v-95q44 101 150 101h43v-143h-50q-69 0 -104 -34.5t-35 -116.5v-232h-157v520zM257 732h171l-145 -146h-124z" />
    <glyph glyph-name="Rcaron" unicode="&#x158;" horiz-adv-x="691" 
d="M57 720h338q130 0 195 -59t65 -157q0 -55 -29 -99.5t-81 -76.5q45 -22 67.5 -57t29.5 -84l28 -187h-173l-24 162q-8 54 -34 79.5t-76 25.5h-137v-267h-169v720zM365 396q58 0 87 23t29 71t-29 71t-87 23h-139v-188h139zM132 914h138l76 -73l75 73h138l-127 -146h-173z
" />
    <glyph glyph-name="rcaron" unicode="&#x159;" horiz-adv-x="418" 
d="M48 520h153v-95q44 101 150 101h43v-143h-50q-69 0 -104 -34.5t-35 -116.5v-232h-157v520zM8 732h138l76 -73l75 73h138l-127 -146h-173z" />
    <glyph glyph-name="Sacute" unicode="&#x15a;" horiz-adv-x="662" 
d="M106 55.5q-83 67.5 -84 185.5h165q1 -68 43 -94t113 -26q56 0 89.5 22t33.5 60q0 22 -12 37t-47.5 28t-103.5 25q-140 22 -203 76.5t-63 151.5q0 61 34 109t98 75t151 27q141 0 218 -63.5t82 -180.5h-162q-3 57 -36.5 84t-101.5 27q-50 0 -80 -19.5t-30 -51.5
q0 -23 12 -39t45 -29t95 -23q106 -17 167 -46.5t86.5 -72.5t25.5 -105q0 -109 -84.5 -167t-220.5 -58q-147 0 -230 67.5zM367 926h171l-145 -146h-124z" />
    <glyph glyph-name="sacute" unicode="&#x15b;" horiz-adv-x="527" 
d="M86 31q-64 43 -70 140h150q5 -44 31.5 -61.5t75.5 -17.5q37 0 60 13t23 36q0 17 -8 27t-32 18t-75 17q-120 21 -168 60t-48 106q0 77 62 120t170 43q118 0 177.5 -48.5t62.5 -131.5h-143q-2 76 -97 76q-36 0 -58 -13t-22 -36q0 -16 10 -26.5t36.5 -18t76.5 -15.5
q117 -18 164 -58t47 -109q0 -78 -66.5 -121t-178.5 -43q-116 0 -180 43zM299 732h171l-145 -146h-124z" />
    <glyph glyph-name="Scircumflex" unicode="&#x15c;" horiz-adv-x="662" 
d="M106 55.5q-83 67.5 -84 185.5h165q1 -68 43 -94t113 -26q56 0 89.5 22t33.5 60q0 22 -12 37t-47.5 28t-103.5 25q-140 22 -203 76.5t-63 151.5q0 61 34 109t98 75t151 27q141 0 218 -63.5t82 -180.5h-162q-3 57 -36.5 84t-101.5 27q-50 0 -80 -19.5t-30 -51.5
q0 -23 12 -39t45 -29t95 -23q106 -17 167 -46.5t86.5 -72.5t25.5 -105q0 -109 -84.5 -167t-220.5 -58q-147 0 -230 67.5zM545 780h-138l-75 73l-76 -73h-138l127 146h173z" />
    <glyph glyph-name="scircumflex" unicode="&#x15d;" horiz-adv-x="527" 
d="M86 31q-64 43 -70 140h150q5 -44 31.5 -61.5t75.5 -17.5q37 0 60 13t23 36q0 17 -8 27t-32 18t-75 17q-120 21 -168 60t-48 106q0 77 62 120t170 43q118 0 177.5 -48.5t62.5 -131.5h-143q-2 76 -97 76q-36 0 -58 -13t-22 -36q0 -16 10 -26.5t36.5 -18t76.5 -15.5
q117 -18 164 -58t47 -109q0 -78 -66.5 -121t-178.5 -43q-116 0 -180 43zM477 586h-138l-75 73l-76 -73h-138l127 146h173z" />
    <glyph glyph-name="Scedilla" unicode="&#x15e;" horiz-adv-x="662" 
d="M220 -228v58q33 -6 57 -6q67 0 67 39q0 36 -59 36q-20 0 -30 -2v40l40 53q-128 9 -200 75t-73 176h165q1 -68 43 -94t113 -26q56 0 89.5 22t33.5 60q0 22 -12 37t-47.5 28t-103.5 25q-140 22 -203 76.5t-63 151.5q0 61 34 109t98 75t151 27q141 0 218 -63.5t82 -180.5
h-162q-3 57 -36.5 84t-101.5 27q-50 0 -80 -19.5t-30 -51.5q0 -23 12 -39t45 -29t95 -23q106 -17 167 -46.5t86.5 -72.5t25.5 -105q0 -102 -74.5 -159.5t-197.5 -64.5l-43 -45h9q54 0 86 -21.5t32 -59.5q0 -42 -39.5 -70.5t-118.5 -28.5q-42 0 -75 8z" />
    <glyph glyph-name="scedilla" unicode="&#x15f;" horiz-adv-x="527" 
d="M153 -228v58q33 -6 57 -6q67 0 67 39q0 36 -59 36q-20 0 -30 -2v40l39 52q-98 7 -152 50.5t-59 131.5h150q5 -44 31.5 -61.5t75.5 -17.5q37 0 60 13t23 36q0 17 -8 27t-32 18t-75 17q-120 21 -168 60t-48 106q0 77 62 120t170 43q118 0 177.5 -48.5t62.5 -131.5h-143
q-2 76 -97 76q-36 0 -58 -13t-22 -36q0 -16 10 -26.5t36.5 -18t76.5 -15.5q117 -18 164 -58t47 -109q0 -72 -56 -114t-153 -49l-43 -45h9q54 0 86 -21.5t32 -59.5q0 -42 -39.5 -70.5t-118.5 -28.5q-42 0 -75 8z" />
    <glyph glyph-name="Scaron" unicode="&#x160;" horiz-adv-x="662" 
d="M106 55.5q-83 67.5 -84 185.5h165q1 -68 43 -94t113 -26q56 0 89.5 22t33.5 60q0 22 -12 37t-47.5 28t-103.5 25q-140 22 -203 76.5t-63 151.5q0 61 34 109t98 75t151 27q141 0 218 -63.5t82 -180.5h-162q-3 57 -36.5 84t-101.5 27q-50 0 -80 -19.5t-30 -51.5
q0 -23 12 -39t45 -29t95 -23q106 -17 167 -46.5t86.5 -72.5t25.5 -105q0 -109 -84.5 -167t-220.5 -58q-147 0 -230 67.5zM118 926h138l76 -73l75 73h138l-127 -146h-173z" />
    <glyph glyph-name="scaron" unicode="&#x161;" horiz-adv-x="527" 
d="M86 31q-64 43 -70 140h150q5 -44 31.5 -61.5t75.5 -17.5q37 0 60 13t23 36q0 17 -8 27t-32 18t-75 17q-120 21 -168 60t-48 106q0 77 62 120t170 43q118 0 177.5 -48.5t62.5 -131.5h-143q-2 76 -97 76q-36 0 -58 -13t-22 -36q0 -16 10 -26.5t36.5 -18t76.5 -15.5
q117 -18 164 -58t47 -109q0 -78 -66.5 -121t-178.5 -43q-116 0 -180 43zM50 732h138l76 -73l75 73h138l-127 -146h-173z" />
    <glyph glyph-name="uni0162" unicode="&#x162;" horiz-adv-x="637" 
d="M234 569h-221v151h611v-151h-220v-569h-48l-42 -44h9q54 0 86 -21.5t32 -59.5q0 -42 -39.5 -70.5t-118.5 -28.5q-42 0 -75 8v58q33 -6 57 -6q67 0 67 39q0 36 -59 36q-20 0 -30 -2v40l38 51h-47v569z" />
    <glyph glyph-name="uni0163" unicode="&#x163;" horiz-adv-x="408" 
d="M258 680v-160h126v-115h-126v-245q0 -24 10.5 -34.5t36.5 -10.5h79v-115h-99l-42 -44h9q54 0 86 -21.5t32 -59.5q0 -42 -39.5 -70.5t-118.5 -28.5q-42 0 -75 8v58q33 -6 57 -6q67 0 67 39q0 36 -59 36q-20 0 -30 -2v40l41 54q-53 7 -82.5 39.5t-29.5 101.5v261h-87v115
h87v160h157z" />
    <glyph glyph-name="Tcaron" unicode="&#x164;" horiz-adv-x="637" 
d="M234 569h-221v151h611v-151h-220v-569h-170v569zM105 914h138l76 -73l75 73h138l-127 -146h-173z" />
    <glyph glyph-name="tcaron" unicode="&#x165;" horiz-adv-x="408" 
d="M258 680v-160h126v-115h-126v-245q0 -24 10.5 -34.5t36.5 -10.5h79v-115h-122q-76 0 -118.5 30t-42.5 114v261h-87v115h87v160h157zM312 720h156l-74 -170h-104z" />
    <glyph glyph-name="Utilde" unicode="&#x168;" horiz-adv-x="714" 
d="M196 21q-70 33 -109.5 97.5t-39.5 157.5v444h169v-444q0 -70 37 -105.5t104 -35.5t104 35.5t37 105.5v444h169v-444q0 -93 -39.5 -157.5t-109.5 -97.5t-161 -33t-161 33zM197 876q31 35 84 35q18 0 35 -5t41 -15q6 -2 26 -10.5t34 -8.5q17 0 24.5 9t7.5 30h98
q0 -73 -31 -108t-84 -35q-18 0 -33.5 4.5t-41.5 14.5q-5 2 -25.5 11t-35.5 9q-16 0 -23.5 -9t-7.5 -30h-99q0 73 31 108z" />
    <glyph glyph-name="utilde" unicode="&#x169;" 
d="M291 123q43 0 72 29.5t29 85.5v282h157v-520h-153v70q-29 -38 -70 -60t-93 -22q-86 0 -135.5 54.5t-49.5 160.5v317h157v-298q0 -99 86 -99zM139 697q31 35 84 35q18 0 35 -5t41 -15q6 -2 26 -10.5t34 -8.5q17 0 24.5 9t7.5 30h98q0 -73 -31 -108t-84 -35
q-18 0 -33.5 4.5t-41.5 14.5q-5 2 -25.5 11t-35.5 9q-16 0 -23.5 -9t-7.5 -30h-99q0 73 31 108z" />
    <glyph glyph-name="Ubreve" unicode="&#x16c;" horiz-adv-x="714" 
d="M196 21q-70 33 -109.5 97.5t-39.5 157.5v444h169v-444q0 -70 37 -105.5t104 -35.5t104 35.5t37 105.5v444h169v-444q0 -93 -39.5 -157.5t-109.5 -97.5t-161 -33t-161 33zM234.5 802q-48.5 40 -58.5 112h115q3 -28 20 -43t46 -15t46 15t20 43h115q-10 -72 -58 -112
t-123 -40q-74 0 -122.5 40z" />
    <glyph glyph-name="ubreve" unicode="&#x16d;" 
d="M291 123q43 0 72 29.5t29 85.5v282h157v-520h-153v70q-29 -38 -70 -60t-93 -22q-86 0 -135.5 54.5t-49.5 160.5v317h157v-298q0 -99 86 -99zM175.5 620q-48.5 40 -58.5 112h115q3 -28 20 -43t46 -15t46 15t20 43h115q-10 -72 -58 -112t-123 -40q-74 0 -122.5 40z" />
    <glyph glyph-name="Uring" unicode="&#x16e;" horiz-adv-x="714" 
d="M196 21q-70 33 -109.5 97.5t-39.5 157.5v444h166q-11 27 -11 56q0 42 20.5 75.5t56 52.5t78.5 19t78.5 -19t56 -52.5t20.5 -75.5q0 -29 -11 -56h166v-444q0 -93 -39.5 -157.5t-109.5 -97.5t-161 -33t-161 33zM253 170.5q37 -35.5 104 -35.5t104 35.5t37 105.5v438
q-18 -38 -56 -61t-85 -23t-85 23t-56 61v-438q0 -70 37 -105.5zM316 735.5q16 -15.5 41 -15.5t41 15.5t16 40.5t-16 41t-41 16t-41 -16t-16 -41t16 -40.5z" />
    <glyph glyph-name="uring" unicode="&#x16f;" 
d="M291 123q43 0 72 29.5t29 85.5v282h157v-520h-153v70q-29 -38 -70 -60t-93 -22q-86 0 -135.5 54.5t-49.5 160.5v317h157v-298q0 -99 86 -99zM219.5 599q-35.5 19 -56 52.5t-20.5 74.5q0 42 20.5 75.5t56 52.5t78.5 19t78.5 -19t56 -52.5t20.5 -75.5q0 -41 -20.5 -74.5
t-56 -52.5t-78.5 -19t-78.5 19zM257 685.5q16 -15.5 41 -15.5t41 15.5t16 40.5t-16 41t-41 16t-41 -16t-16 -41t16 -40.5z" />
    <glyph glyph-name="Uogonek" unicode="&#x172;" horiz-adv-x="714" 
d="M283 -188q-37 24 -37 73q0 28 20 56t56 48q-125 9 -200 83t-75 204v444h169v-444q0 -70 37 -105.5t104 -35.5t104 35.5t37 105.5v444h169v-444q0 -111 -56 -181.5t-153 -94.5q-51 -25 -72.5 -46.5t-21.5 -41.5q0 -19 14 -27.5t37 -8.5q20 0 44 7v-85q-33 -10 -77 -10
q-62 0 -99 24z" />
    <glyph glyph-name="uogonek" unicode="&#x173;" 
d="M291 123q43 0 72 29.5t29 85.5v282h157v-520h-1q-51 -25 -73 -46.5t-22 -41.5q0 -19 14 -27.5t37 -8.5q20 0 44 7v-85q-33 -10 -77 -10q-62 0 -99 24t-37 73q0 33 26 64t72 51h-37v70q-29 -38 -70 -60t-93 -22q-86 0 -135.5 54.5t-49.5 160.5v317h157v-298q0 -99 86 -99z
" />
    <glyph glyph-name="Wcircumflex" unicode="&#x174;" horiz-adv-x="1011" 
d="M506 500l-110 -500h-191l-201 720h179l126 -522l111 522h171l111 -521l127 521h178l-201 -720h-190zM719 768h-138l-75 73l-76 -73h-138l127 146h173z" />
    <glyph glyph-name="wcircumflex" unicode="&#x175;" horiz-adv-x="876" 
d="M438 329l-92 -329h-165l-177 520h169l101 -340l91 340h146l91 -340l101 340h169l-178 -520h-164zM652 586h-138l-75 73l-76 -73h-138l127 146h173z" />
    <glyph glyph-name="Ycircumflex" unicode="&#x176;" horiz-adv-x="725" 
d="M282 277l-278 443h194l168 -286l168 286h187l-270 -439v-281h-169v277zM580 768h-138l-75 73l-76 -73h-138l127 146h173z" />
    <glyph glyph-name="ycircumflex" unicode="&#x177;" horiz-adv-x="567" 
d="M31 -76h86q39 0 54.5 12.5t27.5 51.5l1 2l-196 530h169l112 -380l109 380h169l-202 -558q-29 -80 -74 -121t-126 -41h-130v124zM497 586h-138l-75 73l-76 -73h-138l127 146h173z" />
    <glyph glyph-name="Ydieresis" unicode="&#x178;" horiz-adv-x="725" 
d="M282 277l-278 443h194l168 -286l168 286h187l-270 -439v-281h-169v277zM179 897h157v-129h-157v129zM398 897h157v-129h-157v129z" />
    <glyph glyph-name="Zacute" unicode="&#x179;" horiz-adv-x="654" 
d="M28 135l372 437l-182 -3h-178v151h581v-130l-378 -442l189 3h194v-151h-598v135zM367 914h171l-145 -146h-124z" />
    <glyph glyph-name="zacute" unicode="&#x17a;" horiz-adv-x="531" 
d="M38 102l253 299h-250v119h442v-102l-254 -299h264v-119h-455v102zM301 732h171l-145 -146h-124z" />
    <glyph glyph-name="Zdotaccent" unicode="&#x17b;" horiz-adv-x="654" 
d="M28 135l372 437l-182 -3h-178v151h581v-130l-378 -442l189 3h194v-151h-598v135zM253 897h157v-129h-157v129z" />
    <glyph glyph-name="zdotaccent" unicode="&#x17c;" horiz-adv-x="531" 
d="M38 102l253 299h-250v119h442v-102l-254 -299h264v-119h-455v102zM187 720h157v-129h-157v129z" />
    <glyph glyph-name="Zcaron" unicode="&#x17d;" horiz-adv-x="654" 
d="M28 135l372 437l-182 -3h-178v151h581v-130l-378 -442l189 3h194v-151h-598v135zM118 914h138l76 -73l75 73h138l-127 -146h-173z" />
    <glyph glyph-name="zcaron" unicode="&#x17e;" horiz-adv-x="531" 
d="M38 102l253 299h-250v119h442v-102l-254 -299h264v-119h-455v102zM52 732h138l76 -73l75 73h138l-127 -146h-173z" />
    <glyph glyph-name="uni01CD" unicode="&#x1cd;" horiz-adv-x="747" 
d="M518 132h-297l-45 -132h-172l265 720h201l273 -720h-180zM469 273l-99 291l-100 -291h199zM156 914h138l76 -73l75 73h138l-127 -146h-173z" />
    <glyph glyph-name="uni01CE" unicode="&#x1ce;" horiz-adv-x="562" 
d="M377 55q-32 -36 -71.5 -51.5t-92.5 -15.5q-86 0 -138.5 42t-52.5 118q0 69 48.5 105.5t160.5 55.5l142 24v21q0 30 -18 46.5t-62 16.5q-40 0 -63.5 -18t-24.5 -49h-156q1 88 68 135t174 47q116 0 175.5 -42t59.5 -117v-373h-149v55zM201.5 111.5q19.5 -15.5 56.5 -15.5
q49 0 82 25.5t33 76.5v39l-110 -22q-43 -8 -62 -21t-19 -40t19.5 -42.5zM74 732h138l76 -73l75 73h138l-127 -146h-173z" />
    <glyph glyph-name="uni01CF" unicode="&#x1cf;" horiz-adv-x="283" 
d="M57 720h169v-720h-169v720zM-72 914h138l76 -73l75 73h138l-127 -146h-173z" />
    <glyph glyph-name="uni01D0" unicode="&#x1d0;" horiz-adv-x="252" 
d="M47 520h157v-520h-157v520zM-88 732h138l76 -73l75 73h138l-127 -146h-173z" />
    <glyph glyph-name="uni01D1" unicode="&#x1d1;" horiz-adv-x="786" 
d="M195 37.5q-83 49.5 -125.5 134t-42.5 188.5t42.5 188.5t125.5 134t198 49.5t198 -49.5t125.5 -134t42.5 -188.5t-42.5 -188.5t-125.5 -134t-198 -49.5t-198 49.5zM250 199.5q47 -62.5 143 -62.5t143 62.5t47 160.5t-47 160.5t-143 62.5t-143 -62.5t-47 -160.5t47 -160.5z
M180 926h138l76 -73l75 73h138l-127 -146h-173z" />
    <glyph glyph-name="uni01D2" unicode="&#x1d2;" 
d="M151.5 23q-61.5 35 -93 97t-31.5 140t31.5 140t93 97t146.5 35q86 0 147.5 -35t93 -97t31.5 -140t-31.5 -140t-93 -97t-147.5 -35q-85 0 -146.5 35zM212.5 152q27.5 -38 85.5 -38q59 0 86.5 38t27.5 108t-27.5 108t-86.5 38q-58 0 -85.5 -38t-27.5 -108t27.5 -108z
M85 732h138l76 -73l75 73h138l-127 -146h-173z" />
    <glyph glyph-name="uni01D3" unicode="&#x1d3;" horiz-adv-x="714" 
d="M196 21q-70 33 -109.5 97.5t-39.5 157.5v444h169v-444q0 -70 37 -105.5t104 -35.5t104 35.5t37 105.5v444h169v-444q0 -93 -39.5 -157.5t-109.5 -97.5t-161 -33t-161 33zM143 914h138l76 -73l75 73h138l-127 -146h-173z" />
    <glyph glyph-name="uni01D4" unicode="&#x1d4;" 
d="M291 123q43 0 72 29.5t29 85.5v282h157v-520h-153v70q-29 -38 -70 -60t-93 -22q-86 0 -135.5 54.5t-49.5 160.5v317h157v-298q0 -99 86 -99zM85 732h138l76 -73l75 73h138l-127 -146h-173z" />
    <glyph glyph-name="Gcaron" unicode="&#x1e6;" horiz-adv-x="792" 
d="M186 37.5q-77 49.5 -118 134.5t-41 188q0 104 42.5 188.5t125.5 134t198 49.5q94 0 167 -33.5t117.5 -92.5t57.5 -135h-172q-17 52 -60.5 83t-109.5 31q-96 0 -143 -63.5t-47 -161.5t47 -161.5t143 -63.5q68 0 112 34t64 98h-206v133h382v-400h-121v124
q-74 -136 -259 -136q-102 0 -179 49.5zM180 926h138l76 -73l75 73h138l-127 -146h-173z" />
    <glyph glyph-name="gcaron" unicode="&#x1e7;" horiz-adv-x="610" 
d="M111 -161.5q-63 50.5 -67 138.5h154q7 -71 96 -71q48 0 79.5 24t31.5 83v65q-54 -67 -152 -67q-72 0 -123 33.5t-77 92.5t-26 134t26 134.5t77 93t123 33.5q102 0 156 -72v60h153v-507q0 -109 -77 -167t-198 -58q-113 0 -176 50.5zM212 168.5q27 -36.5 84 -36.5t84 36.5
t27 102.5q0 67 -27 103.5t-84 36.5t-84 -36.5t-27 -103.5q0 -66 27 -102.5zM81 732h138l76 -73l75 73h138l-127 -146h-173z" />
    <glyph glyph-name="uni01E8" unicode="&#x1e8;" horiz-adv-x="740" 
d="M57 720h169v-323l302 323h208l-286 -292l286 -428h-202l-199 310l-109 -111v-199h-169v720zM164 914h138l76 -73l75 73h138l-127 -146h-173z" />
    <glyph glyph-name="uni01E9" unicode="&#x1e9;" horiz-adv-x="588" 
d="M48 720h155v-397l190 197h181l-194 -196l205 -324h-181l-132 215l-69 -70v-145h-155v720zM-88 914h138l76 -73l75 73h138l-127 -146h-173z" />
    <glyph glyph-name="uni01EA" unicode="&#x1ea;" horiz-adv-x="786" 
d="M536 199.5q47 62.5 47 160.5t-47 160.5t-143 62.5t-143 -62.5t-47 -160.5t47 -160.5t143 -62.5t143 62.5zM69.5 548.5q42.5 84.5 125.5 134t198 49.5t198 -49.5t125.5 -134t42.5 -188.5q0 -87 -30.5 -162t-90 -127t-143.5 -72q-51 -25 -72.5 -46t-21.5 -41
q0 -19 14 -27.5t37 -8.5q20 0 44 7v-85q-33 -10 -77 -10q-62 0 -99 24t-37 73q0 28 20 56t56 48q-105 7 -180 58t-113.5 132.5t-38.5 180.5q0 104 42.5 188.5z" />
    <glyph glyph-name="uni01EB" unicode="&#x1eb;" 
d="M384.5 152q27.5 38 27.5 108t-27.5 108t-86.5 38q-58 0 -85.5 -38t-27.5 -108t27.5 -108t85.5 -38q59 0 86.5 38zM58.5 400q31.5 62 93 97t146.5 35q86 0 147.5 -35t93 -97t31.5 -140q0 -97 -47.5 -167t-135.5 -94q-51 -25 -72.5 -46t-21.5 -41q0 -19 14 -27.5t37 -8.5
q20 0 44 7v-85q-33 -10 -77 -10q-62 0 -99 24t-37 73q0 29 21 57t58 49q-108 13 -167.5 86.5t-59.5 182.5q0 78 31.5 140z" />
    <glyph glyph-name="uni01F4" unicode="&#x1f4;" horiz-adv-x="792" 
d="M186 37.5q-77 49.5 -118 134.5t-41 188q0 104 42.5 188.5t125.5 134t198 49.5q94 0 167 -33.5t117.5 -92.5t57.5 -135h-172q-17 52 -60.5 83t-109.5 31q-96 0 -143 -63.5t-47 -161.5t47 -161.5t143 -63.5q68 0 112 34t64 98h-206v133h382v-400h-121v124
q-74 -136 -259 -136q-102 0 -179 49.5zM429 926h171l-145 -146h-124z" />
    <glyph glyph-name="uni01F5" unicode="&#x1f5;" horiz-adv-x="610" 
d="M111 -161.5q-63 50.5 -67 138.5h154q7 -71 96 -71q48 0 79.5 24t31.5 83v65q-54 -67 -152 -67q-72 0 -123 33.5t-77 92.5t-26 134t26 134.5t77 93t123 33.5q102 0 156 -72v60h153v-507q0 -109 -77 -167t-198 -58q-113 0 -176 50.5zM212 168.5q27 -36.5 84 -36.5t84 36.5
t27 102.5q0 67 -27 103.5t-84 36.5t-84 -36.5t-27 -103.5q0 -66 27 -102.5zM331 732h171l-145 -146h-124z" />
    <glyph glyph-name="uni01F8" unicode="&#x1f8;" horiz-adv-x="745" 
d="M219 483v-483h-162v720h183l286 -485v485h162v-720h-183zM311 768l-145 146h171l98 -146h-124z" />
    <glyph glyph-name="uni01F9" unicode="&#x1f9;" 
d="M306 397q-43 0 -72 -29.5t-29 -85.5v-282h-157v520h153v-70q29 38 70 60t93 22q86 0 135.5 -54.5t49.5 -160.5v-317h-157v298q0 99 -86 99zM237 586l-145 146h171l98 -146h-124z" />
    <glyph glyph-name="uni0226" unicode="&#x226;" horiz-adv-x="747" 
d="M518 132h-297l-45 -132h-172l265 720h201l273 -720h-180zM469 273l-99 291l-100 -291h199zM291 897h157v-129h-157v129z" />
    <glyph glyph-name="uni0227" unicode="&#x227;" horiz-adv-x="562" 
d="M377 55q-32 -36 -71.5 -51.5t-92.5 -15.5q-86 0 -138.5 42t-52.5 118q0 69 48.5 105.5t160.5 55.5l142 24v21q0 30 -18 46.5t-62 16.5q-40 0 -63.5 -18t-24.5 -49h-156q1 88 68 135t174 47q116 0 175.5 -42t59.5 -117v-373h-149v55zM201.5 111.5q19.5 -15.5 56.5 -15.5
q49 0 82 25.5t33 76.5v39l-110 -22q-43 -8 -62 -21t-19 -40t19.5 -42.5zM209 720h157v-129h-157v129z" />
    <glyph glyph-name="uni0228" unicode="&#x228;" horiz-adv-x="633" 
d="M57 720h548v-151h-379v-132h350v-143h-350v-143h378v-151h-236l-42 -44h9q54 0 86 -21.5t32 -59.5q0 -42 -39.5 -70.5t-118.5 -28.5q-42 0 -75 8v58q33 -6 57 -6q67 0 67 39q0 36 -59 36q-20 0 -30 -2v40l38 51h-236v720z" />
    <glyph glyph-name="uni0229" unicode="&#x229;" horiz-adv-x="589" 
d="M184 -228v58q33 -6 57 -6q67 0 67 39q0 36 -59 36q-20 0 -30 -2v40l40 53q-109 11 -170.5 85t-61.5 185q0 78 31.5 140t92 97t143.5 35q128 0 198 -77t70 -212v-30h-383q9 -52 38.5 -80t76.5 -28q41 0 67.5 13.5t41.5 41.5h150q-23 -70 -79.5 -115t-139.5 -55l-44 -46h9
q54 0 86 -21.5t32 -59.5q0 -42 -39.5 -70.5t-118.5 -28.5q-42 0 -75 8zM409 314q-11 48 -40.5 74.5t-74.5 26.5t-74 -26.5t-40 -74.5h229z" />
    <glyph glyph-name="uni022E" unicode="&#x22e;" horiz-adv-x="786" 
d="M195 37.5q-83 49.5 -125.5 134t-42.5 188.5t42.5 188.5t125.5 134t198 49.5t198 -49.5t125.5 -134t42.5 -188.5t-42.5 -188.5t-125.5 -134t-198 -49.5t-198 49.5zM250 199.5q47 -62.5 143 -62.5t143 62.5t47 160.5t-47 160.5t-143 62.5t-143 -62.5t-47 -160.5t47 -160.5z
M315 909h157v-129h-157v129z" />
    <glyph glyph-name="uni022F" unicode="&#x22f;" 
d="M151.5 23q-61.5 35 -93 97t-31.5 140t31.5 140t93 97t146.5 35q86 0 147.5 -35t93 -97t31.5 -140t-31.5 -140t-93 -97t-147.5 -35q-85 0 -146.5 35zM212.5 152q27.5 -38 85.5 -38q59 0 86.5 38t27.5 108t-27.5 108t-86.5 38q-58 0 -85.5 -38t-27.5 -108t27.5 -108z
M220 720h157v-129h-157v129z" />
    <glyph glyph-name="uni0237" unicode="&#x237;" horiz-adv-x="258" 
d="M168.5 -170q-42.5 -30 -118.5 -30h-110v115h67q27 0 37 10.5t10 34.5v560h157v-576q0 -84 -42.5 -114z" />
    <glyph glyph-name="circumflex" unicode="&#x2c6;" horiz-adv-x="427" 
d="M427 586h-138l-75 73l-76 -73h-138l127 146h173z" />
    <glyph glyph-name="caron" unicode="&#x2c7;" horiz-adv-x="427" 
d="M0 732h138l76 -73l75 73h138l-127 -146h-173z" />
    <glyph glyph-name="breve" unicode="&#x2d8;" horiz-adv-x="362" 
d="M58.5 620q-48.5 40 -58.5 112h115q3 -28 20 -43t46 -15t46 15t20 43h115q-10 -72 -58 -112t-123 -40q-74 0 -122.5 40z" />
    <glyph glyph-name="dotaccent" unicode="&#x2d9;" horiz-adv-x="157" 
d="M0 720h157v-129h-157v129z" />
    <glyph glyph-name="ring" unicode="&#x2da;" horiz-adv-x="310" 
d="M76.5 599q-35.5 19 -56 52.5t-20.5 74.5q0 42 20.5 75.5t56 52.5t78.5 19t78.5 -19t56 -52.5t20.5 -75.5q0 -41 -20.5 -74.5t-56 -52.5t-78.5 -19t-78.5 19zM114 685.5q16 -15.5 41 -15.5t41 15.5t16 40.5t-16 41t-41 16t-41 -16t-16 -41t16 -40.5z" />
    <glyph glyph-name="ogonek" unicode="&#x2db;" horiz-adv-x="212" 
d="M37 -188q-37 24 -37 73q0 35 30.5 68.5t82.5 52.5h91l9 -6q-51 -25 -73 -46.5t-22 -41.5q0 -19 14 -27.5t37 -8.5q20 0 44 7v-85q-33 -10 -77 -10q-62 0 -99 24z" />
    <glyph glyph-name="tilde" unicode="&#x2dc;" horiz-adv-x="381" 
d="M31 697q31 35 84 35q18 0 35 -5t41 -15q6 -2 26 -10.5t34 -8.5q17 0 24.5 9t7.5 30h98q0 -73 -31 -108t-84 -35q-18 0 -33.5 4.5t-41.5 14.5q-5 2 -25.5 11t-35.5 9q-16 0 -23.5 -9t-7.5 -30h-99q0 73 31 108z" />
    <glyph glyph-name="gravecomb" unicode="&#x300;" horiz-adv-x="0" 
d="M145 586l-145 146h171l98 -146h-124z" />
    <glyph glyph-name="acutecomb" unicode="&#x301;" horiz-adv-x="0" 
d="M98 732h171l-145 -146h-124z" />
    <glyph glyph-name="uni0302" unicode="&#x302;" horiz-adv-x="0" 
d="M427 586h-138l-75 73l-76 -73h-138l127 146h173z" />
    <glyph glyph-name="tildecomb" unicode="&#x303;" horiz-adv-x="0" 
d="M31 697q31 35 84 35q18 0 35 -5t41 -15q6 -2 26 -10.5t34 -8.5q17 0 24.5 9t7.5 30h98q0 -73 -31 -108t-84 -35q-18 0 -33.5 4.5t-41.5 14.5q-5 2 -25.5 11t-35.5 9q-16 0 -23.5 -9t-7.5 -30h-99q0 73 31 108z" />
    <glyph glyph-name="uni0306" unicode="&#x306;" horiz-adv-x="0" 
d="M58.5 620q-48.5 40 -58.5 112h115q3 -28 20 -43t46 -15t46 15t20 43h115q-10 -72 -58 -112t-123 -40q-74 0 -122.5 40z" />
    <glyph glyph-name="uni0307" unicode="&#x307;" horiz-adv-x="0" 
d="M0 720h157v-129h-157v129z" />
    <glyph glyph-name="uni0308" unicode="&#x308;" horiz-adv-x="0" 
d="M0 720h157v-129h-157v129zM219 720h157v-129h-157v129z" />
    <glyph glyph-name="uni030A" unicode="&#x30a;" horiz-adv-x="0" 
d="M76.5 599q-35.5 19 -56 52.5t-20.5 74.5q0 42 20.5 75.5t56 52.5t78.5 19t78.5 -19t56 -52.5t20.5 -75.5q0 -41 -20.5 -74.5t-56 -52.5t-78.5 -19t-78.5 19zM114 685.5q16 -15.5 41 -15.5t41 15.5t16 40.5t-16 41t-41 16t-41 -16t-16 -41t16 -40.5z" />
    <glyph glyph-name="uni030C" unicode="&#x30c;" horiz-adv-x="0" 
d="M0 732h138l76 -73l75 73h138l-127 -146h-173z" />
    <glyph glyph-name="dotbelowcomb" unicode="&#x323;" horiz-adv-x="0" 
d="M0 -71h157v-129h-157v129z" />
    <glyph glyph-name="uni0327" unicode="&#x327;" horiz-adv-x="0" 
d="M0 -216v58q33 -6 57 -6q67 0 67 39q0 36 -59 36q-20 0 -30 -2v40l43 57h76l-48 -50h9q54 0 86 -21.5t32 -59.5q0 -42 -39.5 -70.5t-118.5 -28.5q-42 0 -75 8z" />
    <glyph glyph-name="uni0328" unicode="&#x328;" horiz-adv-x="0" 
d="M37 -188q-37 24 -37 73q0 35 30.5 68.5t82.5 52.5h91l9 -6q-51 -25 -73 -46.5t-22 -41.5q0 -19 14 -27.5t37 -8.5q20 0 44 7v-85q-33 -10 -77 -10q-62 0 -99 24z" />
    <glyph glyph-name="uni1E02" unicode="&#x1e02;" horiz-adv-x="685" 
d="M57 720h304q133 0 203 -49.5t70 -138.5q0 -101 -90 -150q58 -25 89 -69.5t31 -100.5q0 -104 -69.5 -158t-203.5 -54h-334v720zM388 137q51 0 76.5 20t25.5 62q0 81 -102 81h-162v-163h162zM364 430q102 0 102 77q0 76 -102 76h-138v-153h138zM257 897h157v-129h-157v129z
" />
    <glyph glyph-name="uni1E03" unicode="&#x1e03;" horiz-adv-x="610" 
d="M48 720h157v-258q54 70 152 70q72 0 123 -35t77 -97t26 -140t-26 -140t-77 -97t-123 -35q-102 0 -157 77v-65h-152v720zM230 152.5q27 -38.5 84 -38.5t84 38.5t27 107.5t-27 107.5t-84 38.5t-84 -38.5t-27 -107.5t27 -107.5zM48 897h157v-129h-157v129z" />
    <glyph glyph-name="uni1E0A" unicode="&#x1e0a;" horiz-adv-x="741" 
d="M57 720h288q123 0 206 -46.5t123 -127.5t40 -186t-40 -186t-123 -127.5t-206 -46.5h-288v720zM345 144q99 0 146 59.5t47 156.5t-47 156.5t-146 59.5h-119v-432h119zM273 897h157v-129h-157v129z" />
    <glyph glyph-name="uni1E0B" unicode="&#x1e0b;" horiz-adv-x="610" 
d="M410 0v65q-55 -77 -157 -77q-72 0 -123 35t-77 97t-26 140t26 140t77 97t123 35q98 0 152 -70v258h157v-720h-152zM212 152.5q27 -38.5 84 -38.5t84 38.5t27 107.5t-27 107.5t-84 38.5t-84 -38.5t-27 -107.5t27 -107.5zM405 897h157v-129h-157v129z" />
    <glyph glyph-name="uni1E1E" unicode="&#x1e1e;" horiz-adv-x="600" 
d="M57 720h528v-151h-359v-132h340v-143h-340v-294h-169v720zM243 897h157v-129h-157v129z" />
    <glyph glyph-name="uni1E1F" unicode="&#x1e1f;" horiz-adv-x="408" 
d="M143.5 690.5q42.5 29.5 118.5 29.5h122v-115h-79q-26 0 -36.5 -10.5t-10.5 -33.5v-41h126v-115h-126v-405h-157v405h-87v115h87v56q0 85 42.5 114.5zM164 920h157v-129h-157v129z" />
    <glyph glyph-name="uni1E22" unicode="&#x1e22;" horiz-adv-x="742" 
d="M516 292h-290v-292h-169v720h169v-276h290v276h169v-720h-169v292zM292 897h157v-129h-157v129z" />
    <glyph glyph-name="uni1E23" unicode="&#x1e23;" 
d="M48 720h157v-265q29 36 69 56.5t90 20.5q86 0 135.5 -54.5t49.5 -160.5v-317h-157v298q0 99 -86 99q-43 0 -72 -29.5t-29 -85.5v-282h-157v720zM48 897h157v-129h-157v129z" />
    <glyph glyph-name="uni1E28" unicode="&#x1e28;" horiz-adv-x="742" 
d="M516 292h-290v-292h-47l-42 -44h9q54 0 86 -21.5t32 -59.5q0 -42 -39.5 -70.5t-118.5 -28.5q-42 0 -75 8v58q33 -6 57 -6q67 0 67 39q0 36 -59 36q-20 0 -30 -2v40l38 51h-47v720h169v-276h290v276h169v-720h-169v292z" />
    <glyph glyph-name="uni1E29" unicode="&#x1e29;" 
d="M48 720h157v-265q29 36 69 56.5t90 20.5q86 0 135.5 -54.5t49.5 -160.5v-317h-157v298q0 99 -86 99q-43 0 -72 -29.5t-29 -85.5v-282h-41l-42 -44h9q54 0 86 -21.5t32 -59.5q0 -42 -39.5 -70.5t-118.5 -28.5q-42 0 -75 8v58q33 -6 57 -6q67 0 67 39q0 36 -59 36
q-20 0 -30 -2v40l38 51h-41v720z" />
    <glyph glyph-name="uni1E30" unicode="&#x1e30;" horiz-adv-x="740" 
d="M57 720h169v-323l302 323h208l-286 -292l286 -428h-202l-199 310l-109 -111v-199h-169v720zM413 914h171l-145 -146h-124z" />
    <glyph glyph-name="uni1E31" unicode="&#x1e31;" horiz-adv-x="588" 
d="M48 720h155v-397l190 197h181l-194 -196l205 -324h-181l-132 215l-69 -70v-145h-155v720zM161 914h171l-145 -146h-124z" />
    <glyph glyph-name="uni1E3E" unicode="&#x1e3e;" horiz-adv-x="911" 
d="M218 527v-527h-161v720h252l146 -496l146 496h253v-720h-162v527l-166 -527h-141zM491 914h171l-145 -146h-124z" />
    <glyph glyph-name="uni1E3F" unicode="&#x1e3f;" horiz-adv-x="904" 
d="M681 370q-18 27 -58 27q-42 0 -67 -29.5t-25 -85.5v-282h-157v298q0 45 -18.5 72t-58.5 27q-42 0 -67 -29.5t-25 -85.5v-282h-157v520h153v-74q26 40 64.5 63t89.5 23t91 -24t62 -71q30 43 74.5 69t98.5 26q79 0 127 -55t48 -160v-317h-157v298q0 45 -18 72zM488 732h171
l-145 -146h-124z" />
    <glyph glyph-name="uni1E40" unicode="&#x1e40;" horiz-adv-x="911" 
d="M218 527v-527h-161v720h252l146 -496l146 496h253v-720h-162v527l-166 -527h-141zM377 897h157v-129h-157v129z" />
    <glyph glyph-name="uni1E41" unicode="&#x1e41;" horiz-adv-x="904" 
d="M681 370q-18 27 -58 27q-42 0 -67 -29.5t-25 -85.5v-282h-157v298q0 45 -18.5 72t-58.5 27q-42 0 -67 -29.5t-25 -85.5v-282h-157v520h153v-74q26 40 64.5 63t89.5 23t91 -24t62 -71q30 43 74.5 69t98.5 26q79 0 127 -55t48 -160v-317h-157v298q0 45 -18 72zM374 720h157
v-129h-157v129z" />
    <glyph glyph-name="uni1E44" unicode="&#x1e44;" horiz-adv-x="745" 
d="M219 483v-483h-162v720h183l286 -485v485h162v-720h-183zM294 897h157v-129h-157v129z" />
    <glyph glyph-name="uni1E45" unicode="&#x1e45;" 
d="M306 397q-43 0 -72 -29.5t-29 -85.5v-282h-157v520h153v-70q29 38 70 60t93 22q86 0 135.5 -54.5t49.5 -160.5v-317h-157v298q0 99 -86 99zM220 720h157v-129h-157v129z" />
    <glyph glyph-name="uni1E56" unicode="&#x1e56;" horiz-adv-x="672" 
d="M57 720h314q88 0 149.5 -31t93 -85.5t31.5 -124.5q0 -71 -31.5 -125.5t-93 -85.5t-149.5 -31h-145v-237h-169v720zM360 382q116 0 116 97t-116 97h-134v-194h134zM263 897h157v-129h-157v129z" />
    <glyph glyph-name="uni1E57" unicode="&#x1e57;" horiz-adv-x="610" 
d="M200 520v-65q55 77 157 77q72 0 123 -35t77 -97t26 -140t-26 -140t-77 -97t-123 -35q-98 0 -152 70v-258h-157v720h152zM230 152.5q27 -38.5 84 -38.5t84 38.5t27 107.5t-27 107.5t-84 38.5t-84 -38.5t-27 -107.5t27 -107.5zM238 720h157v-129h-157v129z" />
    <glyph glyph-name="uni1E58" unicode="&#x1e58;" horiz-adv-x="691" 
d="M57 720h338q130 0 195 -59t65 -157q0 -55 -29 -99.5t-81 -76.5q45 -22 67.5 -57t29.5 -84l28 -187h-173l-24 162q-8 54 -34 79.5t-76 25.5h-137v-267h-169v720zM365 396q58 0 87 23t29 71t-29 71t-87 23h-139v-188h139zM267 897h157v-129h-157v129z" />
    <glyph glyph-name="uni1E59" unicode="&#x1e59;" horiz-adv-x="418" 
d="M48 520h153v-95q44 101 150 101h43v-143h-50q-69 0 -104 -34.5t-35 -116.5v-232h-157v520zM143 720h157v-129h-157v129z" />
    <glyph glyph-name="uni1E60" unicode="&#x1e60;" horiz-adv-x="662" 
d="M106 55.5q-83 67.5 -84 185.5h165q1 -68 43 -94t113 -26q56 0 89.5 22t33.5 60q0 22 -12 37t-47.5 28t-103.5 25q-140 22 -203 76.5t-63 151.5q0 61 34 109t98 75t151 27q141 0 218 -63.5t82 -180.5h-162q-3 57 -36.5 84t-101.5 27q-50 0 -80 -19.5t-30 -51.5
q0 -23 12 -39t45 -29t95 -23q106 -17 167 -46.5t86.5 -72.5t25.5 -105q0 -109 -84.5 -167t-220.5 -58q-147 0 -230 67.5zM253 909h157v-129h-157v129z" />
    <glyph glyph-name="uni1E61" unicode="&#x1e61;" horiz-adv-x="527" 
d="M86 31q-64 43 -70 140h150q5 -44 31.5 -61.5t75.5 -17.5q37 0 60 13t23 36q0 17 -8 27t-32 18t-75 17q-120 21 -168 60t-48 106q0 77 62 120t170 43q118 0 177.5 -48.5t62.5 -131.5h-143q-2 76 -97 76q-36 0 -58 -13t-22 -36q0 -16 10 -26.5t36.5 -18t76.5 -15.5
q117 -18 164 -58t47 -109q0 -78 -66.5 -121t-178.5 -43q-116 0 -180 43zM185 720h157v-129h-157v129z" />
    <glyph glyph-name="uni1E6A" unicode="&#x1e6a;" horiz-adv-x="637" 
d="M234 569h-221v151h611v-151h-220v-569h-170v569zM240 897h157v-129h-157v129z" />
    <glyph glyph-name="uni1E6B" unicode="&#x1e6b;" horiz-adv-x="408" 
d="M258 680v-160h126v-115h-126v-245q0 -24 10.5 -34.5t36.5 -10.5h79v-115h-122q-76 0 -118.5 30t-42.5 114v261h-87v115h87v160h157zM101 880h157v-129h-157v129z" />
    <glyph glyph-name="uni1E7C" unicode="&#x1e7c;" horiz-adv-x="733" 
d="M4 720h181l185 -571l179 571h180l-263 -720h-199zM207 876q31 35 84 35q18 0 35 -5t41 -15q6 -2 26 -10.5t34 -8.5q17 0 24.5 9t7.5 30h98q0 -73 -31 -108t-84 -35q-18 0 -33.5 4.5t-41.5 14.5q-5 2 -25.5 11t-35.5 9q-16 0 -23.5 -9t-7.5 -30h-99q0 73 31 108z" />
    <glyph glyph-name="uni1E7D" unicode="&#x1e7d;" horiz-adv-x="573" 
d="M4 520h169l116 -384l111 384h169l-191 -520h-184zM127 697q31 35 84 35q18 0 35 -5t41 -15q6 -2 26 -10.5t34 -8.5q17 0 24.5 9t7.5 30h98q0 -73 -31 -108t-84 -35q-18 0 -33.5 4.5t-41.5 14.5q-5 2 -25.5 11t-35.5 9q-16 0 -23.5 -9t-7.5 -30h-99q0 73 31 108z" />
    <glyph glyph-name="Wgrave" unicode="&#x1e80;" horiz-adv-x="1011" 
d="M506 500l-110 -500h-191l-201 720h179l126 -522l111 522h171l111 -521l127 521h178l-201 -720h-190zM444 768l-145 146h171l98 -146h-124z" />
    <glyph glyph-name="wgrave" unicode="&#x1e81;" horiz-adv-x="876" 
d="M438 329l-92 -329h-165l-177 520h169l101 -340l91 340h146l91 -340l101 340h169l-178 -520h-164zM376 586l-145 146h171l98 -146h-124z" />
    <glyph glyph-name="Wacute" unicode="&#x1e82;" horiz-adv-x="1011" 
d="M506 500l-110 -500h-191l-201 720h179l126 -522l111 522h171l111 -521l127 521h178l-201 -720h-190zM542 914h171l-145 -146h-124z" />
    <glyph glyph-name="wacute" unicode="&#x1e83;" horiz-adv-x="876" 
d="M438 329l-92 -329h-165l-177 520h169l101 -340l91 340h146l91 -340l101 340h169l-178 -520h-164zM474 732h171l-145 -146h-124z" />
    <glyph glyph-name="Wdieresis" unicode="&#x1e84;" horiz-adv-x="1011" 
d="M506 500l-110 -500h-191l-201 720h179l126 -522l111 522h171l111 -521l127 521h178l-201 -720h-190zM318 897h157v-129h-157v129zM537 897h157v-129h-157v129z" />
    <glyph glyph-name="wdieresis" unicode="&#x1e85;" horiz-adv-x="876" 
d="M438 329l-92 -329h-165l-177 520h169l101 -340l91 340h146l91 -340l101 340h169l-178 -520h-164zM250 720h157v-129h-157v129zM469 720h157v-129h-157v129z" />
    <glyph glyph-name="uni1E86" unicode="&#x1e86;" horiz-adv-x="1011" 
d="M506 500l-110 -500h-191l-201 720h179l126 -522l111 522h171l111 -521l127 521h178l-201 -720h-190zM427 897h157v-129h-157v129z" />
    <glyph glyph-name="uni1E87" unicode="&#x1e87;" horiz-adv-x="876" 
d="M438 329l-92 -329h-165l-177 520h169l101 -340l91 340h146l91 -340l101 340h169l-178 -520h-164zM360 720h157v-129h-157v129z" />
    <glyph glyph-name="uni1E8A" unicode="&#x1e8a;" horiz-adv-x="692" 
d="M344 224l-149 -224h-191l244 368l-234 352h195l137 -205l136 205h191l-232 -349l247 -371h-196zM268 897h157v-129h-157v129z" />
    <glyph glyph-name="uni1E8B" unicode="&#x1e8b;" horiz-adv-x="555" 
d="M277 142l-100 -142h-175l187 267l-177 253h178l88 -126l88 126h175l-175 -251l188 -269h-178zM199 720h157v-129h-157v129z" />
    <glyph glyph-name="uni1E8E" unicode="&#x1e8e;" horiz-adv-x="725" 
d="M282 277l-278 443h194l168 -286l168 286h187l-270 -439v-281h-169v277zM288 897h157v-129h-157v129z" />
    <glyph glyph-name="uni1E8F" unicode="&#x1e8f;" horiz-adv-x="567" 
d="M31 -76h86q39 0 54.5 12.5t27.5 51.5l1 2l-196 530h169l112 -380l109 380h169l-202 -558q-29 -80 -74 -121t-126 -41h-130v124zM205 720h157v-129h-157v129z" />
    <glyph glyph-name="uni1EBC" unicode="&#x1ebc;" horiz-adv-x="633" 
d="M57 720h548v-151h-379v-132h350v-143h-350v-143h378v-151h-547v720zM171 876q31 35 84 35q18 0 35 -5t41 -15q6 -2 26 -10.5t34 -8.5q17 0 24.5 9t7.5 30h98q0 -73 -31 -108t-84 -35q-18 0 -33.5 4.5t-41.5 14.5q-5 2 -25.5 11t-35.5 9q-16 0 -23.5 -9t-7.5 -30h-99
q0 73 31 108z" />
    <glyph glyph-name="uni1EBD" unicode="&#x1ebd;" horiz-adv-x="589" 
d="M150.5 23q-60.5 35 -92 97t-31.5 140t31.5 140t92 97t143.5 35q128 0 198 -77t70 -212v-30h-383q9 -52 38.5 -80t76.5 -28q41 0 67.5 13.5t41.5 41.5h150q-26 -79 -93.5 -125.5t-165.5 -46.5q-83 0 -143.5 35zM409 314q-11 48 -40.5 74.5t-74.5 26.5t-74 -26.5t-40 -74.5
h229zM135 697q31 35 84 35q18 0 35 -5t41 -15q6 -2 26 -10.5t34 -8.5q17 0 24.5 9t7.5 30h98q0 -73 -31 -108t-84 -35q-18 0 -33.5 4.5t-41.5 14.5q-5 2 -25.5 11t-35.5 9q-16 0 -23.5 -9t-7.5 -30h-99q0 73 31 108z" />
    <glyph glyph-name="Ygrave" unicode="&#x1ef2;" horiz-adv-x="725" 
d="M282 277l-278 443h194l168 -286l168 286h187l-270 -439v-281h-169v277zM305 768l-145 146h171l98 -146h-124z" />
    <glyph glyph-name="ygrave" unicode="&#x1ef3;" horiz-adv-x="567" 
d="M31 -76h86q39 0 54.5 12.5t27.5 51.5l1 2l-196 530h169l112 -380l109 380h169l-202 -558q-29 -80 -74 -121t-126 -41h-130v124zM222 586l-145 146h171l98 -146h-124z" />
    <glyph glyph-name="uni1EF8" unicode="&#x1ef8;" horiz-adv-x="725" 
d="M282 277l-278 443h194l168 -286l168 286h187l-270 -439v-281h-169v277zM207 876q31 35 84 35q18 0 35 -5t41 -15q6 -2 26 -10.5t34 -8.5q17 0 24.5 9t7.5 30h98q0 -73 -31 -108t-84 -35q-18 0 -33.5 4.5t-41.5 14.5q-5 2 -25.5 11t-35.5 9q-16 0 -23.5 -9t-7.5 -30h-99
q0 73 31 108z" />
    <glyph glyph-name="uni1EF9" unicode="&#x1ef9;" horiz-adv-x="567" 
d="M31 -76h86q39 0 54.5 12.5t27.5 51.5l1 2l-196 530h169l112 -380l109 380h169l-202 -558q-29 -80 -74 -121t-126 -41h-130v124zM124 697q31 35 84 35q18 0 35 -5t41 -15q6 -2 26 -10.5t34 -8.5q17 0 24.5 9t7.5 30h98q0 -73 -31 -108t-84 -35q-18 0 -33.5 4.5t-41.5 14.5
q-5 2 -25.5 11t-35.5 9q-16 0 -23.5 -9t-7.5 -30h-99q0 73 31 108z" />
    <glyph glyph-name="endash" unicode="&#x2013;" horiz-adv-x="540" 
d="M32 356h476v-133h-476v133z" />
    <glyph glyph-name="emdash" unicode="&#x2014;" horiz-adv-x="991" 
d="M32 357h927v-134h-927v134z" />
    <glyph glyph-name="quoteleft" unicode="&#x2018;" horiz-adv-x="287" 
d="M36 385l116 335h117l-65 -335h-168z" />
    <glyph glyph-name="quoteright" unicode="&#x2019;" horiz-adv-x="287" 
d="M250 720l-116 -335h-117l65 335h168z" />
    <glyph glyph-name="quotesinglbase" unicode="&#x201a;" horiz-adv-x="287" 
d="M250 179l-116 -335h-117l65 335h168z" />
    <glyph glyph-name="quotedblleft" unicode="&#x201c;" horiz-adv-x="492" 
d="M242 385l116 335h117l-65 -335h-168zM152 720h117l-65 -335h-168z" />
    <glyph glyph-name="quotedblright" unicode="&#x201d;" horiz-adv-x="492" 
d="M250 720l-116 -335h-117l65 335h168zM455 720l-116 -335h-117l65 335h168z" />
    <glyph glyph-name="quotedblbase" unicode="&#x201e;" horiz-adv-x="492" 
d="M250 179l-116 -335h-117l65 335h168zM455 179l-116 -335h-117l65 335h168z" />
    <glyph glyph-name="dagger" unicode="&#x2020;" horiz-adv-x="617" 
d="M224 376h-209v144h209v200h169v-200h209v-144h-209v-576h-169v576z" />
    <glyph glyph-name="daggerdbl" unicode="&#x2021;" horiz-adv-x="617" 
d="M224 0h-209v144h209v232h-209v144h209v200h169v-200h209v-144h-209v-232h209v-144h-209v-200h-169v200z" />
    <glyph glyph-name="ellipsis" unicode="&#x2026;" horiz-adv-x="790" 
d="M37 179h175v-179h-175v179zM308 179h175v-179h-175v179zM578 179h175v-179h-175v179z" />
    <glyph glyph-name="perthousand" unicode="&#x2030;" horiz-adv-x="1314" 
d="M67 359q-45 59 -45 157t45 157t135 59q89 0 134.5 -59t45.5 -157t-45.5 -157t-134.5 -59q-90 0 -135 59zM152.5 424q15.5 -31 49.5 -31t49.5 31t15.5 92t-15.5 92t-49.5 31t-49.5 -31t-15.5 -92t15.5 -92zM597 720h103l-382 -720h-103zM578 361q45 59 135 59
q89 0 134.5 -59t45.5 -157t-45.5 -157t-134.5 -59q-90 0 -135 59t-45 157t45 157zM663.5 112q15.5 -31 49.5 -31t49.5 31t15.5 92t-15.5 92t-49.5 31t-49.5 -31t-15.5 -92t15.5 -92zM978 361q45 59 135 59q89 0 134.5 -59t45.5 -157t-45.5 -157t-134.5 -59q-90 0 -135 59
t-45 157t45 157zM1063.5 112q15.5 -31 49.5 -31t49.5 31t15.5 92t-15.5 92t-49.5 31t-49.5 -31t-15.5 -92t15.5 -92z" />
    <glyph glyph-name="Euro" unicode="&#x20ac;" horiz-adv-x="753" 
d="M198 60.5q-82 72.5 -107 193.5h-91v79h81q-1 9 -1 27q0 26 1 39h-81v79h93q28 116 109 185t211 69q135 0 215 -73.5t99 -192.5h-168q-34 117 -146 117q-107 0 -141 -105h159v-79h-174q-1 -13 -1 -39q0 -18 1 -27h174v-79h-163q32 -117 145 -117q117 0 147 129h168
q-10 -79 -48 -142t-105.5 -99.5t-161.5 -36.5q-133 0 -215 72.5z" />
    <glyph glyph-name="uni20BF" unicode="&#x20bf;" horiz-adv-x="685" 
d="M205 0h-148v720h148v114h77v-114h79h5v114h76v-120q94 -13 143 -60t49 -122q0 -101 -90 -150q58 -25 89 -69.5t31 -100.5q0 -94 -56.5 -147t-165.5 -63v-116h-76v114h-84v-114h-77v114zM388 137q51 0 76.5 20t25.5 62q0 81 -102 81h-162v-163h162zM364 430q102 0 102 77
q0 76 -102 76h-138v-153h138z" />
    <glyph glyph-name="uni2117" unicode="&#x2117;" horiz-adv-x="826" 
d="M217.5 35.5q-87.5 47.5 -138 132.5t-50.5 192t50.5 192t138 132.5t195.5 47.5t196 -47.5t138.5 -132.5t50.5 -192t-50.5 -192t-138.5 -132.5t-196 -47.5t-195.5 47.5zM178.5 220q34.5 -60 95.5 -92.5t139 -32.5t139 32.5t95.5 92.5t34.5 140t-34.5 140t-95.5 92.5
t-139 32.5t-139 -32.5t-95.5 -92.5t-34.5 -140t34.5 -140zM278 546h167q69 0 107 -35t38 -92q0 -58 -38 -93t-107 -35h-67v-117h-100v372zM437 375q27 0 40.5 10.5t13.5 33.5t-13.5 33t-40.5 10h-59v-87h59z" />
    <glyph glyph-name="uni2120" unicode="&#x2120;" horiz-adv-x="655" 
d="M307 720h108l53 -187l53 187h109v-288h-69v209l-63 -209h-60l-62 206v-206h-69v288zM96 528q0 -25 16 -35t43 -10q22 0 34.5 8t12.5 22q0 13 -12.5 20.5t-50.5 13.5q-57 9 -82.5 31t-25.5 61q0 38 31 62t85 24q56 0 87.5 -25t32.5 -73h-68q-1 42 -52 42q-20 0 -31.5 -7
t-11.5 -20q0 -12 12.5 -20t47.5 -14q63 -9 88 -30.5t25 -59.5q0 -44 -34.5 -67.5t-90.5 -23.5q-60 0 -93 27t-33 74h70z" />
    <glyph glyph-name="trademark" unicode="&#x2122;" horiz-adv-x="651" 
d="M302 720h109l53 -188l53 188h108v-288h-69v206l-63 -206h-59l-63 209v-209h-69v288zM26 720h246v-64h-87v-224h-72v224h-87v64z" />
    <glyph glyph-name="arrowleft" unicode="&#x2190;" horiz-adv-x="964" 
d="M375 286l256 -286h-199l-322 360l322 360h199l-256 -286h479v-148h-479z" />
    <glyph glyph-name="arrowup" unicode="&#x2191;" horiz-adv-x="940" 
d="M396 -12v479l-286 -256v199l360 322l360 -322v-199l-286 256v-479h-148z" />
    <glyph glyph-name="arrowright" unicode="&#x2192;" horiz-adv-x="964" 
d="M110 434h479l-256 286h199l322 -360l-322 -360h-199l256 286h-479v148z" />
    <glyph glyph-name="arrowdown" unicode="&#x2193;" horiz-adv-x="940" 
d="M544 253l286 256v-199l-360 -322l-360 322v199l286 -256v479h148v-479z" />
    <glyph glyph-name="arrowboth" unicode="&#x2194;" horiz-adv-x="1200" 
d="M110 360l259 360h178l-206 -286h518l-206 286h178l259 -360l-259 -360h-178l206 286h-518l206 -286h-178z" />
    <glyph glyph-name="arrowupdn" unicode="&#x2195;" horiz-adv-x="940" 
d="M544 644v-568l286 206v-178l-360 -259l-360 259v178l286 -206v568l-286 -206v178l360 259l360 -259v-178z" />
    <glyph glyph-name="uni2196" unicode="&#x2196;" horiz-adv-x="971" 
d="M297 444v-419l-147 147v524h524l147 -148h-420l396 -396l-104 -103z" />
    <glyph glyph-name="uni2197" unicode="&#x2197;" horiz-adv-x="971" 
d="M174 152l396 396h-420l147 148h524v-524l-147 -147v419l-396 -395z" />
    <glyph glyph-name="uni2198" unicode="&#x2198;" horiz-adv-x="971" 
d="M674 276v419l147 -147v-524h-524l-147 148h420l-396 396l104 103z" />
    <glyph glyph-name="uni2199" unicode="&#x2199;" horiz-adv-x="971" 
d="M797 568l-396 -396h420l-147 -148h-524v524l147 147v-419l396 395z" />
    <glyph glyph-name="minus" unicode="&#x2212;" horiz-adv-x="540" 
d="M32 427h476v-133h-476v133z" />
    <glyph glyph-name="lessequal" unicode="&#x2264;" horiz-adv-x="540" 
d="M508 614v-138l-323 -96l323 -97v-137l-476 165v137zM32 118h476v-119h-476v119z" />
    <glyph glyph-name="greaterequal" unicode="&#x2265;" horiz-adv-x="540" 
d="M32 146v137l323 97l-323 96v138l476 -166v-137zM32 118h476v-119h-476v119z" />
    <glyph glyph-name="filledbox" unicode="&#x25a0;" horiz-adv-x="924" 
d="M924 810v-900h-924v900h924z" />
    <glyph glyph-name="uni25A1" unicode="&#x25a1;" horiz-adv-x="924" 
d="M0 810h924v-900h-924v900zM792 27v666h-660v-666h660z" />
    <glyph glyph-name="triagup" unicode="&#x25b2;" horiz-adv-x="948" 
d="M474 822l474 -924h-948z" />
    <glyph glyph-name="uni25B3" unicode="&#x25b3;" horiz-adv-x="948" 
d="M474 822l474 -924h-948zM757 15l-283 554l-283 -554h566z" />
    <glyph glyph-name="uni25B6" unicode="&#x25b6;" horiz-adv-x="948" 
d="M936 360l-924 -474v948z" />
    <glyph glyph-name="uni25B7" unicode="&#x25b7;" horiz-adv-x="948" 
d="M936 360l-924 -474v948zM683 360l-554 283v-566z" />
    <glyph glyph-name="triagdn" unicode="&#x25bc;" horiz-adv-x="948" 
d="M948 822l-474 -924l-474 924h948z" />
    <glyph glyph-name="uni25BD" unicode="&#x25bd;" horiz-adv-x="948" 
d="M948 822l-474 -924l-474 924h948zM474 151l283 554h-566z" />
    <glyph glyph-name="uni25C0" unicode="&#x25c0;" horiz-adv-x="948" 
d="M12 360l924 474v-948z" />
    <glyph glyph-name="uni25C1" unicode="&#x25c1;" horiz-adv-x="948" 
d="M12 360l924 474v-948zM819 77v566l-554 -283z" />
    <glyph glyph-name="circle" unicode="&#x25cb;" horiz-adv-x="948" 
d="M236 -40q-109 62 -172.5 168.5t-63.5 231.5t63.5 231.5t172.5 168.5t238 62t238 -62t172.5 -168.5t63.5 -231.5t-63.5 -231.5t-172.5 -168.5t-238 -62t-238 62zM176.5 189.5q46.5 -78.5 125.5 -124.5t172 -46t172 46t125.5 124.5t46.5 170.5t-46.5 170.5t-125.5 124.5
t-172 46t-172 -46t-125.5 -124.5t-46.5 -170.5t46.5 -170.5z" />
    <glyph glyph-name="uni25CF" unicode="&#x25cf;" horiz-adv-x="948" 
d="M236 -40q-109 62 -172.5 168.5t-63.5 231.5t63.5 231.5t172.5 168.5t238 62t238 -62t172.5 -168.5t63.5 -231.5t-63.5 -231.5t-172.5 -168.5t-238 -62t-238 62z" />
    <glyph glyph-name="uni004A0301" horiz-adv-x="579" 
d="M89.5 54q-64.5 66 -64.5 181v40h162v-40q0 -51 20.5 -77t67.5 -26t67.5 26t20.5 77v485h169v-485q0 -114 -67.5 -180.5t-189.5 -66.5q-121 0 -185.5 66zM483 914h171l-145 -146h-124z" />
    <glyph glyph-name="G.ss06" horiz-adv-x="775" 
d="M195 37.5q-83 49.5 -125.5 134t-42.5 188.5t42.5 188.5t125.5 134t198 49.5q138 0 226 -70t118 -186h-172q-20 49 -64.5 78t-107.5 29q-96 0 -143 -62.5t-47 -160.5t47 -160.5t143 -62.5q73 0 117 36.5t61 98.5h-208v133h383q3 -22 3 -45q0 -105 -40.5 -189
t-120.5 -133.5t-195 -49.5t-198 49.5z" />
    <glyph glyph-name="uni01F4.ss06" horiz-adv-x="775" 
d="M195 37.5q-83 49.5 -125.5 134t-42.5 188.5t42.5 188.5t125.5 134t198 49.5q138 0 226 -70t118 -186h-172q-20 49 -64.5 78t-107.5 29q-96 0 -143 -62.5t-47 -160.5t47 -160.5t143 -62.5q73 0 117 36.5t61 98.5h-208v133h383q3 -22 3 -45q0 -105 -40.5 -189
t-120.5 -133.5t-195 -49.5t-198 49.5zM429 926h171l-145 -146h-124z" />
    <glyph glyph-name="Gbreve.ss06" horiz-adv-x="775" 
d="M195 37.5q-83 49.5 -125.5 134t-42.5 188.5t42.5 188.5t125.5 134t198 49.5q138 0 226 -70t118 -186h-172q-20 49 -64.5 78t-107.5 29q-96 0 -143 -62.5t-47 -160.5t47 -160.5t143 -62.5q73 0 117 36.5t61 98.5h-208v133h383q3 -22 3 -45q0 -105 -40.5 -189
t-120.5 -133.5t-195 -49.5t-198 49.5zM270.5 814q-48.5 40 -58.5 112h115q3 -28 20 -43t46 -15t46 15t20 43h115q-10 -72 -58 -112t-123 -40q-74 0 -122.5 40z" />
    <glyph glyph-name="Gcaron.ss06" horiz-adv-x="775" 
d="M195 37.5q-83 49.5 -125.5 134t-42.5 188.5t42.5 188.5t125.5 134t198 49.5q138 0 226 -70t118 -186h-172q-20 49 -64.5 78t-107.5 29q-96 0 -143 -62.5t-47 -160.5t47 -160.5t143 -62.5q73 0 117 36.5t61 98.5h-208v133h383q3 -22 3 -45q0 -105 -40.5 -189
t-120.5 -133.5t-195 -49.5t-198 49.5zM180 926h138l76 -73l75 73h138l-127 -146h-173z" />
    <glyph glyph-name="Gcircumflex.ss06" horiz-adv-x="775" 
d="M195 37.5q-83 49.5 -125.5 134t-42.5 188.5t42.5 188.5t125.5 134t198 49.5q138 0 226 -70t118 -186h-172q-20 49 -64.5 78t-107.5 29q-96 0 -143 -62.5t-47 -160.5t47 -160.5t143 -62.5q73 0 117 36.5t61 98.5h-208v133h383q3 -22 3 -45q0 -105 -40.5 -189
t-120.5 -133.5t-195 -49.5t-198 49.5zM607 780h-138l-75 73l-76 -73h-138l127 146h173z" />
    <glyph glyph-name="Gdotaccent.ss06" horiz-adv-x="775" 
d="M195 37.5q-83 49.5 -125.5 134t-42.5 188.5t42.5 188.5t125.5 134t198 49.5q138 0 226 -70t118 -186h-172q-20 49 -64.5 78t-107.5 29q-96 0 -143 -62.5t-47 -160.5t47 -160.5t143 -62.5q73 0 117 36.5t61 98.5h-208v133h383q3 -22 3 -45q0 -105 -40.5 -189
t-120.5 -133.5t-195 -49.5t-198 49.5zM315 909h157v-129h-157v129z" />
    <glyph glyph-name="J.ss07" horiz-adv-x="429" 
d="M25 133h94q51 0 72.5 22.5t21.5 74.5v490h169v-509q0 -211 -206 -211h-151v133z" />
    <glyph glyph-name="uni004A0301.ss07" horiz-adv-x="429" 
d="M25 133h94q51 0 72.5 22.5t21.5 74.5v490h169v-509q0 -211 -206 -211h-151v133zM333 914h171l-145 -146h-124z" />
    <glyph glyph-name="Jcircumflex.ss07" horiz-adv-x="429" 
d="M25 133h94q51 0 72.5 22.5t21.5 74.5v490h169v-509q0 -211 -206 -211h-151v133zM511 768h-138l-75 73l-76 -73h-138l127 146h173z" />
    <glyph glyph-name="R.ss08" horiz-adv-x="687" 
d="M57 720h324q87 0 149 -30.5t93.5 -83.5t31.5 -120q0 -72 -39 -126.5t-110 -82.5l176 -277h-189l-149 251h-118v-251h-169v720zM370 389q116 0 116 97t-116 97h-144v-194h144z" />
    <glyph glyph-name="Racute.ss08" horiz-adv-x="687" 
d="M57 720h324q87 0 149 -30.5t93.5 -83.5t31.5 -120q0 -72 -39 -126.5t-110 -82.5l176 -277h-189l-149 251h-118v-251h-169v720zM370 389q116 0 116 97t-116 97h-144v-194h144zM382 914h171l-145 -146h-124z" />
    <glyph glyph-name="Rcaron.ss08" horiz-adv-x="687" 
d="M57 720h324q87 0 149 -30.5t93.5 -83.5t31.5 -120q0 -72 -39 -126.5t-110 -82.5l176 -277h-189l-149 251h-118v-251h-169v720zM370 389q116 0 116 97t-116 97h-144v-194h144zM133 914h138l76 -73l75 73h138l-127 -146h-173z" />
    <glyph glyph-name="uni1E58.ss08" horiz-adv-x="687" 
d="M57 720h324q87 0 149 -30.5t93.5 -83.5t31.5 -120q0 -72 -39 -126.5t-110 -82.5l176 -277h-189l-149 251h-118v-251h-169v720zM370 389q116 0 116 97t-116 97h-144v-194h144zM268 897h157v-129h-157v129z" />
    <glyph glyph-name="uni006A0301" horiz-adv-x="258" 
d="M168.5 -170q-42.5 -30 -118.5 -30h-110v115h67q27 0 37 10.5t10 34.5v560h157v-576q0 -84 -42.5 -114zM168 732h171l-145 -146h-124z" />
    <glyph glyph-name="a.ss01" horiz-adv-x="615" 
d="M431 0v65q-55 -77 -157 -77q-72 0 -123 35t-77 97t-26 140t26 140t77 97t123 35q98 0 152 -70v58h157v-520h-152zM233 152.5q27 -38.5 84 -38.5t84 38.5t27 107.5t-27 107.5t-84 38.5t-84 -38.5t-27 -107.5t27 -107.5z" />
    <glyph glyph-name="aacute.ss01" horiz-adv-x="615" 
d="M431 0v65q-55 -77 -157 -77q-72 0 -123 35t-77 97t-26 140t26 140t77 97t123 35q98 0 152 -70v58h157v-520h-152zM233 152.5q27 -38.5 84 -38.5t84 38.5t27 107.5t-27 107.5t-84 38.5t-84 -38.5t-27 -107.5t27 -107.5zM352 732h171l-145 -146h-124z" />
    <glyph glyph-name="abreve.ss01" horiz-adv-x="615" 
d="M431 0v65q-55 -77 -157 -77q-72 0 -123 35t-77 97t-26 140t26 140t77 97t123 35q98 0 152 -70v58h157v-520h-152zM233 152.5q27 -38.5 84 -38.5t84 38.5t27 107.5t-27 107.5t-84 38.5t-84 -38.5t-27 -107.5t27 -107.5zM193.5 620q-48.5 40 -58.5 112h115q3 -28 20 -43
t46 -15t46 15t20 43h115q-10 -72 -58 -112t-123 -40q-74 0 -122.5 40z" />
    <glyph glyph-name="uni01CE.ss01" horiz-adv-x="615" 
d="M431 0v65q-55 -77 -157 -77q-72 0 -123 35t-77 97t-26 140t26 140t77 97t123 35q98 0 152 -70v58h157v-520h-152zM233 152.5q27 -38.5 84 -38.5t84 38.5t27 107.5t-27 107.5t-84 38.5t-84 -38.5t-27 -107.5t27 -107.5zM103 732h138l76 -73l75 73h138l-127 -146h-173z" />
    <glyph glyph-name="acircumflex.ss01" horiz-adv-x="615" 
d="M431 0v65q-55 -77 -157 -77q-72 0 -123 35t-77 97t-26 140t26 140t77 97t123 35q98 0 152 -70v58h157v-520h-152zM233 152.5q27 -38.5 84 -38.5t84 38.5t27 107.5t-27 107.5t-84 38.5t-84 -38.5t-27 -107.5t27 -107.5zM530 586h-138l-75 73l-76 -73h-138l127 146h173z
" />
    <glyph glyph-name="adieresis.ss01" horiz-adv-x="615" 
d="M431 0v65q-55 -77 -157 -77q-72 0 -123 35t-77 97t-26 140t26 140t77 97t123 35q98 0 152 -70v58h157v-520h-152zM233 152.5q27 -38.5 84 -38.5t84 38.5t27 107.5t-27 107.5t-84 38.5t-84 -38.5t-27 -107.5t27 -107.5zM128 720h157v-129h-157v129zM347 720h157v-129h-157
v129z" />
    <glyph glyph-name="uni0227.ss01" horiz-adv-x="615" 
d="M431 0v65q-55 -77 -157 -77q-72 0 -123 35t-77 97t-26 140t26 140t77 97t123 35q98 0 152 -70v58h157v-520h-152zM233 152.5q27 -38.5 84 -38.5t84 38.5t27 107.5t-27 107.5t-84 38.5t-84 -38.5t-27 -107.5t27 -107.5zM238 720h157v-129h-157v129z" />
    <glyph glyph-name="agrave.ss01" horiz-adv-x="615" 
d="M431 0v65q-55 -77 -157 -77q-72 0 -123 35t-77 97t-26 140t26 140t77 97t123 35q98 0 152 -70v58h157v-520h-152zM233 152.5q27 -38.5 84 -38.5t84 38.5t27 107.5t-27 107.5t-84 38.5t-84 -38.5t-27 -107.5t27 -107.5zM254 586l-145 146h171l98 -146h-124z" />
    <glyph glyph-name="aogonek.ss01" horiz-adv-x="615" 
d="M510 -46.5q-22 -21.5 -22 -41.5q0 -19 14 -27.5t37 -8.5q20 0 44 7v-85q-33 -10 -77 -10q-62 0 -99 24t-37 73q0 33 26 64t72 51h-37v65q-55 -77 -157 -77q-72 0 -123 35t-77 97t-26 140t26 140t77 97t123 35q98 0 152 -70v58h157v-520q-51 -25 -73 -46.5zM233 152.5
q27 -38.5 84 -38.5t84 38.5t27 107.5t-27 107.5t-84 38.5t-84 -38.5t-27 -107.5t27 -107.5z" />
    <glyph glyph-name="aring.ss01" horiz-adv-x="615" 
d="M431 0v65q-55 -77 -157 -77q-72 0 -123 35t-77 97t-26 140t26 140t77 97t123 35q98 0 152 -70v58h157v-520h-152zM233 152.5q27 -38.5 84 -38.5t84 38.5t27 107.5t-27 107.5t-84 38.5t-84 -38.5t-27 -107.5t27 -107.5zM237.5 599q-35.5 19 -56 52.5t-20.5 74.5
q0 42 20.5 75.5t56 52.5t78.5 19t78.5 -19t56 -52.5t20.5 -75.5q0 -41 -20.5 -74.5t-56 -52.5t-78.5 -19t-78.5 19zM275 685.5q16 -15.5 41 -15.5t41 15.5t16 40.5t-16 41t-41 16t-41 -16t-16 -41t16 -40.5z" />
    <glyph glyph-name="atilde.ss01" horiz-adv-x="615" 
d="M431 0v65q-55 -77 -157 -77q-72 0 -123 35t-77 97t-26 140t26 140t77 97t123 35q98 0 152 -70v58h157v-520h-152zM233 152.5q27 -38.5 84 -38.5t84 38.5t27 107.5t-27 107.5t-84 38.5t-84 -38.5t-27 -107.5t27 -107.5zM156 697q31 35 84 35q18 0 35 -5t41 -15
q6 -2 26 -10.5t34 -8.5q17 0 24.5 9t7.5 30h98q0 -73 -31 -108t-84 -35q-18 0 -33.5 4.5t-41.5 14.5q-5 2 -25.5 11t-35.5 9q-16 0 -23.5 -9t-7.5 -30h-99q0 73 31 108z" />
    <glyph glyph-name="l.ss02" horiz-adv-x="253" 
d="M48 720h157v-720h-157v720z" />
    <glyph glyph-name="lacute.ss02" horiz-adv-x="253" 
d="M48 720h157v-720h-157v720zM162 932h171l-145 -146h-124z" />
    <glyph glyph-name="lcaron.ss02" horiz-adv-x="253" 
d="M48 720h157v-720h-157v720zM267 720h156l-74 -170h-104z" />
    <glyph glyph-name="lslash.ss02" horiz-adv-x="253" 
d="M48 280l-79 -34v101l79 34v339h157v-270l79 34v-101l-79 -34v-349h-157v280z" />
    <glyph glyph-name="t.ss03" horiz-adv-x="388" 
d="M101 405h-87v115h87v160h157v-160h106v-115h-106v-405h-157v405z" />
    <glyph glyph-name="tcaron.ss03" horiz-adv-x="388" 
d="M101 405h-87v115h87v160h157v-160h106v-115h-106v-405h-157v405zM312 720h156l-74 -170h-104z" />
    <glyph glyph-name="uni0163.ss03" horiz-adv-x="388" 
d="M101 405h-87v115h87v160h157v-160h106v-115h-106v-405h-41l-42 -44h9q54 0 86 -21.5t32 -59.5q0 -42 -39.5 -70.5t-118.5 -28.5q-42 0 -75 8v58q33 -6 57 -6q67 0 67 39q0 36 -59 36q-20 0 -30 -2v40l38 51h-41v405z" />
    <glyph glyph-name="uni1E6B.ss03" horiz-adv-x="388" 
d="M101 405h-87v115h87v160h157v-160h106v-115h-106v-405h-157v405zM101 880h157v-129h-157v129z" />
    <glyph glyph-name="u.ss04" 
d="M113 46q-65 58 -65 171v303h155v-297q0 -54 22.5 -82.5t72.5 -28.5q51 0 73 28.5t22 82.5v297h156v-303q0 -113 -65.5 -171t-185.5 -58t-185 58z" />
    <glyph glyph-name="uacute.ss04" 
d="M113 46q-65 58 -65 171v303h155v-297q0 -54 22.5 -82.5t72.5 -28.5q51 0 73 28.5t22 82.5v297h156v-303q0 -113 -65.5 -171t-185.5 -58t-185 58zM334 732h171l-145 -146h-124z" />
    <glyph glyph-name="ubreve.ss04" 
d="M113 46q-65 58 -65 171v303h155v-297q0 -54 22.5 -82.5t72.5 -28.5q51 0 73 28.5t22 82.5v297h156v-303q0 -113 -65.5 -171t-185.5 -58t-185 58zM175.5 620q-48.5 40 -58.5 112h115q3 -28 20 -43t46 -15t46 15t20 43h115q-10 -72 -58 -112t-123 -40q-74 0 -122.5 40z" />
    <glyph glyph-name="uni01D4.ss04" 
d="M113 46q-65 58 -65 171v303h155v-297q0 -54 22.5 -82.5t72.5 -28.5q51 0 73 28.5t22 82.5v297h156v-303q0 -113 -65.5 -171t-185.5 -58t-185 58zM85 732h138l76 -73l75 73h138l-127 -146h-173z" />
    <glyph glyph-name="ucircumflex.ss04" 
d="M113 46q-65 58 -65 171v303h155v-297q0 -54 22.5 -82.5t72.5 -28.5q51 0 73 28.5t22 82.5v297h156v-303q0 -113 -65.5 -171t-185.5 -58t-185 58zM512 586h-138l-75 73l-76 -73h-138l127 146h173z" />
    <glyph glyph-name="udieresis.ss04" 
d="M113 46q-65 58 -65 171v303h155v-297q0 -54 22.5 -82.5t72.5 -28.5q51 0 73 28.5t22 82.5v297h156v-303q0 -113 -65.5 -171t-185.5 -58t-185 58zM111 720h157v-129h-157v129zM330 720h157v-129h-157v129z" />
    <glyph glyph-name="ugrave.ss04" 
d="M113 46q-65 58 -65 171v303h155v-297q0 -54 22.5 -82.5t72.5 -28.5q51 0 73 28.5t22 82.5v297h156v-303q0 -113 -65.5 -171t-185.5 -58t-185 58zM237 586l-145 146h171l98 -146h-124z" />
    <glyph glyph-name="uogonek.ss04" 
d="M220 -188q-37 24 -37 73q0 29 20 56.5t57 48.5q-102 8 -157 65.5t-55 161.5v303h155v-297q0 -54 22.5 -82.5t72.5 -28.5q51 0 73 28.5t22 82.5v297h156v-303q0 -87 -39.5 -141.5t-113.5 -75.5q-51 -25 -73 -46.5t-22 -41.5q0 -19 14 -27.5t37 -8.5q20 0 44 7v-85
q-33 -10 -77 -10q-62 0 -99 24z" />
    <glyph glyph-name="uring.ss04" 
d="M113 46q-65 58 -65 171v303h155v-297q0 -54 22.5 -82.5t72.5 -28.5q51 0 73 28.5t22 82.5v297h156v-303q0 -113 -65.5 -171t-185.5 -58t-185 58zM219.5 599q-35.5 19 -56 52.5t-20.5 74.5q0 42 20.5 75.5t56 52.5t78.5 19t78.5 -19t56 -52.5t20.5 -75.5
q0 -41 -20.5 -74.5t-56 -52.5t-78.5 -19t-78.5 19zM257 685.5q16 -15.5 41 -15.5t41 15.5t16 40.5t-16 41t-41 16t-41 -16t-16 -41t16 -40.5z" />
    <glyph glyph-name="utilde.ss04" 
d="M113 46q-65 58 -65 171v303h155v-297q0 -54 22.5 -82.5t72.5 -28.5q51 0 73 28.5t22 82.5v297h156v-303q0 -113 -65.5 -171t-185.5 -58t-185 58zM139 697q31 35 84 35q18 0 35 -5t41 -15q6 -2 26 -10.5t34 -8.5q17 0 24.5 9t7.5 30h98q0 -73 -31 -108t-84 -35
q-18 0 -33.5 4.5t-41.5 14.5q-5 2 -25.5 11t-35.5 9q-16 0 -23.5 -9t-7.5 -30h-99q0 73 31 108z" />
    <glyph glyph-name="y.ss05" horiz-adv-x="580" 
d="M212 14l-208 506h169l116 -331l118 331h169l-303 -720h-151z" />
    <glyph glyph-name="yacute.ss05" horiz-adv-x="580" 
d="M212 14l-208 506h169l116 -331l118 331h169l-303 -720h-151zM326 732h171l-145 -146h-124z" />
    <glyph glyph-name="ycircumflex.ss05" horiz-adv-x="580" 
d="M212 14l-208 506h169l116 -331l118 331h169l-303 -720h-151zM503 586h-138l-75 73l-76 -73h-138l127 146h173z" />
    <glyph glyph-name="ydieresis.ss05" horiz-adv-x="580" 
d="M212 14l-208 506h169l116 -331l118 331h169l-303 -720h-151zM102 720h157v-129h-157v129zM321 720h157v-129h-157v129z" />
    <glyph glyph-name="uni1E8F.ss05" horiz-adv-x="580" 
d="M212 14l-208 506h169l116 -331l118 331h169l-303 -720h-151zM211 720h157v-129h-157v129z" />
    <glyph glyph-name="ygrave.ss05" horiz-adv-x="580" 
d="M212 14l-208 506h169l116 -331l118 331h169l-303 -720h-151zM228 586l-145 146h171l98 -146h-124z" />
    <glyph glyph-name="uni1EF9.ss05" horiz-adv-x="580" 
d="M212 14l-208 506h169l116 -331l118 331h169l-303 -720h-151zM130 697q31 35 84 35q18 0 35 -5t41 -15q6 -2 26 -10.5t34 -8.5q17 0 24.5 9t7.5 30h98q0 -73 -31 -108t-84 -35q-18 0 -33.5 4.5t-41.5 14.5q-5 2 -25.5 11t-35.5 9q-16 0 -23.5 -9t-7.5 -30h-99q0 73 31 108
z" />
    <glyph glyph-name="three.ss09" horiz-adv-x="619" 
d="M110.5 50q-71.5 62 -73.5 177h162q2 -51 32 -78.5t81 -27.5q48 0 78.5 28.5t30.5 77.5q0 53 -36 80t-112 27h-65v104l161 142h-308v140h502v-130l-167 -150q92 -22 142 -76.5t50 -143.5q0 -64 -32 -117t-94 -84t-147 -31q-133 0 -204.5 62z" />
    <glyph glyph-name="six.ss09" horiz-adv-x="604" 
d="M164.5 18.5q-60.5 30.5 -93.5 88t-33 133.5q0 88 44 151l241 329h168l-169 -228q74 -3 130 -35t87 -87.5t31 -129.5q0 -76 -33 -133.5t-93.5 -88t-139.5 -30.5t-139.5 30.5zM223.5 151.5q27.5 -33.5 80.5 -33.5t80.5 33.5t27.5 88.5t-27.5 88.5t-80.5 33.5t-80.5 -33.5
t-27.5 -88.5t27.5 -88.5z" />
    <glyph glyph-name="nine.ss09" horiz-adv-x="604" 
d="M439.5 701.5q60.5 -30.5 93.5 -88t33 -133.5q0 -88 -44 -151l-241 -329h-168l169 228q-74 3 -130 35t-87 87.5t-31 129.5q0 76 33 133.5t93.5 88t139.5 30.5t139.5 -30.5zM219.5 391.5q27.5 -33.5 80.5 -33.5t80.5 33.5t27.5 88.5t-27.5 88.5t-80.5 33.5t-80.5 -33.5
t-27.5 -88.5t27.5 -88.5z" />
    <glyph glyph-name="one.ss10" horiz-adv-x="370" 
d="M144 580h-114v140h283v-720h-169v580z" />
    <glyph glyph-name="four.ss10" horiz-adv-x="665" 
d="M35 297l284 423h171l-286 -438h181v158h155v-158h96v-140h-89v-142h-169v142h-343v155z" />
    <glyph glyph-name="at.ss11" horiz-adv-x="926" 
d="M237 -61.5q-100 54.5 -154.5 151t-54.5 218.5t54.5 218.5t154.5 151t230 54.5q131 0 228.5 -49.5t150 -140t52.5 -210.5q0 -74 -25.5 -131.5t-74.5 -90t-116 -32.5q-48 0 -81.5 18t-48.5 55q-45 -73 -131 -73q-84 0 -132.5 63.5t-48.5 163.5q0 65 21.5 116.5t62.5 81
t97 29.5q73 0 116 -52v40h131v-267q0 -35 11.5 -49t39.5 -14q65 0 65 142q0 149 -85 223t-232 74q-95 0 -168.5 -37t-115 -109.5t-41.5 -174.5t41.5 -175.5t115 -111.5t168.5 -38q129 0 217 53v-103q-49 -23 -101 -36t-116 -13q-130 0 -230 54.5zM394.5 218.5
q20.5 -30.5 61.5 -30.5q42 0 62.5 30.5t20.5 86.5t-20.5 86.5t-62.5 30.5q-41 0 -61.5 -30.5t-20.5 -86.5t20.5 -86.5z" />
    <glyph glyph-name="copyright.ss13" horiz-adv-x="600" 
d="M204 370.5q-36 38.5 -36 99.5q0 60 36 98.5t99 38.5q57 0 90 -28.5t39 -76.5h-80q-4 19 -16.5 29.5t-32.5 10.5q-27 0 -40 -19t-13 -53t13 -53.5t40 -19.5q21 0 33.5 11.5t15.5 32.5h80q-6 -50 -39 -79.5t-90 -29.5q-63 0 -99 38.5zM64.5 605q35.5 60 97.5 93.5t138 33.5
t138 -33.5t97.5 -93.5t35.5 -135q0 -76 -35.5 -136t-97.5 -93.5t-138 -33.5t-138 33.5t-97.5 93.5t-35.5 136q0 75 35.5 135zM164 335q52 -50 136 -50t136 50t52 135q0 84 -52 134t-136 50t-136 -50t-52 -134q0 -85 52 -135z" />
    <glyph glyph-name="registered.ss13" horiz-adv-x="600" 
d="M189 600h128q47 0 71.5 -22t24.5 -57q0 -41 -40 -65q17 -9 25.5 -22.5t10.5 -31.5l9 -63h-72l-8 55q-4 37 -37 37h-40v-92h-72v261zM64.5 605q35.5 60 97.5 93.5t138 33.5t138 -33.5t97.5 -93.5t35.5 -135q0 -76 -35.5 -136t-97.5 -93.5t-138 -33.5t-138 33.5t-97.5 93.5
t-35.5 136q0 75 35.5 135zM164 335q52 -50 136 -50t136 50t52 135q0 84 -52 134t-136 50t-136 -50t-52 -134q0 -85 52 -135zM303 484q36 0 36 30q0 16 -9 22.5t-27 6.5h-42v-59h42z" />
    <glyph glyph-name="uni2117.ss13" horiz-adv-x="600" 
d="M204 600h118q49 0 76.5 -24.5t27.5 -65.5t-27.5 -65.5t-76.5 -24.5h-46v-81h-72v261zM64.5 605q35.5 60 97.5 93.5t138 33.5t138 -33.5t97.5 -93.5t35.5 -135q0 -76 -35.5 -136t-97.5 -93.5t-138 -33.5t-138 33.5t-97.5 93.5t-35.5 136q0 75 35.5 135zM164 335
q52 -50 136 -50t136 50t52 135q0 84 -52 134t-136 50t-136 -50t-52 -134q0 -85 52 -135zM317 481q18 0 27.5 6.5t9.5 22.5q0 30 -37 30h-41v-59h41z" />
    <glyph glyph-name="trademark.ss14" horiz-adv-x="826" 
d="M385 472h100l31 -123l31 123h99v-224h-62v155l-42 -155h-53l-41 151v-151h-63v224zM79.5 552q50.5 85 138 132.5t195.5 47.5t196 -47.5t138.5 -132.5t50.5 -192t-50.5 -192t-138.5 -132.5t-196 -47.5t-195.5 47.5t-138 132.5t-50.5 192t50.5 192zM165.5 212.5
q36.5 -63.5 101 -98t146.5 -34.5t147 34.5t101.5 98t36.5 147.5t-36.5 147.5t-101.5 98t-147 34.5t-146.5 -34.5t-101 -98t-36.5 -147.5t36.5 -147.5zM172 472h196v-57h-66v-167h-64v167h-66v57z" />
    <glyph glyph-name="uni2120.ss14" horiz-adv-x="826" 
d="M386 472h100l31 -123l31 123h99v-224h-62v155l-42 -155h-53l-41 151v-151h-63v224zM79.5 552q50.5 85 138 132.5t195.5 47.5t196 -47.5t138.5 -132.5t50.5 -192t-50.5 -192t-138.5 -132.5t-196 -47.5t-195.5 47.5t-138 132.5t-50.5 192t50.5 192zM165.5 212.5
q36.5 -63.5 101 -98t146.5 -34.5t147 34.5t101.5 98t36.5 147.5t-36.5 147.5t-101.5 98t-147 34.5t-146.5 -34.5t-101 -98t-36.5 -147.5t36.5 -147.5zM229 323q0 -18 11 -24t31 -6q14 0 22.5 5t8.5 14q0 7 -9 12t-37 9q-46 7 -66.5 25.5t-20.5 49.5q0 30 25.5 50t70.5 20
q44 0 69.5 -20t27.5 -59h-62q-1 15 -9.5 21.5t-25.5 6.5q-29 0 -29 -17q0 -16 43 -22q50 -7 70 -24t20 -48q0 -37 -28 -55t-74 -18q-48 0 -74.5 22t-26.5 58h63z" />
    <glyph glyph-name="cent.ss12" horiz-adv-x="566" 
d="M255 -10q-107 12 -167 86t-60 184t60 184t167 86v104h76v-104q95 -10 150 -63.5t67 -139.5h-156q-8 38 -33.5 58.5t-65.5 20.5q-54 0 -80.5 -38.5t-26.5 -107.5t26.5 -107.5t80.5 -38.5q42 0 67 23t32 66h156q-12 -90 -67 -147t-150 -66v-104h-76v104z" />
    <glyph glyph-name="dollar.ss12" horiz-adv-x="662" 
d="M268 -8q-116 15 -180.5 80.5t-65.5 168.5h165q1 -68 43 -94t113 -26q56 0 89.5 22t33.5 60q0 22 -12 37t-47.5 28t-103.5 25q-140 22 -203 76.5t-63 151.5q0 83 61.5 139.5t169.5 68.5v105h126v-107q106 -16 163.5 -77.5t62.5 -161.5h-162q-3 57 -36.5 84t-101.5 27
q-50 0 -80 -19.5t-30 -51.5q0 -23 12 -39t45 -29t95 -23q106 -17 167 -46.5t86.5 -72.5t25.5 -105q0 -96 -67.5 -153t-179.5 -69v-105h-126v106z" />
    <glyph glyph-name="Euro.ss12" horiz-adv-x="631" 
d="M251.5 58.5q-86.5 70.5 -114.5 187.5h-116v79h104q-1 12 -1 35q0 25 1 37h-104v79h117q28 116 114.5 186t223.5 70q74 0 134 -18v-143q-51 15 -113 15q-139 0 -183 -110h296v-79h-313q-2 -24 -2 -37q0 -24 1 -35h314v-79h-297q44 -112 184 -112q62 0 113 15v-143
q-60 -18 -134 -18q-138 0 -224.5 70.5z" />
    <glyph glyph-name="sterling.ss12" horiz-adv-x="604" 
d="M15 140h162q-8 71 -43 153h-106v79h69q-23 47 -34.5 81t-11.5 67q0 62 33 110.5t92 75t134 26.5q130 0 198 -65.5t68 -185.5h-162q1 54 -26.5 82.5t-77.5 28.5q-43 0 -69 -21.5t-26 -60.5q0 -28 11.5 -58.5t34.5 -79.5h212v-79h-177q31 -78 39 -153h248v-140h-568v140z
" />
    <glyph glyph-name="uni030C.alt" horiz-adv-x="0" 
d="M22 720h156l-74 -170h-104z" />
    <glyph glyph-name="uni0308.case" horiz-adv-x="0" 
d="M0 720h157v-129h-157v129zM219 720h157v-129h-157v129z" />
    <glyph glyph-name="uni0307.case" horiz-adv-x="0" 
d="M0 720h157v-129h-157v129z" />
    <glyph glyph-name="gravecomb.case" horiz-adv-x="0" 
d="M145 586l-145 146h171l98 -146h-124z" />
    <glyph glyph-name="acutecomb.case" horiz-adv-x="0" 
d="M98 732h171l-145 -146h-124z" />
    <glyph glyph-name="uni0302.case" horiz-adv-x="0" 
d="M427 586h-138l-75 73l-76 -73h-138l127 146h173z" />
    <glyph glyph-name="uni030C.case" horiz-adv-x="0" 
d="M0 732h138l76 -73l75 73h138l-127 -146h-173z" />
    <glyph glyph-name="uni0306.case" horiz-adv-x="0" 
d="M58.5 620q-48.5 40 -58.5 112h115q3 -28 20 -43t46 -15t46 15t20 43h115q-10 -72 -58 -112t-123 -40q-74 0 -122.5 40z" />
    <glyph glyph-name="uni030A.case" horiz-adv-x="0" 
d="M76.5 599q-35.5 19 -56 52.5t-20.5 74.5q0 42 20.5 75.5t56 52.5t78.5 19t78.5 -19t56 -52.5t20.5 -75.5q0 -41 -20.5 -74.5t-56 -52.5t-78.5 -19t-78.5 19zM114 685.5q16 -15.5 41 -15.5t41 15.5t16 40.5t-16 41t-41 16t-41 -16t-16 -41t16 -40.5z" />
    <glyph glyph-name="tildecomb.case" horiz-adv-x="0" 
d="M31 697q31 35 84 35q18 0 35 -5t41 -15q6 -2 26 -10.5t34 -8.5q17 0 24.5 9t7.5 30h98q0 -73 -31 -108t-84 -35q-18 0 -33.5 4.5t-41.5 14.5q-5 2 -25.5 11t-35.5 9q-16 0 -23.5 -9t-7.5 -30h-99q0 73 31 108z" />
    <glyph glyph-name="dieresis.case" horiz-adv-x="376" 
d="M0 720h157v-129h-157v129zM219 720h157v-129h-157v129z" />
    <glyph glyph-name="dotaccent.case" horiz-adv-x="157" 
d="M0 720h157v-129h-157v129z" />
    <glyph glyph-name="grave.case" horiz-adv-x="269" 
d="M145 586l-145 146h171l98 -146h-124z" />
    <glyph glyph-name="acute.case" horiz-adv-x="269" 
d="M98 732h171l-145 -146h-124z" />
    <glyph glyph-name="circumflex.case" horiz-adv-x="427" 
d="M427 586h-138l-75 73l-76 -73h-138l127 146h173z" />
    <glyph glyph-name="caron.case" horiz-adv-x="427" 
d="M0 732h138l76 -73l75 73h138l-127 -146h-173z" />
    <glyph glyph-name="breve.case" horiz-adv-x="362" 
d="M58.5 620q-48.5 40 -58.5 112h115q3 -28 20 -43t46 -15t46 15t20 43h115q-10 -72 -58 -112t-123 -40q-74 0 -122.5 40z" />
    <glyph glyph-name="ring.case" horiz-adv-x="310" 
d="M76.5 599q-35.5 19 -56 52.5t-20.5 74.5q0 42 20.5 75.5t56 52.5t78.5 19t78.5 -19t56 -52.5t20.5 -75.5q0 -41 -20.5 -74.5t-56 -52.5t-78.5 -19t-78.5 19zM114 685.5q16 -15.5 41 -15.5t41 15.5t16 40.5t-16 41t-41 16t-41 -16t-16 -41t16 -40.5z" />
    <glyph glyph-name="tilde.case" horiz-adv-x="381" 
d="M31 697q31 35 84 35q18 0 35 -5t41 -15q6 -2 26 -10.5t34 -8.5q17 0 24.5 9t7.5 30h98q0 -73 -31 -108t-84 -35q-18 0 -33.5 4.5t-41.5 14.5q-5 2 -25.5 11t-35.5 9q-16 0 -23.5 -9t-7.5 -30h-99q0 73 31 108z" />
  </font>
</defs>
</svg>
