<?xml version="1.0" standalone="no"?>
<!DOCTYPE svg PUBLIC "-//W3C//DTD SVG 1.1//EN" "http://www.w3.org/Graphics/SVG/1.1/DTD/svg11.dtd" >
<svg xmlns="http://www.w3.org/2000/svg" xmlns:xlink="http://www.w3.org/1999/xlink" version="1.1">
<metadata>
Created by FontForge 20201107 at Mon Sep 19 21:02:23 2022
 By 
Copyright (c) 2022 Ivo Dolenc
</metadata>
<defs>
<font id="Aspekta-900" horiz-adv-x="614" >
  <font-face 
    font-family="Aspekta 900"
    font-weight="900"
    font-stretch="normal"
    units-per-em="1000"
    panose-1="0 0 0 0 0 0 0 0 0 0"
    ascent="800"
    descent="-200"
    x-height="520"
    cap-height="720"
    bbox="-92 -236 1313 932"
    underline-thickness="50"
    underline-position="-155"
    unicode-range="U+0020-25CF"
  />
<missing-glyph horiz-adv-x="720" 
d="M70 720h580v-720h-580v720z" />
    <glyph glyph-name=".notdef" horiz-adv-x="720" 
d="M70 720h580v-720h-580v720z" />
    <glyph glyph-name=".null" horiz-adv-x="0" 
 />
    <glyph glyph-name="nonmarkingreturn" horiz-adv-x="333" 
 />
    <glyph glyph-name="space" unicode=" " horiz-adv-x="254" 
 />
    <glyph glyph-name="space" unicode="&#xa0;" horiz-adv-x="254" 
 />
    <glyph glyph-name="exclam" unicode="!" horiz-adv-x="272" 
d="M34 500v220h204v-220l-52 -238h-100zM32 202h208v-202h-208v202z" />
    <glyph glyph-name="quotedbl" unicode="&#x22;" horiz-adv-x="554" 
d="M254 720l-31 -368h-140l-31 368h202zM502 720l-31 -368h-140l-31 368h202z" />
    <glyph glyph-name="numbersign" unicode="#" horiz-adv-x="846" 
d="M446 143h-130l-28 -143h-166l28 143h-88l29 152h88l26 130h-88l29 152h88l28 143h166l-28 -143h130l28 143h166l-28 -143h88l-29 -152h-88l-26 -130h88l-29 -152h-88l-28 -143h-166zM475 295l26 130h-130l-26 -130h130z" />
    <glyph glyph-name="dollar" unicode="$" horiz-adv-x="677" 
d="M299 -11q-136 10 -209 77.5t-72 174.5h196q1 -45 23 -66.5t62 -27.5v129q-143 22 -207 79.5t-64 155.5q0 60 31.5 108t92.5 78t147 34v103h78v-104q119 -11 186 -72.5t72 -173.5h-192q-3 70 -66 87v-124q105 -15 166.5 -44t88.5 -73.5t27 -109.5q0 -106 -77.5 -164.5
t-204.5 -66.5v-103h-78v103zM250 487.5q14 -13.5 49 -24.5v111q-30 -5 -46.5 -19t-16.5 -35q0 -19 14 -32.5zM429.5 166.5q19.5 15.5 19.5 38.5q0 19 -14.5 32.5t-57.5 24.5v-116q33 5 52.5 20.5z" />
    <glyph glyph-name="percent" unicode="%" horiz-adv-x="927" 
d="M67.5 358.5q-45.5 58.5 -45.5 157.5t45.5 157.5t138.5 58.5t138.5 -58.5t45.5 -157.5t-45.5 -157.5t-138.5 -58.5t-138.5 58.5zM164 432.5q12 -27.5 42 -27.5t42 27.5t12 83.5t-12 83.5t-42 27.5t-42 -27.5t-12 -83.5t12 -83.5zM599 720h112l-383 -720h-112zM582.5 361.5
q45.5 58.5 138.5 58.5t138.5 -58.5t45.5 -157.5t-45.5 -157.5t-138.5 -58.5t-138.5 58.5t-45.5 157.5t45.5 157.5zM679 120.5q12 -27.5 42 -27.5t42 27.5t12 83.5t-12 83.5t-42 27.5t-42 -27.5t-12 -83.5t12 -83.5z" />
    <glyph glyph-name="ampersand" unicode="&#x26;" horiz-adv-x="748" 
d="M96.5 47.5q-74.5 59.5 -74.5 160.5q0 71 38 116t104 77q-35 40 -51 72t-16 71q0 86 63 137t171 51q109 0 171.5 -51t62.5 -137q0 -71 -39.5 -113.5t-107.5 -72.5l103 -112q28 52 31 118h160q-3 -135 -85 -233l121 -131h-216l-30 33q-93 -45 -195 -45q-136 0 -210.5 59.5z
M245 159.5q27 -21.5 72 -21.5q40 0 78 11l-130 141q-23 -15 -35 -33t-12 -41q0 -35 27 -56.5zM290.5 501q9.5 -16 30.5 -39q39 16 59.5 32.5t20.5 39.5q0 26 -16 41t-44 15t-44 -15t-16 -41q0 -17 9.5 -33z" />
    <glyph glyph-name="quotesingle" unicode="'" horiz-adv-x="306" 
d="M254 720l-31 -368h-140l-31 368h202z" />
    <glyph glyph-name="parenleft" unicode="(" horiz-adv-x="330" 
d="M26.5 56.5q-32.5 118.5 -32.5 243.5t32.5 243.5t95.5 256.5h172q-57 -135 -83.5 -252.5t-26.5 -247.5t26.5 -247.5t83.5 -252.5h-172q-63 138 -95.5 256.5z" />
    <glyph glyph-name="parenright" unicode=")" horiz-adv-x="338" 
d="M83.5 52.5q26.5 117.5 26.5 247.5t-26.5 247.5t-83.5 252.5h172q63 -138 95.5 -256.5t32.5 -243.5t-32.5 -243.5t-95.5 -256.5h-172q57 135 83.5 252.5z" />
    <glyph glyph-name="asterisk" unicode="*" horiz-adv-x="446" 
d="M223 420l-83 -110l-94 71l78 104l-112 34l34 113l118 -37v125h118v-125l118 37l34 -113l-112 -34l78 -104l-94 -71z" />
    <glyph glyph-name="plus" unicode="+" horiz-adv-x="540" 
d="M28 439h163v163h158v-163h163v-158h-163v-163h-158v163h-163v158z" />
    <glyph glyph-name="comma" unicode="," horiz-adv-x="320" 
d="M288 202l-128 -368h-144l68 368h204z" />
    <glyph glyph-name="hyphen" unicode="-" horiz-adv-x="368" 
d="M28 369h312v-158h-312v158z" />
    <glyph glyph-name="period" unicode="." horiz-adv-x="272" 
d="M32 202h208v-202h-208v202z" />
    <glyph glyph-name="slash" unicode="/" horiz-adv-x="436" 
d="M258 720h182l-262 -720h-182z" />
    <glyph glyph-name="zero" unicode="0" horiz-adv-x="690" 
d="M108 88q-76 100 -76 272t76 272t237 100t237 -100t76 -272t-76 -272t-237 -100t-237 100zM265.5 205q21.5 -51 79.5 -51t79.5 51t21.5 155t-21.5 155t-79.5 51t-79.5 -51t-21.5 -155t21.5 -155z" />
    <glyph glyph-name="one" unicode="1" horiz-adv-x="418" 
d="M162 514l-140 -95v200l152 101h192v-720h-204v514z" />
    <glyph glyph-name="two" unicode="2" horiz-adv-x="626" 
d="M30 156l295 237q59 47 59 107q0 31 -20.5 48.5t-54.5 17.5q-42 0 -64 -23t-21 -67h-194q-1 123 68.5 189.5t210.5 66.5q78 0 140 -26.5t97.5 -75.5t35.5 -115q0 -72 -35.5 -124.5t-95.5 -101.5l-150 -123h287v-166h-558v156z" />
    <glyph glyph-name="three" unicode="3" horiz-adv-x="639" 
d="M108.5 51q-74.5 63 -76.5 182h194q2 -43 28 -66t67 -23t65.5 21.5t24.5 58.5q0 44 -28 60t-82 16h-59v138h44q57 0 82.5 13.5t25.5 53.5q0 34 -20.5 52.5t-55.5 18.5q-36 0 -56.5 -20t-20.5 -60h-194q0 114 70 175t204 61q86 0 147.5 -28t92.5 -75t31 -103
q0 -51 -23.5 -90t-75.5 -57q57 -22 87.5 -66.5t30.5 -100.5q0 -65 -33 -116t-97 -79.5t-156 -28.5q-142 0 -216.5 63z" />
    <glyph glyph-name="four" unicode="4" horiz-adv-x="704" 
d="M38 318l316 402h224v-422h94v-166h-94v-132h-204v132h-336v186zM380 298v233l-177 -233h177z" />
    <glyph glyph-name="five" unicode="5" horiz-adv-x="615" 
d="M119 46.5q-75 58.5 -91 161.5h190q7 -28 29.5 -47t61.5 -19q42 0 69 29.5t27 74.5t-27 73.5t-69 28.5q-28 0 -50.5 -15t-34.5 -38h-188l64 425h456v-166h-300l-17 -105q43 31 113 31q79 0 133.5 -33.5t81 -87t26.5 -113.5q0 -80 -38.5 -138.5t-103.5 -89t-142 -30.5
q-115 0 -190 58.5z" />
    <glyph glyph-name="six" unicode="6" horiz-adv-x="634" 
d="M233 1q-42 13 -79 39q-122 84 -122 300q0 193 76.5 292.5t218.5 99.5q106 0 179 -56.5t86 -155.5h-184q-7 34 -28 51t-51 17q-51 0 -79 -37.5t-34 -131.5q56 58 149 58q83 0 137.5 -33t79 -85.5t24.5 -113.5q0 -80 -35.5 -138t-99 -88.5t-144.5 -30.5q-52 0 -94 13z
M257 168q23 -28 70 -28t70 28t23 72q0 43 -23 71t-70 28t-70 -28t-23 -71q0 -44 23 -72z" />
    <glyph glyph-name="seven" unicode="7" horiz-adv-x="550" 
d="M334 554h-322v166h526v-154l-242 -566h-208z" />
    <glyph glyph-name="eight" unicode="8" horiz-adv-x="630" 
d="M158.5 16.5q-67.5 28.5 -103 78t-35.5 112.5q0 57 28 101t82 71q-39 27 -60 65.5t-21 86.5q0 60 33 105.5t93.5 70.5t140.5 25t140.5 -25t93.5 -70.5t33 -105.5q0 -48 -21 -86.5t-60 -65.5q54 -27 82 -71t28 -101q0 -63 -35.5 -112.5t-103 -78t-157.5 -28.5t-157.5 28.5z
M240.5 165.5q24.5 -25.5 75.5 -25.5t75.5 25.5t24.5 62.5t-25 62t-75 25t-75 -25t-25 -62t24.5 -62.5zM249 458q22 -23 67 -23t67 23t22 55q0 34 -22.5 57.5t-66.5 23.5t-66.5 -23.5t-22.5 -57.5q0 -32 22 -55z" />
    <glyph glyph-name="nine" unicode="9" horiz-adv-x="634" 
d="M401 719q42 -13 79 -39q122 -84 122 -300q0 -193 -76.5 -292.5t-218.5 -99.5q-106 0 -179 56.5t-86 155.5h184q7 -34 28 -51t51 -17q51 0 79 37.5t34 131.5q-56 -58 -149 -58q-83 0 -137.5 33t-79 85.5t-24.5 113.5q0 80 35.5 138t99 88.5t144.5 30.5q52 0 94 -13z
M237 409q23 -28 70 -28t70 28t23 71q0 44 -23 72t-70 28t-70 -28t-23 -72q0 -43 23 -71z" />
    <glyph glyph-name="colon" unicode=":" horiz-adv-x="272" 
d="M32 500h208v-202h-208v202zM32 202h208v-202h-208v202z" />
    <glyph glyph-name="semicolon" unicode=";" horiz-adv-x="322" 
d="M82 500h208v-202h-208v202zM288 202l-128 -368h-144l68 368h204z" />
    <glyph glyph-name="less" unicode="&#x3c;" horiz-adv-x="540" 
d="M512 634v-182l-299 -92l299 -92v-182l-484 182v184z" />
    <glyph glyph-name="equal" unicode="=" horiz-adv-x="540" 
d="M28 553h484v-158h-484v158zM28 327h484v-158h-484v158z" />
    <glyph glyph-name="greater" unicode="&#x3e;" horiz-adv-x="540" 
d="M28 86v182l299 92l-299 92v182l484 -182v-184z" />
    <glyph glyph-name="question" unicode="?" horiz-adv-x="582" 
d="M194.5 337q8.5 29 29.5 51.5t62 45.5q47 26 60.5 45t13.5 45q0 20 -17.5 37t-56.5 17q-41 0 -60.5 -24t-19.5 -62h-188q1 111 68.5 175.5t199.5 64.5q86 0 148.5 -24t96 -68.5t33.5 -104.5q0 -61 -23 -100t-85 -72q-47 -25 -68.5 -47t-21.5 -54h-180q0 46 8.5 75z
M172 202h208v-202h-208v202z" />
    <glyph glyph-name="at" unicode="@" horiz-adv-x="929" 
d="M234 -61q-101 55 -155.5 151.5t-54.5 217.5t54.5 217.5t155.5 151.5t235 55q135 0 233.5 -49.5t150.5 -139.5t52 -211q0 -72 -26.5 -130t-77.5 -91t-121 -33q-103 0 -137 68q-28 -37 -63 -52.5t-84 -15.5q-65 0 -109 36t-44 100q0 58 39.5 88t134.5 45l107 17v14
q0 19 -10.5 30.5t-41.5 11.5q-27 0 -41.5 -14t-14.5 -30h-156q-1 73 58.5 114.5t151.5 41.5q102 0 155.5 -36t53.5 -100v-128q0 -33 10 -46.5t38 -13.5q30 0 40 33.5t10 90.5q0 284 -308 284q-94 0 -165.5 -34t-111.5 -103.5t-40 -170.5t40.5 -172t112 -106.5t164.5 -35.5
q134 0 222 47v-110q-51 -23 -102.5 -35t-119.5 -12q-134 0 -235 55zM410 192q13 -10 37 -10q35 0 56 16.5t21 51.5v23l-74 -15q-31 -6 -42 -14t-11 -25t13 -27z" />
    <glyph glyph-name="A" unicode="A" horiz-adv-x="758" 
d="M512 100h-276l-32 -100h-206l253 720h246l263 -720h-216zM458 268l-84 262l-84 -262h168z" />
    <glyph glyph-name="B" unicode="B" horiz-adv-x="704" 
d="M52 720h319q139 0 212 -47t73 -138q0 -102 -92 -150q59 -27 90.5 -71.5t31.5 -98.5q0 -215 -285 -215h-349v720zM396 162q39 0 58.5 15t19.5 48t-19.5 48t-58.5 15h-140v-126h140zM374 440q78 0 78 59t-78 59h-118v-118h118z" />
    <glyph glyph-name="C" unicode="C" horiz-adv-x="770" 
d="M195.5 37q-85.5 49 -129.5 134t-44 189t44 189t129.5 134t202.5 49q97 0 172 -36.5t120.5 -101t57.5 -146.5h-206q-15 49 -51.5 77.5t-92.5 28.5q-85 0 -124.5 -54.5t-39.5 -139.5t39.5 -139.5t124.5 -54.5q59 0 94.5 32t49.5 86h206q-10 -85 -54.5 -152.5t-120.5 -105.5
t-175 -38q-117 0 -202.5 49z" />
    <glyph glyph-name="D" unicode="D" horiz-adv-x="760" 
d="M52 720h310q127 0 211 -46t124.5 -127t40.5 -187t-40.5 -187t-124.5 -127t-211 -46h-310v720zM362 172q85 0 124.5 51.5t39.5 136.5t-39.5 136.5t-124.5 51.5h-106v-376h106z" />
    <glyph glyph-name="E" unicode="E" horiz-adv-x="648" 
d="M52 720h568v-182h-364v-92h336v-170h-336v-94h364v-182h-568v720z" />
    <glyph glyph-name="F" unicode="F" horiz-adv-x="612" 
d="M52 720h548v-182h-344v-92h326v-170h-326v-276h-204v720z" />
    <glyph glyph-name="G" unicode="G" horiz-adv-x="802" 
d="M182.5 37.5q-76.5 49.5 -118.5 134.5t-42 188q0 104 44 189t129.5 134t202.5 49q97 0 172 -33.5t121 -93t59 -136.5h-208q-18 41 -54 64.5t-90 23.5q-84 0 -124 -55.5t-40 -141.5t40 -141.5t124 -55.5q104 0 146 93h-176v156h392v-412h-140v122q-76 -134 -262 -134
q-99 0 -175.5 49.5z" />
    <glyph glyph-name="H" unicode="H" horiz-adv-x="756" 
d="M500 276h-244v-276h-204v720h204v-262h244v262h204v-720h-204v276z" />
    <glyph glyph-name="I" unicode="I" horiz-adv-x="308" 
d="M52 720h204v-720h-204v720z" />
    <glyph glyph-name="J" unicode="J" horiz-adv-x="598" 
d="M90 55q-68 67 -68 184v40h194v-40q0 -40 15.5 -59.5t52.5 -19.5t52.5 19.5t15.5 59.5v481h204v-481q0 -116 -72.5 -183.5t-199.5 -67.5q-126 0 -194 67z" />
    <glyph glyph-name="K" unicode="K" horiz-adv-x="766" 
d="M52 720h204v-293l264 293h248l-282 -291l282 -429h-242l-178 286l-92 -95v-191h-204v720z" />
    <glyph glyph-name="L" unicode="L" horiz-adv-x="588" 
d="M52 720h204v-538h320v-182h-524v720z" />
    <glyph glyph-name="M" unicode="M" horiz-adv-x="934" 
d="M246 502v-502h-194v720h312l103 -412l103 412h312v-720h-194v502l-138 -502h-166z" />
    <glyph glyph-name="N" unicode="N" horiz-adv-x="756" 
d="M246 427v-427h-194v720h216l242 -427v427h194v-720h-216z" />
    <glyph glyph-name="O" unicode="O" horiz-adv-x="796" 
d="M195.5 37q-85.5 49 -129.5 134t-44 189t44 189t129.5 134t202.5 49t202.5 -49t129.5 -134t44 -189t-44 -189t-129.5 -134t-202.5 -49t-202.5 49zM273.5 220.5q39.5 -54.5 124.5 -54.5t124.5 54.5t39.5 139.5t-39.5 139.5t-124.5 54.5t-124.5 -54.5t-39.5 -139.5
t39.5 -139.5z" />
    <glyph glyph-name="P" unicode="P" horiz-adv-x="685" 
d="M52 720h326q90 0 154.5 -31.5t97.5 -88t33 -130.5t-33 -130.5t-97.5 -88t-154.5 -31.5h-122v-220h-204v720zM362 392q49 0 73.5 17.5t24.5 60.5t-24.5 60.5t-73.5 17.5h-106v-156h106z" />
    <glyph glyph-name="Q" unicode="Q" horiz-adv-x="796" 
d="M508 1q-49 -13 -110 -13q-117 0 -202.5 49t-129.5 134t-44 189t44 189t129.5 134t202.5 49t202.5 -49t129.5 -134t44 -189q0 -93 -35 -171t-102 -128l87 -135h-168zM273.5 220.5q39.5 -54.5 124.5 -54.5h4l-89 140h168l48 -76q33 50 33 130q0 85 -39.5 139.5t-124.5 54.5
t-124.5 -54.5t-39.5 -139.5t39.5 -139.5z" />
    <glyph glyph-name="R" unicode="R" horiz-adv-x="707" 
d="M52 720h356q132 0 198.5 -60.5t66.5 -159.5q0 -57 -28.5 -102t-80.5 -78q47 -25 69.5 -61.5t30.5 -88.5l25 -170h-208l-22 150q-8 50 -31 75t-68 25h-104v-250h-204v720zM365 400q49 0 73.5 18.5t24.5 61.5t-24.5 61.5t-73.5 18.5h-109v-160h109z" />
    <glyph glyph-name="S" unicode="S" horiz-adv-x="677" 
d="M163 20q-72 32 -109 89t-36 132h196q1 -58 36 -77.5t98 -19.5q46 0 73.5 16.5t27.5 44.5q0 17 -10.5 28.5t-42.5 22.5t-94 20q-145 21 -209.5 78.5t-64.5 156.5q0 63 35 113t103 79t162 29q140 0 220.5 -62.5t86.5 -185.5h-192q-2 48 -31 70t-84 22q-42 0 -67 -15
t-25 -41t29 -43.5t107 -28.5q107 -15 170 -44t90 -74t27 -110q0 -115 -89 -173.5t-232 -58.5q-103 0 -175 32z" />
    <glyph glyph-name="T" unicode="T" horiz-adv-x="646" 
d="M221 538h-211v182h626v-182h-211v-538h-204v538z" />
    <glyph glyph-name="U" unicode="U" horiz-adv-x="728" 
d="M199 21q-73 33 -115 98.5t-42 159.5v441h204v-441q0 -56 31.5 -86t86.5 -30t86.5 30t31.5 86v441h204v-441q0 -94 -42 -159.5t-115 -98.5t-165 -33t-165 33z" />
    <glyph glyph-name="V" unicode="V" horiz-adv-x="756" 
d="M-2 720h218l166 -545l158 545h218l-258 -720h-244z" />
    <glyph glyph-name="W" unicode="W" horiz-adv-x="1024" 
d="M512 439l-86 -439h-230l-198 720h216l108 -481l89 481h202l89 -481l108 481h216l-198 -720h-230z" />
    <glyph glyph-name="X" unicode="X" horiz-adv-x="708" 
d="M352 190l-124 -190h-230l239 368l-229 352h235l111 -171l111 171h230l-226 -348l241 -372h-235z" />
    <glyph glyph-name="Y" unicode="Y" horiz-adv-x="742" 
d="M274 275l-276 445h234l144 -257l144 257h224l-266 -441v-279h-204v275z" />
    <glyph glyph-name="Z" unicode="Z" horiz-adv-x="672" 
d="M28 160l340 381l-190 -3h-140v182h602v-152l-347 -389l197 3h154v-182h-616v160z" />
    <glyph glyph-name="bracketleft" unicode="[" horiz-adv-x="400" 
d="M16 800h332v-156h-154v-688h154v-156h-332v1000z" />
    <glyph glyph-name="backslash" unicode="\" horiz-adv-x="436" 
d="M258 0l-262 720h182l262 -720h-182z" />
    <glyph glyph-name="bracketright" unicode="]" horiz-adv-x="396" 
d="M12 -44h154v688h-154v156h332v-1000h-332v156z" />
    <glyph glyph-name="underscore" unicode="_" horiz-adv-x="546" 
d="M-2 -48h550v-132h-550v132z" />
    <glyph glyph-name="grave" unicode="`" horiz-adv-x="295" 
d="M149 586l-149 146h196l99 -146h-146z" />
    <glyph glyph-name="a" unicode="a" horiz-adv-x="583" 
d="M373 51q-31 -34 -70 -48.5t-93 -14.5q-84 0 -138 43t-54 120q0 47 21 77.5t68 50t129 32.5l133 21v14q0 24 -13 39t-53 15q-34 0 -51 -16.5t-17 -37.5h-186q0 88 69 137t183 49q124 0 188 -43t64 -120v-369h-180v51zM226 123q17 -13 47 -13q43 0 69.5 20.5t26.5 64.5v31
l-93 -18q-37 -7 -52 -17.5t-15 -32.5t17 -35z" />
    <glyph glyph-name="b" unicode="b" horiz-adv-x="615" 
d="M42 720h188v-251q50 63 143 63q70 0 119.5 -35.5t75 -97t25.5 -139.5t-25.5 -139.5t-75 -97t-119.5 -35.5q-97 0 -148 70v-58h-183v720zM249 167.5q21 -31.5 67 -31.5t67 31.5t21 92.5t-21 92.5t-67 31.5t-67 -31.5t-21 -92.5t21 -92.5z" />
    <glyph glyph-name="c" unicode="c" horiz-adv-x="577" 
d="M148 23.5q-62 35.5 -94 97t-32 139.5t32 139.5t94 97t149 35.5q120 0 187.5 -57.5t80.5 -155.5h-185q-7 31 -28.5 48t-54.5 17q-46 0 -66.5 -31.5t-20.5 -92.5t20.5 -92.5t66.5 -31.5q72 0 83 77h185q-13 -104 -79.5 -164.5t-188.5 -60.5q-87 0 -149 35.5z" />
    <glyph glyph-name="d" unicode="d" horiz-adv-x="615" 
d="M390 0v58q-51 -70 -148 -70q-70 0 -119.5 35.5t-75 97t-25.5 139.5t25.5 139.5t75 97t119.5 35.5q93 0 143 -63v251h188v-720h-183zM232 167.5q21 -31.5 67 -31.5t67 31.5t21 92.5t-21 92.5t-67 31.5t-67 -31.5t-21 -92.5t21 -92.5z" />
    <glyph glyph-name="e" unicode="e" horiz-adv-x="600" 
d="M149 23.5q-63 35.5 -95 97t-32 139.5t32 139.5t95 97t151 35.5q136 0 207 -77t71 -220v-30h-376q10 -41 35 -62t63 -21q37 0 58 9.5t35 29.5h177q-26 -80 -96 -126.5t-174 -46.5q-88 0 -151 35.5zM397 317q-10 39 -35 60t-62 21t-62 -21t-35 -60h194z" />
    <glyph glyph-name="f" unicode="f" horiz-adv-x="426" 
d="M121 665q25 34 62.5 44.5t89.5 10.5h131v-132h-76q-26 0 -35 -9.5t-9 -31.5v-27h120v-132h-120v-388h-188v388h-84v132h84v45q0 66 25 100z" />
    <glyph glyph-name="g" unicode="g" horiz-adv-x="615" 
d="M102.5 -159.5q-65.5 52.5 -67.5 143.5h184q1 -29 22 -43.5t55 -14.5q38 0 63.5 19.5t25.5 67.5v67q-51 -59 -143 -59q-70 0 -119.5 33t-75 91t-25.5 131q0 74 25.5 132t75 91t119.5 33q96 0 147 -64v52h184v-507q0 -72 -37.5 -123t-102.5 -76.5t-147 -25.5
q-118 0 -183.5 52.5zM232 189.5q21 -29.5 67 -29.5t67 29.5t21 86.5q0 58 -21 87.5t-67 29.5t-67 -29.5t-21 -87.5q0 -57 21 -86.5z" />
    <glyph glyph-name="h" unicode="h" 
d="M42 720h188v-262q62 74 157 74q84 0 134.5 -53.5t50.5 -172.5v-306h-188v282q0 42 -16 66t-57 24q-42 0 -61.5 -27t-19.5 -67v-278h-188v720z" />
    <glyph glyph-name="i" unicode="i" horiz-adv-x="272" 
d="M42 520h188v-520h-188v520zM42 720h188v-140h-188v140z" />
    <glyph glyph-name="j" unicode="j" horiz-adv-x="278" 
d="M211 -145q-25 -34 -62.5 -44.5t-89.5 -10.5h-121v132h66q26 0 35 9.5t9 31.5v547h188v-565q0 -66 -25 -100zM48 720h188v-140h-188v140z" />
    <glyph glyph-name="k" unicode="k" horiz-adv-x="618" 
d="M42 720h184v-377l170 177h212l-192 -194l200 -326h-214l-114 197l-62 -63v-134h-184v720z" />
    <glyph glyph-name="l" unicode="l" horiz-adv-x="362" 
d="M230 720v-547q0 -22 9 -31.5t35 -9.5h66v-132h-121q-52 0 -89.5 10.5t-62.5 44.5t-25 100v565h188z" />
    <glyph glyph-name="m" unicode="m" horiz-adv-x="924" 
d="M630 372q-74 0 -74 -94v-278h-188v282q0 90 -64 90q-74 0 -74 -94v-278h-188v520h184v-74q60 86 154 86q50 0 89.5 -22.5t61.5 -71.5q33 43 77.5 68.5t97.5 25.5q77 0 126.5 -54t49.5 -172v-306h-188v282q0 90 -64 90z" />
    <glyph glyph-name="n" unicode="n" 
d="M368 348q-16 24 -57 24q-42 0 -61.5 -27t-19.5 -67v-278h-188v520h184v-67q29 36 69.5 57.5t91.5 21.5q84 0 134.5 -53.5t50.5 -172.5v-306h-188v282q0 42 -16 66z" />
    <glyph glyph-name="o" unicode="o" horiz-adv-x="604" 
d="M149.5 23.5q-63.5 35.5 -95.5 97t-32 139.5t32 139.5t95.5 97t152.5 35.5t152.5 -35.5t95.5 -97t32 -139.5t-32 -139.5t-95.5 -97t-152.5 -35.5t-152.5 35.5zM231.5 167.5q21.5 -31.5 70.5 -31.5t70.5 31.5t21.5 92.5t-21.5 92.5t-70.5 31.5t-70.5 -31.5t-21.5 -92.5
t21.5 -92.5z" />
    <glyph glyph-name="p" unicode="p" horiz-adv-x="615" 
d="M225 520v-58q51 70 148 70q70 0 119.5 -35.5t75 -97t25.5 -139.5t-25.5 -139.5t-75 -97t-119.5 -35.5q-93 0 -143 63v-251h-188v720h183zM249 167.5q21 -31.5 67 -31.5t67 31.5t21 92.5t-21 92.5t-67 31.5t-67 -31.5t-21 -92.5t21 -92.5z" />
    <glyph glyph-name="q" unicode="q" horiz-adv-x="615" 
d="M573 -200h-188v251q-50 -63 -143 -63q-70 0 -119.5 35.5t-75 97t-25.5 139.5t25.5 139.5t75 97t119.5 35.5q97 0 148 -70v58h183v-720zM232 167.5q21 -31.5 67 -31.5t67 31.5t21 92.5t-21 92.5t-67 31.5t-67 -31.5t-21 -92.5t21 -92.5z" />
    <glyph glyph-name="r" unicode="r" horiz-adv-x="436" 
d="M42 520h184v-94q40 100 144 100h44v-169h-54q-68 0 -99 -33t-31 -112v-212h-188v520z" />
    <glyph glyph-name="s" unicode="s" horiz-adv-x="548" 
d="M84 30q-66 42 -72 142h178q5 -38 28 -52.5t66 -14.5q27 0 47 10t20 27q0 13 -7.5 21t-30.5 15.5t-71 15.5q-123 22 -173.5 61.5t-50.5 107.5q0 82 66 125.5t184 43.5q126 0 187 -50t65 -134h-168q-2 67 -84 67q-31 0 -49.5 -10.5t-18.5 -28.5q0 -19 23.5 -29.5
t93.5 -20.5q121 -17 170 -59t49 -112q0 -81 -71 -124t-191 -43q-124 0 -190 42z" />
    <glyph glyph-name="t" unicode="t" horiz-adv-x="426" 
d="M284 680v-160h120v-132h-120v-215q0 -22 9 -31.5t35 -9.5h76v-132h-131q-52 0 -89.5 10.5t-62.5 44.5t-25 100v233h-84v132h84v160h188z" />
    <glyph glyph-name="u" unicode="u" 
d="M246 172q16 -24 57 -24q42 0 61.5 27t19.5 67v278h188v-520h-184v67q-29 -36 -69.5 -57.5t-91.5 -21.5q-84 0 -134.5 53.5t-50.5 172.5v306h188v-282q0 -42 16 -66z" />
    <glyph glyph-name="v" unicode="v" horiz-adv-x="596" 
d="M2 520h202l97 -359l91 359h202l-183 -520h-226z" />
    <glyph glyph-name="w" unicode="w" horiz-adv-x="904" 
d="M452 291l-79 -291h-198l-173 520h202l86 -303l76 303h172l76 -303l86 303h202l-173 -520h-198z" />
    <glyph glyph-name="x" unicode="x" horiz-adv-x="580" 
d="M288 116l-80 -116h-208l184 267l-174 253h212l68 -99l68 99h208l-172 -250l186 -270h-212z" />
    <glyph glyph-name="y" unicode="y" horiz-adv-x="596" 
d="M32 -54h90q35 0 50 8t26 31l-196 535h202l98 -360l90 360h202l-190 -538q-32 -90 -85 -136t-148 -46h-139v146z" />
    <glyph glyph-name="z" unicode="z" horiz-adv-x="546" 
d="M38 118l230 264h-230v138h460v-118l-230 -264h240v-138h-470v118z" />
    <glyph glyph-name="braceleft" unicode="{" horiz-adv-x="454" 
d="M96 -35v198q0 30 -18 45.5t-66 15.5v152q48 0 66 15.5t18 45.5v198q0 165 187 165h145v-152h-106q-26 0 -40 -14.5t-14 -36.5v-194q0 -88 -97 -103q97 -15 97 -103v-194q0 -22 14 -36.5t40 -14.5h106v-152h-145q-187 0 -187 165z" />
    <glyph glyph-name="bar" unicode="|" horiz-adv-x="262" 
d="M54 810h154v-1030h-154v1030z" />
    <glyph glyph-name="braceright" unicode="}" horiz-adv-x="454" 
d="M12 -48h106q26 0 40 14.5t14 36.5v194q0 88 97 103q-97 15 -97 103v194q0 22 -14 36.5t-40 14.5h-106v152h145q187 0 187 -165v-198q0 -30 18 -45.5t66 -15.5v-152q-48 0 -66 -15.5t-18 -45.5v-198q0 -165 -187 -165h-145v152z" />
    <glyph glyph-name="exclamdown" unicode="&#xa1;" horiz-adv-x="272" 
d="M186 258l52 -238v-220h-204v220l52 238h100zM32 520h208v-202h-208v202z" />
    <glyph glyph-name="cent" unicode="&#xa2;" horiz-adv-x="577" 
d="M259 -10q-113 11 -175 85t-62 185t62 185t175 85v104h78v-104q101 -9 158.5 -65.5t69.5 -145.5h-185q-9 41 -43 57v-232q35 16 43 69h185q-12 -95 -68.5 -154t-159.5 -69v-104h-78v104zM259 143v234q-49 -22 -49 -117t49 -117z" />
    <glyph glyph-name="sterling" unicode="&#xa3;" horiz-adv-x="628" 
d="M122 275q0 13 -1 19h-109v82h78q-20 44 -29 73.5t-9 65.5q0 66 35.5 115t97.5 75.5t140 26.5q141 0 210.5 -66.5t68.5 -189.5h-194q1 44 -21 67t-64 23q-34 0 -54.5 -17.5t-20.5 -48.5q0 -22 8.5 -45.5t19 -47t14.5 -31.5h202v-82h-180q0 -64 -57 -128h353v-166h-578v156
q90 46 90 119z" />
    <glyph glyph-name="yen" unicode="&#xa5;" horiz-adv-x="742" 
d="M124 323h120l-246 397h234l144 -257l144 257h224l-240 -397h114v-82h-140v-72h140v-82h-140v-87h-204v87h-150v82h150v72h-150v82z" />
    <glyph glyph-name="dieresis" unicode="&#xa8;" horiz-adv-x="426" 
d="M0 720h188v-140h-188v140zM238 720h188v-140h-188v140z" />
    <glyph glyph-name="copyright" unicode="&#xa9;" horiz-adv-x="824" 
d="M276 225.5q-50 52.5 -50 134.5t50 134.5t139 52.5q82 0 129 -40.5t55 -107.5h-130q-4 20 -18 31.5t-36 11.5q-31 0 -44 -20.5t-13 -61.5t13.5 -62t43.5 -21q49 0 54 52h130q-8 -71 -53.5 -113.5t-130.5 -42.5q-89 0 -139 52.5zM75 552q51 85 140 132.5t197 47.5
t197 -47.5t140 -132.5t51 -192t-51 -192t-140 -132.5t-197 -47.5t-197 47.5t-140 132.5t-51 192t51 192zM190.5 228q32.5 -56 90 -86t131.5 -30t131.5 30t90 86t32.5 132t-32.5 132t-90 86t-131.5 30t-131.5 -30t-90 -86t-32.5 -132t32.5 -132z" />
    <glyph glyph-name="registered" unicode="&#xae;" horiz-adv-x="824" 
d="M258 536h180q66 0 99 -30t33 -79q0 -54 -52 -89q42 -24 49 -76l11 -78h-113l-10 70q-6 47 -44 47h-41v-117h-112v352zM75 552q51 85 140 132.5t197 47.5t197 -47.5t140 -132.5t51 -192t-51 -192t-140 -132.5t-197 -47.5t-197 47.5t-140 132.5t-51 192t51 192zM190.5 228
q32.5 -56 90 -86t131.5 -30t131.5 30t90 86t32.5 132t-32.5 132t-90 86t-131.5 30t-131.5 -30t-90 -86t-32.5 -132t32.5 -132zM414 381q21 0 31.5 7.5t10.5 27.5q0 19 -10.5 26.5t-31.5 7.5h-44v-69h44z" />
    <glyph glyph-name="degree" unicode="&#xb0;" horiz-adv-x="368" 
d="M97.5 429q-39.5 21 -62.5 58t-23 83t23 83t62.5 58t86.5 21t86.5 -21t62.5 -58t23 -83t-23 -83t-62.5 -58t-86.5 -21t-86.5 21zM141 527q17 -17 43 -17t43 17t17 43t-17 43t-43 17t-43 -17t-17 -43t17 -43z" />
    <glyph glyph-name="acute" unicode="&#xb4;" horiz-adv-x="295" 
d="M99 732h196l-149 -146h-146z" />
    <glyph glyph-name="periodcentered" unicode="&#xb7;" horiz-adv-x="272" 
d="M32 461h208v-202h-208v202z" />
    <glyph glyph-name="cedilla" unicode="&#xb8;" horiz-adv-x="240" 
d="M0 -216v62q33 -6 57 -6q65 0 65 36q0 35 -57 35q-20 0 -30 -2v40l44 57h77l-48 -50h11q58 0 91.5 -21t33.5 -59q0 -43 -42 -71.5t-127 -28.5q-42 0 -75 8z" />
    <glyph glyph-name="questiondown" unicode="&#xbf;" horiz-adv-x="582" 
d="M387.5 183q-8.5 -29 -29.5 -51.5t-62 -45.5q-47 -26 -60.5 -45t-13.5 -45q0 -20 17.5 -37t56.5 -17q41 0 60.5 24t19.5 62h188q-1 -111 -68.5 -175.5t-199.5 -64.5q-86 0 -148.5 24t-96 68.5t-33.5 104.5q0 61 23 100t85 72q47 25 68.5 47t21.5 54h180q0 -46 -8.5 -75z
M202 520h208v-202h-208v202z" />
    <glyph glyph-name="Agrave" unicode="&#xc0;" horiz-adv-x="758" 
d="M512 100h-276l-32 -100h-206l253 720h246l263 -720h-216zM458 268l-84 262l-84 -262h168zM301 768l-149 146h196l99 -146h-146z" />
    <glyph glyph-name="Aacute" unicode="&#xc1;" horiz-adv-x="758" 
d="M512 100h-276l-32 -100h-206l253 720h246l263 -720h-216zM458 268l-84 262l-84 -262h168zM400 914h196l-149 -146h-146z" />
    <glyph glyph-name="Acircumflex" unicode="&#xc2;" horiz-adv-x="758" 
d="M512 100h-276l-32 -100h-206l253 720h246l263 -720h-216zM458 268l-84 262l-84 -262h168zM600 768h-162l-64 62l-64 -62h-162l129 146h194z" />
    <glyph glyph-name="Atilde" unicode="&#xc3;" horiz-adv-x="758" 
d="M512 100h-276l-32 -100h-206l253 720h246l263 -720h-216zM458 268l-84 262l-84 -262h168zM209.5 881.5q34.5 36.5 87.5 36.5q27 0 50.5 -8.5t26.5 -9.5q13 -5 30 -10.5t29 -5.5q15 0 22.5 8t7.5 26h110q0 -77 -34.5 -113.5t-87.5 -36.5q-27 0 -50.5 8.5t-26.5 9.5
q-13 5 -30 10.5t-29 5.5q-15 0 -22.5 -8t-7.5 -26h-110q0 77 34.5 113.5z" />
    <glyph glyph-name="Adieresis" unicode="&#xc4;" horiz-adv-x="758" 
d="M512 100h-276l-32 -100h-206l253 720h246l263 -720h-216zM458 268l-84 262l-84 -262h168zM161 908h188v-140h-188v140zM399 908h188v-140h-188v140z" />
    <glyph glyph-name="Aring" unicode="&#xc5;" horiz-adv-x="758" 
d="M512 100h-276l-32 -100h-206l240 682q-30 39 -30 92q0 45 22 80.5t60 55.5t84 20t84 -20t60 -55.5t22 -80.5q0 -51 -29 -91l249 -683h-216zM458 268l-84 262l-84 -262h168zM334.5 735q15.5 -15 39.5 -15t39.5 15t15.5 39t-15.5 39t-39.5 15t-39.5 -15t-15.5 -39t15.5 -39
z" />
    <glyph glyph-name="Ccedilla" unicode="&#xc7;" horiz-adv-x="770" 
d="M286 -228v62q33 -6 57 -6q65 0 65 36q0 35 -57 35q-20 0 -30 -2v40l40 52q-106 8 -182.5 58.5t-116.5 132t-40 180.5q0 104 44 189t129.5 134t202.5 49q97 0 172 -36.5t120.5 -101t57.5 -146.5h-206q-15 49 -51.5 77.5t-92.5 28.5q-85 0 -124.5 -54.5t-39.5 -139.5
t39.5 -139.5t124.5 -54.5q59 0 94.5 32t49.5 86h206q-9 -80 -48.5 -144t-106.5 -103.5t-155 -46.5l-44 -46h11q58 0 91.5 -21t33.5 -59q0 -43 -42 -71.5t-127 -28.5q-42 0 -75 8z" />
    <glyph glyph-name="Egrave" unicode="&#xc8;" horiz-adv-x="648" 
d="M52 720h568v-182h-364v-92h336v-170h-336v-94h364v-182h-568v720zM263 768l-149 146h196l99 -146h-146z" />
    <glyph glyph-name="Eacute" unicode="&#xc9;" horiz-adv-x="648" 
d="M52 720h568v-182h-364v-92h336v-170h-336v-94h364v-182h-568v720zM362 914h196l-149 -146h-146z" />
    <glyph glyph-name="Ecircumflex" unicode="&#xca;" horiz-adv-x="648" 
d="M52 720h568v-182h-364v-92h336v-170h-336v-94h364v-182h-568v720zM562 768h-162l-64 62l-64 -62h-162l129 146h194z" />
    <glyph glyph-name="Edieresis" unicode="&#xcb;" horiz-adv-x="648" 
d="M52 720h568v-182h-364v-92h336v-170h-336v-94h364v-182h-568v720zM123 908h188v-140h-188v140zM361 908h188v-140h-188v140z" />
    <glyph glyph-name="Igrave" unicode="&#xcc;" horiz-adv-x="308" 
d="M52 720h204v-720h-204v720zM81 768l-149 146h196l99 -146h-146z" />
    <glyph glyph-name="Iacute" unicode="&#xcd;" horiz-adv-x="308" 
d="M52 720h204v-720h-204v720zM180 914h196l-149 -146h-146z" />
    <glyph glyph-name="Icircumflex" unicode="&#xce;" horiz-adv-x="308" 
d="M52 720h204v-720h-204v720zM380 768h-162l-64 62l-64 -62h-162l129 146h194z" />
    <glyph glyph-name="Idieresis" unicode="&#xcf;" horiz-adv-x="308" 
d="M52 720h204v-720h-204v720zM-59 908h188v-140h-188v140zM179 908h188v-140h-188v140z" />
    <glyph glyph-name="Ntilde" unicode="&#xd1;" horiz-adv-x="756" 
d="M246 427v-427h-194v720h216l242 -427v427h194v-720h-216zM213.5 881.5q34.5 36.5 87.5 36.5q27 0 50.5 -8.5t26.5 -9.5q13 -5 30 -10.5t29 -5.5q15 0 22.5 8t7.5 26h110q0 -77 -34.5 -113.5t-87.5 -36.5q-27 0 -50.5 8.5t-26.5 9.5q-13 5 -30 10.5t-29 5.5
q-15 0 -22.5 -8t-7.5 -26h-110q0 77 34.5 113.5z" />
    <glyph glyph-name="Ograve" unicode="&#xd2;" horiz-adv-x="796" 
d="M195.5 37q-85.5 49 -129.5 134t-44 189t44 189t129.5 134t202.5 49t202.5 -49t129.5 -134t44 -189t-44 -189t-129.5 -134t-202.5 -49t-202.5 49zM273.5 220.5q39.5 -54.5 124.5 -54.5t124.5 54.5t39.5 139.5t-39.5 139.5t-124.5 54.5t-124.5 -54.5t-39.5 -139.5
t39.5 -139.5zM325 780l-149 146h196l99 -146h-146z" />
    <glyph glyph-name="Oacute" unicode="&#xd3;" horiz-adv-x="796" 
d="M195.5 37q-85.5 49 -129.5 134t-44 189t44 189t129.5 134t202.5 49t202.5 -49t129.5 -134t44 -189t-44 -189t-129.5 -134t-202.5 -49t-202.5 49zM273.5 220.5q39.5 -54.5 124.5 -54.5t124.5 54.5t39.5 139.5t-39.5 139.5t-124.5 54.5t-124.5 -54.5t-39.5 -139.5
t39.5 -139.5zM424 926h196l-149 -146h-146z" />
    <glyph glyph-name="Ocircumflex" unicode="&#xd4;" horiz-adv-x="796" 
d="M195.5 37q-85.5 49 -129.5 134t-44 189t44 189t129.5 134t202.5 49t202.5 -49t129.5 -134t44 -189t-44 -189t-129.5 -134t-202.5 -49t-202.5 49zM273.5 220.5q39.5 -54.5 124.5 -54.5t124.5 54.5t39.5 139.5t-39.5 139.5t-124.5 54.5t-124.5 -54.5t-39.5 -139.5
t39.5 -139.5zM624 780h-162l-64 62l-64 -62h-162l129 146h194z" />
    <glyph glyph-name="Otilde" unicode="&#xd5;" horiz-adv-x="796" 
d="M195.5 37q-85.5 49 -129.5 134t-44 189t44 189t129.5 134t202.5 49t202.5 -49t129.5 -134t44 -189t-44 -189t-129.5 -134t-202.5 -49t-202.5 49zM273.5 220.5q39.5 -54.5 124.5 -54.5t124.5 54.5t39.5 139.5t-39.5 139.5t-124.5 54.5t-124.5 -54.5t-39.5 -139.5
t39.5 -139.5zM233.5 893.5q34.5 36.5 87.5 36.5q27 0 50.5 -8.5t26.5 -9.5q13 -5 30 -10.5t29 -5.5q15 0 22.5 8t7.5 26h110q0 -77 -34.5 -113.5t-87.5 -36.5q-27 0 -50.5 8.5t-26.5 9.5q-13 5 -30 10.5t-29 5.5q-15 0 -22.5 -8t-7.5 -26h-110q0 77 34.5 113.5z" />
    <glyph glyph-name="Odieresis" unicode="&#xd6;" horiz-adv-x="796" 
d="M195.5 37q-85.5 49 -129.5 134t-44 189t44 189t129.5 134t202.5 49t202.5 -49t129.5 -134t44 -189t-44 -189t-129.5 -134t-202.5 -49t-202.5 49zM273.5 220.5q39.5 -54.5 124.5 -54.5t124.5 54.5t39.5 139.5t-39.5 139.5t-124.5 54.5t-124.5 -54.5t-39.5 -139.5
t39.5 -139.5zM185 920h188v-140h-188v140zM423 920h188v-140h-188v140z" />
    <glyph glyph-name="multiply" unicode="&#xd7;" horiz-adv-x="518" 
d="M144 588l115 -116l116 116l111 -112l-115 -115l115 -116l-111 -111l-116 115l-115 -115l-112 111l116 116l-116 115z" />
    <glyph glyph-name="Ugrave" unicode="&#xd9;" horiz-adv-x="728" 
d="M199 21q-73 33 -115 98.5t-42 159.5v441h204v-441q0 -56 31.5 -86t86.5 -30t86.5 30t31.5 86v441h204v-441q0 -94 -42 -159.5t-115 -98.5t-165 -33t-165 33zM291 768l-149 146h196l99 -146h-146z" />
    <glyph glyph-name="Uacute" unicode="&#xda;" horiz-adv-x="728" 
d="M199 21q-73 33 -115 98.5t-42 159.5v441h204v-441q0 -56 31.5 -86t86.5 -30t86.5 30t31.5 86v441h204v-441q0 -94 -42 -159.5t-115 -98.5t-165 -33t-165 33zM390 914h196l-149 -146h-146z" />
    <glyph glyph-name="Ucircumflex" unicode="&#xdb;" horiz-adv-x="728" 
d="M199 21q-73 33 -115 98.5t-42 159.5v441h204v-441q0 -56 31.5 -86t86.5 -30t86.5 30t31.5 86v441h204v-441q0 -94 -42 -159.5t-115 -98.5t-165 -33t-165 33zM590 768h-162l-64 62l-64 -62h-162l129 146h194z" />
    <glyph glyph-name="Udieresis" unicode="&#xdc;" horiz-adv-x="728" 
d="M199 21q-73 33 -115 98.5t-42 159.5v441h204v-441q0 -56 31.5 -86t86.5 -30t86.5 30t31.5 86v441h204v-441q0 -94 -42 -159.5t-115 -98.5t-165 -33t-165 33zM151 908h188v-140h-188v140zM389 908h188v-140h-188v140z" />
    <glyph glyph-name="Yacute" unicode="&#xdd;" horiz-adv-x="742" 
d="M274 275l-276 445h234l144 -257l144 257h224l-266 -441v-279h-204v275zM402 914h196l-149 -146h-146z" />
    <glyph glyph-name="germandbls" unicode="&#xdf;" horiz-adv-x="620" 
d="M110.5 672.5q68.5 59.5 195.5 59.5q70 0 125.5 -25t87 -70t31.5 -103q0 -45 -16.5 -82t-47.5 -63q55 -25 83.5 -67.5t28.5 -101.5q0 -116 -70 -174t-202 -58q-27 0 -50 4v146q17 -4 40 -4q37 0 63.5 21.5t26.5 64.5q0 45 -27.5 65.5t-72.5 20.5h-28v118h28
q33 0 54.5 19.5t21.5 54.5t-21.5 54.5t-54.5 19.5t-54.5 -19.5t-21.5 -54.5v-498h-188v498q0 115 68.5 174.5z" />
    <glyph glyph-name="agrave" unicode="&#xe0;" horiz-adv-x="583" 
d="M373 51q-31 -34 -70 -48.5t-93 -14.5q-84 0 -138 43t-54 120q0 47 21 77.5t68 50t129 32.5l133 21v14q0 24 -13 39t-53 15q-34 0 -51 -16.5t-17 -37.5h-186q0 88 69 137t183 49q124 0 188 -43t64 -120v-369h-180v51zM226 123q17 -13 47 -13q43 0 69.5 20.5t26.5 64.5v31
l-93 -18q-37 -7 -52 -17.5t-15 -32.5t17 -35zM228 586l-149 146h196l99 -146h-146z" />
    <glyph glyph-name="aacute" unicode="&#xe1;" horiz-adv-x="583" 
d="M373 51q-31 -34 -70 -48.5t-93 -14.5q-84 0 -138 43t-54 120q0 47 21 77.5t68 50t129 32.5l133 21v14q0 24 -13 39t-53 15q-34 0 -51 -16.5t-17 -37.5h-186q0 88 69 137t183 49q124 0 188 -43t64 -120v-369h-180v51zM226 123q17 -13 47 -13q43 0 69.5 20.5t26.5 64.5v31
l-93 -18q-37 -7 -52 -17.5t-15 -32.5t17 -35zM327 732h196l-149 -146h-146z" />
    <glyph glyph-name="acircumflex" unicode="&#xe2;" horiz-adv-x="583" 
d="M373 51q-31 -34 -70 -48.5t-93 -14.5q-84 0 -138 43t-54 120q0 47 21 77.5t68 50t129 32.5l133 21v14q0 24 -13 39t-53 15q-34 0 -51 -16.5t-17 -37.5h-186q0 88 69 137t183 49q124 0 188 -43t64 -120v-369h-180v51zM226 123q17 -13 47 -13q43 0 69.5 20.5t26.5 64.5v31
l-93 -18q-37 -7 -52 -17.5t-15 -32.5t17 -35zM527 586h-162l-64 62l-64 -62h-162l129 146h194z" />
    <glyph glyph-name="atilde" unicode="&#xe3;" horiz-adv-x="583" 
d="M373 51q-31 -34 -70 -48.5t-93 -14.5q-84 0 -138 43t-54 120q0 47 21 77.5t68 50t129 32.5l133 21v14q0 24 -13 39t-53 15q-34 0 -51 -16.5t-17 -37.5h-186q0 88 69 137t183 49q124 0 188 -43t64 -120v-369h-180v51zM226 123q17 -13 47 -13q43 0 69.5 20.5t26.5 64.5v31
l-93 -18q-37 -7 -52 -17.5t-15 -32.5t17 -35zM136.5 695.5q34.5 36.5 87.5 36.5q27 0 50.5 -8.5t26.5 -9.5q13 -5 30 -10.5t29 -5.5q15 0 22.5 8t7.5 26h110q0 -77 -34.5 -113.5t-87.5 -36.5q-27 0 -50.5 8.5t-26.5 9.5q-13 5 -30 10.5t-29 5.5q-15 0 -22.5 -8t-7.5 -26
h-110q0 77 34.5 113.5z" />
    <glyph glyph-name="adieresis" unicode="&#xe4;" horiz-adv-x="583" 
d="M373 51q-31 -34 -70 -48.5t-93 -14.5q-84 0 -138 43t-54 120q0 47 21 77.5t68 50t129 32.5l133 21v14q0 24 -13 39t-53 15q-34 0 -51 -16.5t-17 -37.5h-186q0 88 69 137t183 49q124 0 188 -43t64 -120v-369h-180v51zM226 123q17 -13 47 -13q43 0 69.5 20.5t26.5 64.5v31
l-93 -18q-37 -7 -52 -17.5t-15 -32.5t17 -35zM88 720h188v-140h-188v140zM326 720h188v-140h-188v140z" />
    <glyph glyph-name="aring" unicode="&#xe5;" horiz-adv-x="583" 
d="M373 51q-31 -34 -70 -48.5t-93 -14.5q-84 0 -138 43t-54 120q0 47 21 77.5t68 50t129 32.5l133 21v14q0 24 -13 39t-53 15q-34 0 -51 -16.5t-17 -37.5h-186q0 88 69 137t183 49q124 0 188 -43t64 -120v-369h-180v51zM226 123q17 -13 47 -13q43 0 69.5 20.5t26.5 64.5v31
l-93 -18q-37 -7 -52 -17.5t-15 -32.5t17 -35zM217 600q-38 20 -60 55.5t-22 80.5t22 80.5t60 55.5t84 20t84 -20t60 -55.5t22 -80.5t-22 -80.5t-60 -55.5t-84 -20t-84 20zM261.5 697q15.5 -15 39.5 -15t39.5 15t15.5 39t-15.5 39t-39.5 15t-39.5 -15t-15.5 -39t15.5 -39z
" />
    <glyph glyph-name="ccedilla" unicode="&#xe7;" horiz-adv-x="577" 
d="M185 -228v62q33 -6 57 -6q65 0 65 36q0 35 -57 35q-20 0 -30 -2v40l41 53q-114 11 -176.5 85t-62.5 185q0 78 32 139.5t94 97t149 35.5q120 0 187.5 -57.5t80.5 -155.5h-185q-7 31 -28.5 48t-54.5 17q-46 0 -66.5 -31.5t-20.5 -92.5t20.5 -92.5t66.5 -31.5q72 0 83 77
h185q-12 -95 -68.5 -154t-159.5 -69l-44 -46h11q58 0 91.5 -21t33.5 -59q0 -43 -42 -71.5t-127 -28.5q-42 0 -75 8z" />
    <glyph glyph-name="egrave" unicode="&#xe8;" horiz-adv-x="600" 
d="M149 23.5q-63 35.5 -95 97t-32 139.5t32 139.5t95 97t151 35.5q136 0 207 -77t71 -220v-30h-376q10 -41 35 -62t63 -21q37 0 58 9.5t35 29.5h177q-26 -80 -96 -126.5t-174 -46.5q-88 0 -151 35.5zM397 317q-10 39 -35 60t-62 21t-62 -21t-35 -60h194zM227 586l-149 146
h196l99 -146h-146z" />
    <glyph glyph-name="eacute" unicode="&#xe9;" horiz-adv-x="600" 
d="M149 23.5q-63 35.5 -95 97t-32 139.5t32 139.5t95 97t151 35.5q136 0 207 -77t71 -220v-30h-376q10 -41 35 -62t63 -21q37 0 58 9.5t35 29.5h177q-26 -80 -96 -126.5t-174 -46.5q-88 0 -151 35.5zM397 317q-10 39 -35 60t-62 21t-62 -21t-35 -60h194zM326 732h196
l-149 -146h-146z" />
    <glyph glyph-name="ecircumflex" unicode="&#xea;" horiz-adv-x="600" 
d="M149 23.5q-63 35.5 -95 97t-32 139.5t32 139.5t95 97t151 35.5q136 0 207 -77t71 -220v-30h-376q10 -41 35 -62t63 -21q37 0 58 9.5t35 29.5h177q-26 -80 -96 -126.5t-174 -46.5q-88 0 -151 35.5zM397 317q-10 39 -35 60t-62 21t-62 -21t-35 -60h194zM526 586h-162
l-64 62l-64 -62h-162l129 146h194z" />
    <glyph glyph-name="edieresis" unicode="&#xeb;" horiz-adv-x="600" 
d="M149 23.5q-63 35.5 -95 97t-32 139.5t32 139.5t95 97t151 35.5q136 0 207 -77t71 -220v-30h-376q10 -41 35 -62t63 -21q37 0 58 9.5t35 29.5h177q-26 -80 -96 -126.5t-174 -46.5q-88 0 -151 35.5zM397 317q-10 39 -35 60t-62 21t-62 -21t-35 -60h194zM87 720h188v-140
h-188v140zM325 720h188v-140h-188v140z" />
    <glyph glyph-name="igrave" unicode="&#xec;" horiz-adv-x="272" 
d="M42 520h188v-520h-188v520zM63 586l-149 146h196l99 -146h-146z" />
    <glyph glyph-name="iacute" unicode="&#xed;" horiz-adv-x="272" 
d="M42 520h188v-520h-188v520zM162 732h196l-149 -146h-146z" />
    <glyph glyph-name="icircumflex" unicode="&#xee;" horiz-adv-x="272" 
d="M42 520h188v-520h-188v520zM362 586h-162l-64 62l-64 -62h-162l129 146h194z" />
    <glyph glyph-name="idieresis" unicode="&#xef;" horiz-adv-x="272" 
d="M42 520h188v-520h-188v520zM-77 720h188v-140h-188v140zM161 720h188v-140h-188v140z" />
    <glyph glyph-name="ntilde" unicode="&#xf1;" 
d="M368 348q-16 24 -57 24q-42 0 -61.5 -27t-19.5 -67v-278h-188v520h184v-67q29 36 69.5 57.5t91.5 21.5q84 0 134.5 -53.5t50.5 -172.5v-306h-188v282q0 42 -16 66zM142.5 695.5q34.5 36.5 87.5 36.5q27 0 50.5 -8.5t26.5 -9.5q13 -5 30 -10.5t29 -5.5q15 0 22.5 8t7.5 26
h110q0 -77 -34.5 -113.5t-87.5 -36.5q-27 0 -50.5 8.5t-26.5 9.5q-13 5 -30 10.5t-29 5.5q-15 0 -22.5 -8t-7.5 -26h-110q0 77 34.5 113.5z" />
    <glyph glyph-name="ograve" unicode="&#xf2;" horiz-adv-x="604" 
d="M149.5 23.5q-63.5 35.5 -95.5 97t-32 139.5t32 139.5t95.5 97t152.5 35.5t152.5 -35.5t95.5 -97t32 -139.5t-32 -139.5t-95.5 -97t-152.5 -35.5t-152.5 35.5zM231.5 167.5q21.5 -31.5 70.5 -31.5t70.5 31.5t21.5 92.5t-21.5 92.5t-70.5 31.5t-70.5 -31.5t-21.5 -92.5
t21.5 -92.5zM229 586l-149 146h196l99 -146h-146z" />
    <glyph glyph-name="oacute" unicode="&#xf3;" horiz-adv-x="604" 
d="M149.5 23.5q-63.5 35.5 -95.5 97t-32 139.5t32 139.5t95.5 97t152.5 35.5t152.5 -35.5t95.5 -97t32 -139.5t-32 -139.5t-95.5 -97t-152.5 -35.5t-152.5 35.5zM231.5 167.5q21.5 -31.5 70.5 -31.5t70.5 31.5t21.5 92.5t-21.5 92.5t-70.5 31.5t-70.5 -31.5t-21.5 -92.5
t21.5 -92.5zM328 732h196l-149 -146h-146z" />
    <glyph glyph-name="ocircumflex" unicode="&#xf4;" horiz-adv-x="604" 
d="M149.5 23.5q-63.5 35.5 -95.5 97t-32 139.5t32 139.5t95.5 97t152.5 35.5t152.5 -35.5t95.5 -97t32 -139.5t-32 -139.5t-95.5 -97t-152.5 -35.5t-152.5 35.5zM231.5 167.5q21.5 -31.5 70.5 -31.5t70.5 31.5t21.5 92.5t-21.5 92.5t-70.5 31.5t-70.5 -31.5t-21.5 -92.5
t21.5 -92.5zM528 586h-162l-64 62l-64 -62h-162l129 146h194z" />
    <glyph glyph-name="otilde" unicode="&#xf5;" horiz-adv-x="604" 
d="M149.5 23.5q-63.5 35.5 -95.5 97t-32 139.5t32 139.5t95.5 97t152.5 35.5t152.5 -35.5t95.5 -97t32 -139.5t-32 -139.5t-95.5 -97t-152.5 -35.5t-152.5 35.5zM231.5 167.5q21.5 -31.5 70.5 -31.5t70.5 31.5t21.5 92.5t-21.5 92.5t-70.5 31.5t-70.5 -31.5t-21.5 -92.5
t21.5 -92.5zM137.5 695.5q34.5 36.5 87.5 36.5q27 0 50.5 -8.5t26.5 -9.5q13 -5 30 -10.5t29 -5.5q15 0 22.5 8t7.5 26h110q0 -77 -34.5 -113.5t-87.5 -36.5q-27 0 -50.5 8.5t-26.5 9.5q-13 5 -30 10.5t-29 5.5q-15 0 -22.5 -8t-7.5 -26h-110q0 77 34.5 113.5z" />
    <glyph glyph-name="odieresis" unicode="&#xf6;" horiz-adv-x="604" 
d="M149.5 23.5q-63.5 35.5 -95.5 97t-32 139.5t32 139.5t95.5 97t152.5 35.5t152.5 -35.5t95.5 -97t32 -139.5t-32 -139.5t-95.5 -97t-152.5 -35.5t-152.5 35.5zM231.5 167.5q21.5 -31.5 70.5 -31.5t70.5 31.5t21.5 92.5t-21.5 92.5t-70.5 31.5t-70.5 -31.5t-21.5 -92.5
t21.5 -92.5zM89 720h188v-140h-188v140zM327 720h188v-140h-188v140z" />
    <glyph glyph-name="divide" unicode="&#xf7;" horiz-adv-x="540" 
d="M28 439h484v-158h-484v158zM176 227h188v-140h-188v140zM176 633h188v-140h-188v140z" />
    <glyph glyph-name="ugrave" unicode="&#xf9;" 
d="M246 172q16 -24 57 -24q42 0 61.5 27t19.5 67v278h188v-520h-184v67q-29 -36 -69.5 -57.5t-91.5 -21.5q-84 0 -134.5 53.5t-50.5 172.5v306h188v-282q0 -42 16 -66zM234 586l-149 146h196l99 -146h-146z" />
    <glyph glyph-name="uacute" unicode="&#xfa;" 
d="M246 172q16 -24 57 -24q42 0 61.5 27t19.5 67v278h188v-520h-184v67q-29 -36 -69.5 -57.5t-91.5 -21.5q-84 0 -134.5 53.5t-50.5 172.5v306h188v-282q0 -42 16 -66zM333 732h196l-149 -146h-146z" />
    <glyph glyph-name="ucircumflex" unicode="&#xfb;" 
d="M246 172q16 -24 57 -24q42 0 61.5 27t19.5 67v278h188v-520h-184v67q-29 -36 -69.5 -57.5t-91.5 -21.5q-84 0 -134.5 53.5t-50.5 172.5v306h188v-282q0 -42 16 -66zM533 586h-162l-64 62l-64 -62h-162l129 146h194z" />
    <glyph glyph-name="udieresis" unicode="&#xfc;" 
d="M246 172q16 -24 57 -24q42 0 61.5 27t19.5 67v278h188v-520h-184v67q-29 -36 -69.5 -57.5t-91.5 -21.5q-84 0 -134.5 53.5t-50.5 172.5v306h188v-282q0 -42 16 -66zM94 720h188v-140h-188v140zM332 720h188v-140h-188v140z" />
    <glyph glyph-name="yacute" unicode="&#xfd;" horiz-adv-x="596" 
d="M32 -54h90q35 0 50 8t26 31l-196 535h202l98 -360l90 360h202l-190 -538q-32 -90 -85 -136t-148 -46h-139v146zM324 732h196l-149 -146h-146z" />
    <glyph glyph-name="ydieresis" unicode="&#xff;" horiz-adv-x="596" 
d="M32 -54h90q35 0 50 8t26 31l-196 535h202l98 -360l90 360h202l-190 -538q-32 -90 -85 -136t-148 -46h-139v146zM85 720h188v-140h-188v140zM323 720h188v-140h-188v140z" />
    <glyph glyph-name="Abreve" unicode="&#x102;" horiz-adv-x="758" 
d="M512 100h-276l-32 -100h-206l253 720h246l263 -720h-216zM458 268l-84 262l-84 -262h168zM246 801.5q-51 39.5 -64 112.5h134q6 -47 58 -47t58 47h134q-13 -73 -64 -112.5t-128 -39.5t-128 39.5z" />
    <glyph glyph-name="abreve" unicode="&#x103;" horiz-adv-x="583" 
d="M373 51q-31 -34 -70 -48.5t-93 -14.5q-84 0 -138 43t-54 120q0 47 21 77.5t68 50t129 32.5l133 21v14q0 24 -13 39t-53 15q-34 0 -51 -16.5t-17 -37.5h-186q0 88 69 137t183 49q124 0 188 -43t64 -120v-369h-180v51zM226 123q17 -13 47 -13q43 0 69.5 20.5t26.5 64.5v31
l-93 -18q-37 -7 -52 -17.5t-15 -32.5t17 -35zM173 619.5q-51 39.5 -64 112.5h134q6 -47 58 -47t58 47h134q-13 -73 -64 -112.5t-128 -39.5t-128 39.5z" />
    <glyph glyph-name="Aogonek" unicode="&#x104;" horiz-adv-x="758" 
d="M512 100h-276l-32 -100h-206l253 720h246l263 -720q-52 -24 -72 -43.5t-20 -39.5q0 -17 13.5 -25t36.5 -8q21 0 42 6v-92q-33 -10 -80 -10q-66 0 -106 23.5t-40 74.5q0 30 24 62t70 52h-84zM458 268l-84 262l-84 -262h168z" />
    <glyph glyph-name="aogonek" unicode="&#x105;" horiz-adv-x="583" 
d="M373 51q-31 -34 -70 -48.5t-93 -14.5q-84 0 -138 43t-54 120q0 47 21 77.5t68 50t129 32.5l133 21v14q0 24 -13 39t-53 15q-34 0 -51 -16.5t-17 -37.5h-186q0 88 69 137t183 49q124 0 188 -43t64 -120v-369q-52 -24 -72 -43.5t-20 -39.5q0 -17 13.5 -25t36.5 -8
q21 0 42 6v-92q-33 -10 -80 -10q-66 0 -106 23.5t-40 74.5q0 30 24 62t70 52h-48v51zM226 123q17 -13 47 -13q43 0 69.5 20.5t26.5 64.5v31l-93 -18q-37 -7 -52 -17.5t-15 -32.5t17 -35z" />
    <glyph glyph-name="Cacute" unicode="&#x106;" horiz-adv-x="770" 
d="M195.5 37q-85.5 49 -129.5 134t-44 189t44 189t129.5 134t202.5 49q97 0 172 -36.5t120.5 -101t57.5 -146.5h-206q-15 49 -51.5 77.5t-92.5 28.5q-85 0 -124.5 -54.5t-39.5 -139.5t39.5 -139.5t124.5 -54.5q59 0 94.5 32t49.5 86h206q-10 -85 -54.5 -152.5t-120.5 -105.5
t-175 -38q-117 0 -202.5 49zM424 926h196l-149 -146h-146z" />
    <glyph glyph-name="cacute" unicode="&#x107;" horiz-adv-x="577" 
d="M148 23.5q-62 35.5 -94 97t-32 139.5t32 139.5t94 97t149 35.5q120 0 187.5 -57.5t80.5 -155.5h-185q-7 31 -28.5 48t-54.5 17q-46 0 -66.5 -31.5t-20.5 -92.5t20.5 -92.5t66.5 -31.5q72 0 83 77h185q-13 -104 -79.5 -164.5t-188.5 -60.5q-87 0 -149 35.5zM323 732h196
l-149 -146h-146z" />
    <glyph glyph-name="Ccircumflex" unicode="&#x108;" horiz-adv-x="770" 
d="M195.5 37q-85.5 49 -129.5 134t-44 189t44 189t129.5 134t202.5 49q97 0 172 -36.5t120.5 -101t57.5 -146.5h-206q-15 49 -51.5 77.5t-92.5 28.5q-85 0 -124.5 -54.5t-39.5 -139.5t39.5 -139.5t124.5 -54.5q59 0 94.5 32t49.5 86h206q-10 -85 -54.5 -152.5t-120.5 -105.5
t-175 -38q-117 0 -202.5 49zM624 780h-162l-64 62l-64 -62h-162l129 146h194z" />
    <glyph glyph-name="ccircumflex" unicode="&#x109;" horiz-adv-x="577" 
d="M148 23.5q-62 35.5 -94 97t-32 139.5t32 139.5t94 97t149 35.5q120 0 187.5 -57.5t80.5 -155.5h-185q-7 31 -28.5 48t-54.5 17q-46 0 -66.5 -31.5t-20.5 -92.5t20.5 -92.5t66.5 -31.5q72 0 83 77h185q-13 -104 -79.5 -164.5t-188.5 -60.5q-87 0 -149 35.5zM523 586h-162
l-64 62l-64 -62h-162l129 146h194z" />
    <glyph glyph-name="Cdotaccent" unicode="&#x10a;" horiz-adv-x="770" 
d="M195.5 37q-85.5 49 -129.5 134t-44 189t44 189t129.5 134t202.5 49q97 0 172 -36.5t120.5 -101t57.5 -146.5h-206q-15 49 -51.5 77.5t-92.5 28.5q-85 0 -124.5 -54.5t-39.5 -139.5t39.5 -139.5t124.5 -54.5q59 0 94.5 32t49.5 86h206q-10 -85 -54.5 -152.5t-120.5 -105.5
t-175 -38q-117 0 -202.5 49zM304 920h188v-140h-188v140z" />
    <glyph glyph-name="cdotaccent" unicode="&#x10b;" horiz-adv-x="577" 
d="M148 23.5q-62 35.5 -94 97t-32 139.5t32 139.5t94 97t149 35.5q120 0 187.5 -57.5t80.5 -155.5h-185q-7 31 -28.5 48t-54.5 17q-46 0 -66.5 -31.5t-20.5 -92.5t20.5 -92.5t66.5 -31.5q72 0 83 77h185q-13 -104 -79.5 -164.5t-188.5 -60.5q-87 0 -149 35.5zM203 720h188
v-140h-188v140z" />
    <glyph glyph-name="Ccaron" unicode="&#x10c;" horiz-adv-x="770" 
d="M195.5 37q-85.5 49 -129.5 134t-44 189t44 189t129.5 134t202.5 49q97 0 172 -36.5t120.5 -101t57.5 -146.5h-206q-15 49 -51.5 77.5t-92.5 28.5q-85 0 -124.5 -54.5t-39.5 -139.5t39.5 -139.5t124.5 -54.5q59 0 94.5 32t49.5 86h206q-10 -85 -54.5 -152.5t-120.5 -105.5
t-175 -38q-117 0 -202.5 49zM172 926h162l64 -62l64 62h162l-129 -146h-194z" />
    <glyph glyph-name="ccaron" unicode="&#x10d;" horiz-adv-x="577" 
d="M148 23.5q-62 35.5 -94 97t-32 139.5t32 139.5t94 97t149 35.5q120 0 187.5 -57.5t80.5 -155.5h-185q-7 31 -28.5 48t-54.5 17q-46 0 -66.5 -31.5t-20.5 -92.5t20.5 -92.5t66.5 -31.5q72 0 83 77h185q-13 -104 -79.5 -164.5t-188.5 -60.5q-87 0 -149 35.5zM71 732h162
l64 -62l64 62h162l-129 -146h-194z" />
    <glyph glyph-name="Dcaron" unicode="&#x10e;" horiz-adv-x="760" 
d="M52 720h310q127 0 211 -46t124.5 -127t40.5 -187t-40.5 -187t-124.5 -127t-211 -46h-310v720zM362 172q85 0 124.5 51.5t39.5 136.5t-39.5 136.5t-124.5 51.5h-106v-376h106zM136 914h162l64 -62l64 62h162l-129 -146h-194z" />
    <glyph glyph-name="dcaron" unicode="&#x10f;" horiz-adv-x="615" 
d="M390 0v58q-51 -70 -148 -70q-70 0 -119.5 35.5t-75 97t-25.5 139.5t25.5 139.5t75 97t119.5 35.5q93 0 143 -63v251h188v-720h-183zM232 167.5q21 -31.5 67 -31.5t67 31.5t21 92.5t-21 92.5t-67 31.5t-67 -31.5t-21 -92.5t21 -92.5zM631 720h180l-77 -170h-121z" />
    <glyph glyph-name="Dcroat" unicode="&#x110;" horiz-adv-x="782" 
d="M0 415h74v305h310q127 0 211 -46t124.5 -127t40.5 -187t-40.5 -187t-124.5 -127t-211 -46h-310v317h-74v98zM384 172q85 0 124.5 51.5t39.5 136.5t-39.5 136.5t-124.5 51.5h-106v-133h140v-98h-140v-145h106z" />
    <glyph glyph-name="dcroat" unicode="&#x111;" horiz-adv-x="658" 
d="M292 671h93v49h188v-49h85v-98h-85v-573h-183v58q-51 -70 -148 -70q-70 0 -119.5 35.5t-75 97t-25.5 139.5t25.5 139.5t75 97t119.5 35.5q93 0 143 -63v104h-93v98zM232 167.5q21 -31.5 67 -31.5t67 31.5t21 92.5t-21 92.5t-67 31.5t-67 -31.5t-21 -92.5t21 -92.5z" />
    <glyph glyph-name="Ebreve" unicode="&#x114;" horiz-adv-x="648" 
d="M52 720h568v-182h-364v-92h336v-170h-336v-94h364v-182h-568v720zM208 801.5q-51 39.5 -64 112.5h134q6 -47 58 -47t58 47h134q-13 -73 -64 -112.5t-128 -39.5t-128 39.5z" />
    <glyph glyph-name="ebreve" unicode="&#x115;" horiz-adv-x="600" 
d="M149 23.5q-63 35.5 -95 97t-32 139.5t32 139.5t95 97t151 35.5q136 0 207 -77t71 -220v-30h-376q10 -41 35 -62t63 -21q37 0 58 9.5t35 29.5h177q-26 -80 -96 -126.5t-174 -46.5q-88 0 -151 35.5zM397 317q-10 39 -35 60t-62 21t-62 -21t-35 -60h194zM172 619.5
q-51 39.5 -64 112.5h134q6 -47 58 -47t58 47h134q-13 -73 -64 -112.5t-128 -39.5t-128 39.5z" />
    <glyph glyph-name="Edotaccent" unicode="&#x116;" horiz-adv-x="648" 
d="M52 720h568v-182h-364v-92h336v-170h-336v-94h364v-182h-568v720zM242 908h188v-140h-188v140z" />
    <glyph glyph-name="edotaccent" unicode="&#x117;" horiz-adv-x="600" 
d="M149 23.5q-63 35.5 -95 97t-32 139.5t32 139.5t95 97t151 35.5q136 0 207 -77t71 -220v-30h-376q10 -41 35 -62t63 -21q37 0 58 9.5t35 29.5h177q-26 -80 -96 -126.5t-174 -46.5q-88 0 -151 35.5zM397 317q-10 39 -35 60t-62 21t-62 -21t-35 -60h194zM206 720h188v-140
h-188v140z" />
    <glyph glyph-name="Eogonek" unicode="&#x118;" horiz-adv-x="648" 
d="M52 720h568v-182h-364v-92h336v-170h-336v-94h364v-182q-52 -24 -72 -43.5t-20 -39.5q0 -17 13.5 -25t36.5 -8q21 0 42 6v-92q-33 -10 -80 -10q-66 0 -106 23.5t-40 74.5q0 30 24 62t70 52h-436v720z" />
    <glyph glyph-name="eogonek" unicode="&#x119;" horiz-adv-x="600" 
d="M209 -188.5q-40 23.5 -40 74.5q0 27 19.5 56t57.5 50q-107 15 -165.5 88t-58.5 180q0 78 32 139.5t95 97t151 35.5q136 0 207 -77t71 -220v-30h-376q10 -41 35 -62t63 -21q37 0 58 9.5t35 29.5h177q-20 -60 -64.5 -101.5t-110.5 -59.5q-52 -24 -72 -43.5t-20 -39.5
q0 -17 13.5 -25t36.5 -8q21 0 42 6v-92q-33 -10 -80 -10q-66 0 -106 23.5zM397 317q-10 39 -35 60t-62 21t-62 -21t-35 -60h194z" />
    <glyph glyph-name="Ecaron" unicode="&#x11a;" horiz-adv-x="648" 
d="M52 720h568v-182h-364v-92h336v-170h-336v-94h364v-182h-568v720zM110 914h162l64 -62l64 62h162l-129 -146h-194z" />
    <glyph glyph-name="ecaron" unicode="&#x11b;" horiz-adv-x="600" 
d="M149 23.5q-63 35.5 -95 97t-32 139.5t32 139.5t95 97t151 35.5q136 0 207 -77t71 -220v-30h-376q10 -41 35 -62t63 -21q37 0 58 9.5t35 29.5h177q-26 -80 -96 -126.5t-174 -46.5q-88 0 -151 35.5zM397 317q-10 39 -35 60t-62 21t-62 -21t-35 -60h194zM74 732h162l64 -62
l64 62h162l-129 -146h-194z" />
    <glyph glyph-name="Gcircumflex" unicode="&#x11c;" horiz-adv-x="802" 
d="M182.5 37.5q-76.5 49.5 -118.5 134.5t-42 188q0 104 44 189t129.5 134t202.5 49q97 0 172 -33.5t121 -93t59 -136.5h-208q-18 41 -54 64.5t-90 23.5q-84 0 -124 -55.5t-40 -141.5t40 -141.5t124 -55.5q104 0 146 93h-176v156h392v-412h-140v122q-76 -134 -262 -134
q-99 0 -175.5 49.5zM624 780h-162l-64 62l-64 -62h-162l129 146h194z" />
    <glyph glyph-name="gcircumflex" unicode="&#x11d;" horiz-adv-x="615" 
d="M102.5 -159.5q-65.5 52.5 -67.5 143.5h184q1 -29 22 -43.5t55 -14.5q38 0 63.5 19.5t25.5 67.5v67q-51 -59 -143 -59q-70 0 -119.5 33t-75 91t-25.5 131q0 74 25.5 132t75 91t119.5 33q96 0 147 -64v52h184v-507q0 -72 -37.5 -123t-102.5 -76.5t-147 -25.5
q-118 0 -183.5 52.5zM232 189.5q21 -29.5 67 -29.5t67 29.5t21 86.5q0 58 -21 87.5t-67 29.5t-67 -29.5t-21 -87.5q0 -57 21 -86.5zM524 586h-162l-64 62l-64 -62h-162l129 146h194z" />
    <glyph glyph-name="Gbreve" unicode="&#x11e;" horiz-adv-x="802" 
d="M182.5 37.5q-76.5 49.5 -118.5 134.5t-42 188q0 104 44 189t129.5 134t202.5 49q97 0 172 -33.5t121 -93t59 -136.5h-208q-18 41 -54 64.5t-90 23.5q-84 0 -124 -55.5t-40 -141.5t40 -141.5t124 -55.5q104 0 146 93h-176v156h392v-412h-140v122q-76 -134 -262 -134
q-99 0 -175.5 49.5zM270 813.5q-51 39.5 -64 112.5h134q6 -47 58 -47t58 47h134q-13 -73 -64 -112.5t-128 -39.5t-128 39.5z" />
    <glyph glyph-name="gbreve" unicode="&#x11f;" horiz-adv-x="615" 
d="M102.5 -159.5q-65.5 52.5 -67.5 143.5h184q1 -29 22 -43.5t55 -14.5q38 0 63.5 19.5t25.5 67.5v67q-51 -59 -143 -59q-70 0 -119.5 33t-75 91t-25.5 131q0 74 25.5 132t75 91t119.5 33q96 0 147 -64v52h184v-507q0 -72 -37.5 -123t-102.5 -76.5t-147 -25.5
q-118 0 -183.5 52.5zM232 189.5q21 -29.5 67 -29.5t67 29.5t21 86.5q0 58 -21 87.5t-67 29.5t-67 -29.5t-21 -87.5q0 -57 21 -86.5zM170 619.5q-51 39.5 -64 112.5h134q6 -47 58 -47t58 47h134q-13 -73 -64 -112.5t-128 -39.5t-128 39.5z" />
    <glyph glyph-name="Gdotaccent" unicode="&#x120;" horiz-adv-x="802" 
d="M182.5 37.5q-76.5 49.5 -118.5 134.5t-42 188q0 104 44 189t129.5 134t202.5 49q97 0 172 -33.5t121 -93t59 -136.5h-208q-18 41 -54 64.5t-90 23.5q-84 0 -124 -55.5t-40 -141.5t40 -141.5t124 -55.5q104 0 146 93h-176v156h392v-412h-140v122q-76 -134 -262 -134
q-99 0 -175.5 49.5zM304 920h188v-140h-188v140z" />
    <glyph glyph-name="gdotaccent" unicode="&#x121;" horiz-adv-x="615" 
d="M102.5 -159.5q-65.5 52.5 -67.5 143.5h184q1 -29 22 -43.5t55 -14.5q38 0 63.5 19.5t25.5 67.5v67q-51 -59 -143 -59q-70 0 -119.5 33t-75 91t-25.5 131q0 74 25.5 132t75 91t119.5 33q96 0 147 -64v52h184v-507q0 -72 -37.5 -123t-102.5 -76.5t-147 -25.5
q-118 0 -183.5 52.5zM232 189.5q21 -29.5 67 -29.5t67 29.5t21 86.5q0 58 -21 87.5t-67 29.5t-67 -29.5t-21 -87.5q0 -57 21 -86.5zM204 720h188v-140h-188v140z" />
    <glyph glyph-name="Hcircumflex" unicode="&#x124;" horiz-adv-x="756" 
d="M500 276h-244v-276h-204v720h204v-262h244v262h204v-720h-204v276zM604 768h-162l-64 62l-64 -62h-162l129 146h194z" />
    <glyph glyph-name="hcircumflex" unicode="&#x125;" 
d="M42 720h188v-262q62 74 157 74q84 0 134.5 -53.5t50.5 -172.5v-306h-188v282q0 42 -16 66t-57 24q-42 0 -61.5 -27t-19.5 -67v-278h-188v720zM362 768h-162l-64 62l-64 -62h-162l129 146h194z" />
    <glyph glyph-name="Itilde" unicode="&#x128;" horiz-adv-x="308" 
d="M52 720h204v-720h-204v720zM-10.5 881.5q34.5 36.5 87.5 36.5q27 0 50.5 -8.5t26.5 -9.5q13 -5 30 -10.5t29 -5.5q15 0 22.5 8t7.5 26h110q0 -77 -34.5 -113.5t-87.5 -36.5q-27 0 -50.5 8.5t-26.5 9.5q-13 5 -30 10.5t-29 5.5q-15 0 -22.5 -8t-7.5 -26h-110
q0 77 34.5 113.5z" />
    <glyph glyph-name="itilde" unicode="&#x129;" horiz-adv-x="272" 
d="M42 520h188v-520h-188v520zM-28.5 695.5q34.5 36.5 87.5 36.5q27 0 50.5 -8.5t26.5 -9.5q13 -5 30 -10.5t29 -5.5q15 0 22.5 8t7.5 26h110q0 -77 -34.5 -113.5t-87.5 -36.5q-27 0 -50.5 8.5t-26.5 9.5q-13 5 -30 10.5t-29 5.5q-15 0 -22.5 -8t-7.5 -26h-110
q0 77 34.5 113.5z" />
    <glyph glyph-name="Ibreve" unicode="&#x12c;" horiz-adv-x="308" 
d="M52 720h204v-720h-204v720zM26 801.5q-51 39.5 -64 112.5h134q6 -47 58 -47t58 47h134q-13 -73 -64 -112.5t-128 -39.5t-128 39.5z" />
    <glyph glyph-name="ibreve" unicode="&#x12d;" horiz-adv-x="272" 
d="M42 520h188v-520h-188v520zM8 619.5q-51 39.5 -64 112.5h134q6 -47 58 -47t58 47h134q-13 -73 -64 -112.5t-128 -39.5t-128 39.5z" />
    <glyph glyph-name="Iogonek" unicode="&#x12e;" horiz-adv-x="308" 
d="M52 720h204v-720q-52 -24 -72 -43.5t-20 -39.5q0 -17 13.5 -25t36.5 -8q21 0 42 6v-92q-33 -10 -80 -10q-66 0 -106 23.5t-40 74.5q0 30 24 62t70 52h-72v720z" />
    <glyph glyph-name="iogonek" unicode="&#x12f;" horiz-adv-x="272" 
d="M42 520h188v-520q-52 -24 -72 -43.5t-20 -39.5q0 -17 13.5 -25t36.5 -8q21 0 42 6v-92q-33 -10 -80 -10q-66 0 -106 23.5t-40 74.5q0 30 24 62t70 52h-56v520zM42 720h188v-140h-188v140z" />
    <glyph glyph-name="Idotaccent" unicode="&#x130;" horiz-adv-x="308" 
d="M52 720h204v-720h-204v720zM60 908h188v-140h-188v140z" />
    <glyph glyph-name="dotlessi" unicode="&#x131;" horiz-adv-x="272" 
d="M42 520h188v-520h-188v520z" />
    <glyph glyph-name="Jcircumflex" unicode="&#x134;" horiz-adv-x="598" 
d="M90 55q-68 67 -68 184v40h194v-40q0 -40 15.5 -59.5t52.5 -19.5t52.5 19.5t15.5 59.5v481h204v-481q0 -116 -72.5 -183.5t-199.5 -67.5q-126 0 -194 67zM680 768h-162l-64 62l-64 -62h-162l129 146h194z" />
    <glyph glyph-name="jcircumflex" unicode="&#x135;" horiz-adv-x="278" 
d="M211 -145q-25 -34 -62.5 -44.5t-89.5 -10.5h-121v132h66q26 0 35 9.5t9 31.5v547h188v-565q0 -66 -25 -100zM368 586h-162l-64 62l-64 -62h-162l129 146h194z" />
    <glyph glyph-name="Lacute" unicode="&#x139;" horiz-adv-x="588" 
d="M52 720h204v-538h320v-182h-524v720zM180 914h196l-149 -146h-146z" />
    <glyph glyph-name="lacute" unicode="&#x13a;" horiz-adv-x="362" 
d="M230 720v-547q0 -22 9 -31.5t35 -9.5h66v-132h-121q-52 0 -89.5 10.5t-62.5 44.5t-25 100v565h188zM162 914h196l-149 -146h-146z" />
    <glyph glyph-name="Lcaron" unicode="&#x13d;" horiz-adv-x="588" 
d="M52 720h204v-538h320v-182h-524v720zM334 720h180l-77 -170h-121z" />
    <glyph glyph-name="lcaron" unicode="&#x13e;" horiz-adv-x="362" 
d="M230 720v-547q0 -22 9 -31.5t35 -9.5h66v-132h-121q-52 0 -89.5 10.5t-62.5 44.5t-25 100v565h188zM288 720h180l-77 -170h-121z" />
    <glyph glyph-name="Lslash" unicode="&#x141;" horiz-adv-x="612" 
d="M76 280l-76 -32v110l76 32v330h204v-243l170 73v-110l-170 -73v-185h320v-182h-524v280z" />
    <glyph glyph-name="lslash" unicode="&#x142;" horiz-adv-x="362" 
d="M230 720v-262l76 32v-110l-76 -32v-175q0 -22 9 -31.5t35 -9.5h66v-132h-121q-52 0 -89.5 10.5t-62.5 44.5t-25 100v113l-76 -32v110l76 32v342h188z" />
    <glyph glyph-name="Nacute" unicode="&#x143;" horiz-adv-x="756" 
d="M246 427v-427h-194v720h216l242 -427v427h194v-720h-216zM404 914h196l-149 -146h-146z" />
    <glyph glyph-name="nacute" unicode="&#x144;" 
d="M368 348q-16 24 -57 24q-42 0 -61.5 -27t-19.5 -67v-278h-188v520h184v-67q29 36 69.5 57.5t91.5 21.5q84 0 134.5 -53.5t50.5 -172.5v-306h-188v282q0 42 -16 66zM333 732h196l-149 -146h-146z" />
    <glyph glyph-name="Ncaron" unicode="&#x147;" horiz-adv-x="756" 
d="M246 427v-427h-194v720h216l242 -427v427h194v-720h-216zM152 914h162l64 -62l64 62h162l-129 -146h-194z" />
    <glyph glyph-name="ncaron" unicode="&#x148;" 
d="M368 348q-16 24 -57 24q-42 0 -61.5 -27t-19.5 -67v-278h-188v520h184v-67q29 36 69.5 57.5t91.5 21.5q84 0 134.5 -53.5t50.5 -172.5v-306h-188v282q0 42 -16 66zM81 732h162l64 -62l64 62h162l-129 -146h-194z" />
    <glyph glyph-name="Obreve" unicode="&#x14e;" horiz-adv-x="796" 
d="M195.5 37q-85.5 49 -129.5 134t-44 189t44 189t129.5 134t202.5 49t202.5 -49t129.5 -134t44 -189t-44 -189t-129.5 -134t-202.5 -49t-202.5 49zM273.5 220.5q39.5 -54.5 124.5 -54.5t124.5 54.5t39.5 139.5t-39.5 139.5t-124.5 54.5t-124.5 -54.5t-39.5 -139.5
t39.5 -139.5zM270 813.5q-51 39.5 -64 112.5h134q6 -47 58 -47t58 47h134q-13 -73 -64 -112.5t-128 -39.5t-128 39.5z" />
    <glyph glyph-name="obreve" unicode="&#x14f;" horiz-adv-x="604" 
d="M149.5 23.5q-63.5 35.5 -95.5 97t-32 139.5t32 139.5t95.5 97t152.5 35.5t152.5 -35.5t95.5 -97t32 -139.5t-32 -139.5t-95.5 -97t-152.5 -35.5t-152.5 35.5zM231.5 167.5q21.5 -31.5 70.5 -31.5t70.5 31.5t21.5 92.5t-21.5 92.5t-70.5 31.5t-70.5 -31.5t-21.5 -92.5
t21.5 -92.5zM174 619.5q-51 39.5 -64 112.5h134q6 -47 58 -47t58 47h134q-13 -73 -64 -112.5t-128 -39.5t-128 39.5z" />
    <glyph glyph-name="Racute" unicode="&#x154;" horiz-adv-x="707" 
d="M52 720h356q132 0 198.5 -60.5t66.5 -159.5q0 -57 -28.5 -102t-80.5 -78q47 -25 69.5 -61.5t30.5 -88.5l25 -170h-208l-22 150q-8 50 -31 75t-68 25h-104v-250h-204v720zM365 400q49 0 73.5 18.5t24.5 61.5t-24.5 61.5t-73.5 18.5h-109v-160h109zM383 914h196l-149 -146
h-146z" />
    <glyph glyph-name="racute" unicode="&#x155;" horiz-adv-x="436" 
d="M42 520h184v-94q40 100 144 100h44v-169h-54q-68 0 -99 -33t-31 -112v-212h-188v520zM254 732h196l-149 -146h-146z" />
    <glyph glyph-name="Rcaron" unicode="&#x158;" horiz-adv-x="707" 
d="M52 720h356q132 0 198.5 -60.5t66.5 -159.5q0 -57 -28.5 -102t-80.5 -78q47 -25 69.5 -61.5t30.5 -88.5l25 -170h-208l-22 150q-8 50 -31 75t-68 25h-104v-250h-204v720zM365 400q49 0 73.5 18.5t24.5 61.5t-24.5 61.5t-73.5 18.5h-109v-160h109zM131 914h162l64 -62
l64 62h162l-129 -146h-194z" />
    <glyph glyph-name="rcaron" unicode="&#x159;" horiz-adv-x="436" 
d="M42 520h184v-94q40 100 144 100h44v-169h-54q-68 0 -99 -33t-31 -112v-212h-188v520zM2 732h162l64 -62l64 62h162l-129 -146h-194z" />
    <glyph glyph-name="Sacute" unicode="&#x15a;" horiz-adv-x="677" 
d="M163 20q-72 32 -109 89t-36 132h196q1 -58 36 -77.5t98 -19.5q46 0 73.5 16.5t27.5 44.5q0 17 -10.5 28.5t-42.5 22.5t-94 20q-145 21 -209.5 78.5t-64.5 156.5q0 63 35 113t103 79t162 29q140 0 220.5 -62.5t86.5 -185.5h-192q-2 48 -31 70t-84 22q-42 0 -67 -15
t-25 -41t29 -43.5t107 -28.5q107 -15 170 -44t90 -74t27 -110q0 -115 -89 -173.5t-232 -58.5q-103 0 -175 32zM364 926h196l-149 -146h-146z" />
    <glyph glyph-name="sacute" unicode="&#x15b;" horiz-adv-x="548" 
d="M84 30q-66 42 -72 142h178q5 -38 28 -52.5t66 -14.5q27 0 47 10t20 27q0 13 -7.5 21t-30.5 15.5t-71 15.5q-123 22 -173.5 61.5t-50.5 107.5q0 82 66 125.5t184 43.5q126 0 187 -50t65 -134h-168q-2 67 -84 67q-31 0 -49.5 -10.5t-18.5 -28.5q0 -19 23.5 -29.5
t93.5 -20.5q121 -17 170 -59t49 -112q0 -81 -71 -124t-191 -43q-124 0 -190 42zM300 732h196l-149 -146h-146z" />
    <glyph glyph-name="Scircumflex" unicode="&#x15c;" horiz-adv-x="677" 
d="M163 20q-72 32 -109 89t-36 132h196q1 -58 36 -77.5t98 -19.5q46 0 73.5 16.5t27.5 44.5q0 17 -10.5 28.5t-42.5 22.5t-94 20q-145 21 -209.5 78.5t-64.5 156.5q0 63 35 113t103 79t162 29q140 0 220.5 -62.5t86.5 -185.5h-192q-2 48 -31 70t-84 22q-42 0 -67 -15
t-25 -41t29 -43.5t107 -28.5q107 -15 170 -44t90 -74t27 -110q0 -115 -89 -173.5t-232 -58.5q-103 0 -175 32zM564 780h-162l-64 62l-64 -62h-162l129 146h194z" />
    <glyph glyph-name="scircumflex" unicode="&#x15d;" horiz-adv-x="548" 
d="M84 30q-66 42 -72 142h178q5 -38 28 -52.5t66 -14.5q27 0 47 10t20 27q0 13 -7.5 21t-30.5 15.5t-71 15.5q-123 22 -173.5 61.5t-50.5 107.5q0 82 66 125.5t184 43.5q126 0 187 -50t65 -134h-168q-2 67 -84 67q-31 0 -49.5 -10.5t-18.5 -28.5q0 -19 23.5 -29.5
t93.5 -20.5q121 -17 170 -59t49 -112q0 -81 -71 -124t-191 -43q-124 0 -190 42zM500 586h-162l-64 62l-64 -62h-162l129 146h194z" />
    <glyph glyph-name="Scedilla" unicode="&#x15e;" horiz-adv-x="677" 
d="M226 -228v62q33 -6 57 -6q65 0 65 36q0 35 -57 35q-20 0 -30 -2v40l40 52q-137 9 -210.5 77t-72.5 175h196q1 -58 36 -77.5t98 -19.5q46 0 73.5 16.5t27.5 44.5q0 17 -10.5 28.5t-42.5 22.5t-94 20q-145 21 -209.5 78.5t-64.5 156.5q0 63 35 113t103 79t162 29
q140 0 220.5 -62.5t86.5 -185.5h-192q-2 48 -31 70t-84 22q-42 0 -67 -15t-25 -41t29 -43.5t107 -28.5q107 -15 170 -44t90 -74t27 -110q0 -106 -77.5 -164.5t-204.5 -66.5l-43 -45h11q58 0 91.5 -21t33.5 -59q0 -43 -42 -71.5t-127 -28.5q-42 0 -75 8z" />
    <glyph glyph-name="scedilla" unicode="&#x15f;" horiz-adv-x="548" 
d="M162 -228v62q33 -6 57 -6q65 0 65 36q0 35 -57 35q-20 0 -30 -2v40l40 52q-106 5 -162.5 48t-62.5 135h178q5 -38 28 -52.5t66 -14.5q27 0 47 10t20 27q0 13 -7.5 21t-30.5 15.5t-71 15.5q-123 22 -173.5 61.5t-50.5 107.5q0 82 66 125.5t184 43.5q126 0 187 -50t65 -134
h-168q-2 67 -84 67q-31 0 -49.5 -10.5t-18.5 -28.5q0 -19 23.5 -29.5t93.5 -20.5q121 -17 170 -59t49 -112q0 -73 -59.5 -116t-163.5 -50l-43 -45h11q58 0 91.5 -21t33.5 -59q0 -43 -42 -71.5t-127 -28.5q-42 0 -75 8z" />
    <glyph glyph-name="Scaron" unicode="&#x160;" horiz-adv-x="677" 
d="M163 20q-72 32 -109 89t-36 132h196q1 -58 36 -77.5t98 -19.5q46 0 73.5 16.5t27.5 44.5q0 17 -10.5 28.5t-42.5 22.5t-94 20q-145 21 -209.5 78.5t-64.5 156.5q0 63 35 113t103 79t162 29q140 0 220.5 -62.5t86.5 -185.5h-192q-2 48 -31 70t-84 22q-42 0 -67 -15
t-25 -41t29 -43.5t107 -28.5q107 -15 170 -44t90 -74t27 -110q0 -115 -89 -173.5t-232 -58.5q-103 0 -175 32zM112 926h162l64 -62l64 62h162l-129 -146h-194z" />
    <glyph glyph-name="scaron" unicode="&#x161;" horiz-adv-x="548" 
d="M84 30q-66 42 -72 142h178q5 -38 28 -52.5t66 -14.5q27 0 47 10t20 27q0 13 -7.5 21t-30.5 15.5t-71 15.5q-123 22 -173.5 61.5t-50.5 107.5q0 82 66 125.5t184 43.5q126 0 187 -50t65 -134h-168q-2 67 -84 67q-31 0 -49.5 -10.5t-18.5 -28.5q0 -19 23.5 -29.5
t93.5 -20.5q121 -17 170 -59t49 -112q0 -81 -71 -124t-191 -43q-124 0 -190 42zM48 732h162l64 -62l64 62h162l-129 -146h-194z" />
    <glyph glyph-name="uni0162" unicode="&#x162;" horiz-adv-x="646" 
d="M221 538h-211v182h626v-182h-211v-538h-64l-42 -44h11q58 0 91.5 -21t33.5 -59q0 -43 -42 -71.5t-127 -28.5q-42 0 -75 8v62q33 -6 57 -6q65 0 65 36q0 35 -57 35q-20 0 -30 -2v40l39 51h-64v538z" />
    <glyph glyph-name="uni0163" unicode="&#x163;" horiz-adv-x="426" 
d="M284 680v-160h120v-132h-120v-215q0 -22 9 -31.5t35 -9.5h76v-132h-114l-42 -44h11q58 0 91.5 -21t33.5 -59q0 -43 -42 -71.5t-127 -28.5q-42 0 -75 8v62q33 -6 57 -6q65 0 65 36q0 35 -57 35q-20 0 -30 -2v40l42 54q-56 8 -88.5 42t-32.5 110v233h-84v132h84v160h188z
" />
    <glyph glyph-name="Tcaron" unicode="&#x164;" horiz-adv-x="646" 
d="M221 538h-211v182h626v-182h-211v-538h-204v538zM97 914h162l64 -62l64 62h162l-129 -146h-194z" />
    <glyph glyph-name="tcaron" unicode="&#x165;" horiz-adv-x="426" 
d="M284 680v-160h120v-132h-120v-215q0 -22 9 -31.5t35 -9.5h76v-132h-131q-52 0 -89.5 10.5t-62.5 44.5t-25 100v233h-84v132h84v160h188zM334 720h180l-77 -170h-121z" />
    <glyph glyph-name="Utilde" unicode="&#x168;" horiz-adv-x="728" 
d="M199 21q-73 33 -115 98.5t-42 159.5v441h204v-441q0 -56 31.5 -86t86.5 -30t86.5 30t31.5 86v441h204v-441q0 -94 -42 -159.5t-115 -98.5t-165 -33t-165 33zM199.5 881.5q34.5 36.5 87.5 36.5q27 0 50.5 -8.5t26.5 -9.5q13 -5 30 -10.5t29 -5.5q15 0 22.5 8t7.5 26h110
q0 -77 -34.5 -113.5t-87.5 -36.5q-27 0 -50.5 8.5t-26.5 9.5q-13 5 -30 10.5t-29 5.5q-15 0 -22.5 -8t-7.5 -26h-110q0 77 34.5 113.5z" />
    <glyph glyph-name="utilde" unicode="&#x169;" 
d="M246 172q16 -24 57 -24q42 0 61.5 27t19.5 67v278h188v-520h-184v67q-29 -36 -69.5 -57.5t-91.5 -21.5q-84 0 -134.5 53.5t-50.5 172.5v306h188v-282q0 -42 16 -66zM142.5 695.5q34.5 36.5 87.5 36.5q27 0 50.5 -8.5t26.5 -9.5q13 -5 30 -10.5t29 -5.5q15 0 22.5 8
t7.5 26h110q0 -77 -34.5 -113.5t-87.5 -36.5q-27 0 -50.5 8.5t-26.5 9.5q-13 5 -30 10.5t-29 5.5q-15 0 -22.5 -8t-7.5 -26h-110q0 77 34.5 113.5z" />
    <glyph glyph-name="Ubreve" unicode="&#x16c;" horiz-adv-x="728" 
d="M199 21q-73 33 -115 98.5t-42 159.5v441h204v-441q0 -56 31.5 -86t86.5 -30t86.5 30t31.5 86v441h204v-441q0 -94 -42 -159.5t-115 -98.5t-165 -33t-165 33zM236 801.5q-51 39.5 -64 112.5h134q6 -47 58 -47t58 47h134q-13 -73 -64 -112.5t-128 -39.5t-128 39.5z" />
    <glyph glyph-name="ubreve" unicode="&#x16d;" 
d="M246 172q16 -24 57 -24q42 0 61.5 27t19.5 67v278h188v-520h-184v67q-29 -36 -69.5 -57.5t-91.5 -21.5q-84 0 -134.5 53.5t-50.5 172.5v306h188v-282q0 -42 16 -66zM179 619.5q-51 39.5 -64 112.5h134q6 -47 58 -47t58 47h134q-13 -73 -64 -112.5t-128 -39.5t-128 39.5z
" />
    <glyph glyph-name="Uring" unicode="&#x16e;" horiz-adv-x="728" 
d="M199 21q-73 33 -115 98.5t-42 159.5v441h165q-9 26 -9 54q0 45 22 80.5t60 55.5t84 20t84 -20t60 -55.5t22 -80.5q0 -28 -9 -54h165v-441q0 -94 -42 -159.5t-115 -98.5t-165 -33t-165 33zM277.5 193q31.5 -30 86.5 -30t86.5 30t31.5 86v383q-23 -21 -53.5 -32.5
t-64.5 -11.5t-64.5 11.5t-53.5 32.5v-383q0 -56 31.5 -86zM324.5 735q15.5 -15 39.5 -15t39.5 15t15.5 39t-15.5 39t-39.5 15t-39.5 -15t-15.5 -39t15.5 -39z" />
    <glyph glyph-name="uring" unicode="&#x16f;" 
d="M246 172q16 -24 57 -24q42 0 61.5 27t19.5 67v278h188v-520h-184v67q-29 -36 -69.5 -57.5t-91.5 -21.5q-84 0 -134.5 53.5t-50.5 172.5v306h188v-282q0 -42 16 -66zM223 600q-38 20 -60 55.5t-22 80.5t22 80.5t60 55.5t84 20t84 -20t60 -55.5t22 -80.5t-22 -80.5
t-60 -55.5t-84 -20t-84 20zM267.5 697q15.5 -15 39.5 -15t39.5 15t15.5 39t-15.5 39t-39.5 15t-39.5 -15t-15.5 -39t15.5 -39z" />
    <glyph glyph-name="Uogonek" unicode="&#x172;" horiz-adv-x="728" 
d="M282 -188.5q-40 23.5 -40 74.5q0 27 19 55t56 49q-123 13 -199 87t-76 202v441h204v-441q0 -56 31.5 -86t86.5 -30t86.5 30t31.5 86v441h204v-441q0 -112 -59 -183.5t-159 -95.5q-52 -24 -72 -43.5t-20 -39.5q0 -17 13.5 -25t36.5 -8q21 0 42 6v-92q-33 -10 -80 -10
q-66 0 -106 23.5z" />
    <glyph glyph-name="uogonek" unicode="&#x173;" 
d="M246 172q16 -24 57 -24q42 0 61.5 27t19.5 67v278h188v-520q-52 -24 -72 -43.5t-20 -39.5q0 -17 13.5 -25t36.5 -8q21 0 42 6v-92q-33 -10 -80 -10q-66 0 -106 23.5t-40 74.5q0 30 24 62t70 52h-52v67q-29 -36 -69.5 -57.5t-91.5 -21.5q-84 0 -134.5 53.5t-50.5 172.5
v306h188v-282q0 -42 16 -66z" />
    <glyph glyph-name="Wcircumflex" unicode="&#x174;" horiz-adv-x="1024" 
d="M512 439l-86 -439h-230l-198 720h216l108 -481l89 481h202l89 -481l108 481h216l-198 -720h-230zM738 768h-162l-64 62l-64 -62h-162l129 146h194z" />
    <glyph glyph-name="wcircumflex" unicode="&#x175;" horiz-adv-x="904" 
d="M452 291l-79 -291h-198l-173 520h202l86 -303l76 303h172l76 -303l86 303h202l-173 -520h-198zM678 586h-162l-64 62l-64 -62h-162l129 146h194z" />
    <glyph glyph-name="Ycircumflex" unicode="&#x176;" horiz-adv-x="742" 
d="M274 275l-276 445h234l144 -257l144 257h224l-266 -441v-279h-204v275zM602 768h-162l-64 62l-64 -62h-162l129 146h194z" />
    <glyph glyph-name="ycircumflex" unicode="&#x177;" horiz-adv-x="596" 
d="M32 -54h90q35 0 50 8t26 31l-196 535h202l98 -360l90 360h202l-190 -538q-32 -90 -85 -136t-148 -46h-139v146zM524 586h-162l-64 62l-64 -62h-162l129 146h194z" />
    <glyph glyph-name="Ydieresis" unicode="&#x178;" horiz-adv-x="742" 
d="M274 275l-276 445h234l144 -257l144 257h224l-266 -441v-279h-204v275zM163 908h188v-140h-188v140zM401 908h188v-140h-188v140z" />
    <glyph glyph-name="Zacute" unicode="&#x179;" horiz-adv-x="672" 
d="M28 160l340 381l-190 -3h-140v182h602v-152l-347 -389l197 3h154v-182h-616v160zM365 914h196l-149 -146h-146z" />
    <glyph glyph-name="zacute" unicode="&#x17a;" horiz-adv-x="546" 
d="M38 118l230 264h-230v138h460v-118l-230 -264h240v-138h-470v118zM299 732h196l-149 -146h-146z" />
    <glyph glyph-name="Zdotaccent" unicode="&#x17b;" horiz-adv-x="672" 
d="M28 160l340 381l-190 -3h-140v182h602v-152l-347 -389l197 3h154v-182h-616v160zM245 908h188v-140h-188v140z" />
    <glyph glyph-name="zdotaccent" unicode="&#x17c;" horiz-adv-x="546" 
d="M38 118l230 264h-230v138h460v-118l-230 -264h240v-138h-470v118zM179 720h188v-140h-188v140z" />
    <glyph glyph-name="Zcaron" unicode="&#x17d;" horiz-adv-x="672" 
d="M28 160l340 381l-190 -3h-140v182h602v-152l-347 -389l197 3h154v-182h-616v160zM113 914h162l64 -62l64 62h162l-129 -146h-194z" />
    <glyph glyph-name="zcaron" unicode="&#x17e;" horiz-adv-x="546" 
d="M38 118l230 264h-230v138h460v-118l-230 -264h240v-138h-470v118zM47 732h162l64 -62l64 62h162l-129 -146h-194z" />
    <glyph glyph-name="uni01CD" unicode="&#x1cd;" horiz-adv-x="758" 
d="M512 100h-276l-32 -100h-206l253 720h246l263 -720h-216zM458 268l-84 262l-84 -262h168zM148 914h162l64 -62l64 62h162l-129 -146h-194z" />
    <glyph glyph-name="uni01CE" unicode="&#x1ce;" horiz-adv-x="583" 
d="M373 51q-31 -34 -70 -48.5t-93 -14.5q-84 0 -138 43t-54 120q0 47 21 77.5t68 50t129 32.5l133 21v14q0 24 -13 39t-53 15q-34 0 -51 -16.5t-17 -37.5h-186q0 88 69 137t183 49q124 0 188 -43t64 -120v-369h-180v51zM226 123q17 -13 47 -13q43 0 69.5 20.5t26.5 64.5v31
l-93 -18q-37 -7 -52 -17.5t-15 -32.5t17 -35zM75 732h162l64 -62l64 62h162l-129 -146h-194z" />
    <glyph glyph-name="uni01CF" unicode="&#x1cf;" horiz-adv-x="308" 
d="M52 720h204v-720h-204v720zM-72 914h162l64 -62l64 62h162l-129 -146h-194z" />
    <glyph glyph-name="uni01D0" unicode="&#x1d0;" horiz-adv-x="272" 
d="M42 520h188v-520h-188v520zM-90 732h162l64 -62l64 62h162l-129 -146h-194z" />
    <glyph glyph-name="uni01D1" unicode="&#x1d1;" horiz-adv-x="796" 
d="M195.5 37q-85.5 49 -129.5 134t-44 189t44 189t129.5 134t202.5 49t202.5 -49t129.5 -134t44 -189t-44 -189t-129.5 -134t-202.5 -49t-202.5 49zM273.5 220.5q39.5 -54.5 124.5 -54.5t124.5 54.5t39.5 139.5t-39.5 139.5t-124.5 54.5t-124.5 -54.5t-39.5 -139.5
t39.5 -139.5zM172 926h162l64 -62l64 62h162l-129 -146h-194z" />
    <glyph glyph-name="uni01D2" unicode="&#x1d2;" horiz-adv-x="604" 
d="M149.5 23.5q-63.5 35.5 -95.5 97t-32 139.5t32 139.5t95.5 97t152.5 35.5t152.5 -35.5t95.5 -97t32 -139.5t-32 -139.5t-95.5 -97t-152.5 -35.5t-152.5 35.5zM231.5 167.5q21.5 -31.5 70.5 -31.5t70.5 31.5t21.5 92.5t-21.5 92.5t-70.5 31.5t-70.5 -31.5t-21.5 -92.5
t21.5 -92.5zM76 732h162l64 -62l64 62h162l-129 -146h-194z" />
    <glyph glyph-name="uni01D3" unicode="&#x1d3;" horiz-adv-x="728" 
d="M199 21q-73 33 -115 98.5t-42 159.5v441h204v-441q0 -56 31.5 -86t86.5 -30t86.5 30t31.5 86v441h204v-441q0 -94 -42 -159.5t-115 -98.5t-165 -33t-165 33zM138 914h162l64 -62l64 62h162l-129 -146h-194z" />
    <glyph glyph-name="uni01D4" unicode="&#x1d4;" 
d="M246 172q16 -24 57 -24q42 0 61.5 27t19.5 67v278h188v-520h-184v67q-29 -36 -69.5 -57.5t-91.5 -21.5q-84 0 -134.5 53.5t-50.5 172.5v306h188v-282q0 -42 16 -66zM81 732h162l64 -62l64 62h162l-129 -146h-194z" />
    <glyph glyph-name="Gcaron" unicode="&#x1e6;" horiz-adv-x="802" 
d="M182.5 37.5q-76.5 49.5 -118.5 134.5t-42 188q0 104 44 189t129.5 134t202.5 49q97 0 172 -33.5t121 -93t59 -136.5h-208q-18 41 -54 64.5t-90 23.5q-84 0 -124 -55.5t-40 -141.5t40 -141.5t124 -55.5q104 0 146 93h-176v156h392v-412h-140v122q-76 -134 -262 -134
q-99 0 -175.5 49.5zM172 926h162l64 -62l64 62h162l-129 -146h-194z" />
    <glyph glyph-name="gcaron" unicode="&#x1e7;" horiz-adv-x="615" 
d="M102.5 -159.5q-65.5 52.5 -67.5 143.5h184q1 -29 22 -43.5t55 -14.5q38 0 63.5 19.5t25.5 67.5v67q-51 -59 -143 -59q-70 0 -119.5 33t-75 91t-25.5 131q0 74 25.5 132t75 91t119.5 33q96 0 147 -64v52h184v-507q0 -72 -37.5 -123t-102.5 -76.5t-147 -25.5
q-118 0 -183.5 52.5zM232 189.5q21 -29.5 67 -29.5t67 29.5t21 86.5q0 58 -21 87.5t-67 29.5t-67 -29.5t-21 -87.5q0 -57 21 -86.5zM72 732h162l64 -62l64 62h162l-129 -146h-194z" />
    <glyph glyph-name="uni01E8" unicode="&#x1e8;" horiz-adv-x="766" 
d="M52 720h204v-293l264 293h248l-282 -291l282 -429h-242l-178 286l-92 -95v-191h-204v720zM162 914h162l64 -62l64 62h162l-129 -146h-194z" />
    <glyph glyph-name="uni01E9" unicode="&#x1e9;" horiz-adv-x="618" 
d="M42 720h184v-377l170 177h212l-192 -194l200 -326h-214l-114 197l-62 -63v-134h-184v720zM-92 914h162l64 -62l64 62h162l-129 -146h-194z" />
    <glyph glyph-name="uni01EA" unicode="&#x1ea;" horiz-adv-x="796" 
d="M522.5 220.5q39.5 54.5 39.5 139.5t-39.5 139.5t-124.5 54.5t-124.5 -54.5t-39.5 -139.5t39.5 -139.5t124.5 -54.5t124.5 54.5zM66 549q44 85 129.5 134t202.5 49t202.5 -49t129.5 -134t44 -189q0 -88 -31.5 -162.5t-92.5 -126t-147 -71.5q-51 -24 -71 -43.5t-20 -39.5
q0 -17 13.5 -25t36.5 -8q21 0 42 6v-92q-33 -10 -80 -10q-66 0 -106 23.5t-40 74.5q0 27 19 55t55 49q-104 10 -178.5 60.5t-113 131t-38.5 178.5q0 104 44 189z" />
    <glyph glyph-name="uni01EB" unicode="&#x1eb;" horiz-adv-x="604" 
d="M372.5 167.5q21.5 31.5 21.5 92.5t-21.5 92.5t-70.5 31.5t-70.5 -31.5t-21.5 -92.5t21.5 -92.5t70.5 -31.5t70.5 31.5zM54 399.5q32 61.5 95.5 97t152.5 35.5t152.5 -35.5t95.5 -97t32 -139.5q0 -96 -48.5 -166t-138.5 -94q-51 -24 -71 -43.5t-20 -39.5q0 -17 13.5 -25
t36.5 -8q21 0 42 6v-92q-33 -10 -80 -10q-66 0 -106 23.5t-40 74.5q0 27 19.5 56t57.5 50q-108 15 -166.5 88t-58.5 180q0 78 32 139.5z" />
    <glyph glyph-name="uni01F4" unicode="&#x1f4;" horiz-adv-x="802" 
d="M182.5 37.5q-76.5 49.5 -118.5 134.5t-42 188q0 104 44 189t129.5 134t202.5 49q97 0 172 -33.5t121 -93t59 -136.5h-208q-18 41 -54 64.5t-90 23.5q-84 0 -124 -55.5t-40 -141.5t40 -141.5t124 -55.5q104 0 146 93h-176v156h392v-412h-140v122q-76 -134 -262 -134
q-99 0 -175.5 49.5zM424 926h196l-149 -146h-146z" />
    <glyph glyph-name="uni01F5" unicode="&#x1f5;" horiz-adv-x="615" 
d="M102.5 -159.5q-65.5 52.5 -67.5 143.5h184q1 -29 22 -43.5t55 -14.5q38 0 63.5 19.5t25.5 67.5v67q-51 -59 -143 -59q-70 0 -119.5 33t-75 91t-25.5 131q0 74 25.5 132t75 91t119.5 33q96 0 147 -64v52h184v-507q0 -72 -37.5 -123t-102.5 -76.5t-147 -25.5
q-118 0 -183.5 52.5zM232 189.5q21 -29.5 67 -29.5t67 29.5t21 86.5q0 58 -21 87.5t-67 29.5t-67 -29.5t-21 -87.5q0 -57 21 -86.5zM324 732h196l-149 -146h-146z" />
    <glyph glyph-name="uni01F8" unicode="&#x1f8;" horiz-adv-x="756" 
d="M246 427v-427h-194v720h216l242 -427v427h194v-720h-216zM305 768l-149 146h196l99 -146h-146z" />
    <glyph glyph-name="uni01F9" unicode="&#x1f9;" 
d="M368 348q-16 24 -57 24q-42 0 -61.5 -27t-19.5 -67v-278h-188v520h184v-67q29 36 69.5 57.5t91.5 21.5q84 0 134.5 -53.5t50.5 -172.5v-306h-188v282q0 42 -16 66zM234 586l-149 146h196l99 -146h-146z" />
    <glyph glyph-name="uni0226" unicode="&#x226;" horiz-adv-x="758" 
d="M512 100h-276l-32 -100h-206l253 720h246l263 -720h-216zM458 268l-84 262l-84 -262h168zM280 908h188v-140h-188v140z" />
    <glyph glyph-name="uni0227" unicode="&#x227;" horiz-adv-x="583" 
d="M373 51q-31 -34 -70 -48.5t-93 -14.5q-84 0 -138 43t-54 120q0 47 21 77.5t68 50t129 32.5l133 21v14q0 24 -13 39t-53 15q-34 0 -51 -16.5t-17 -37.5h-186q0 88 69 137t183 49q124 0 188 -43t64 -120v-369h-180v51zM226 123q17 -13 47 -13q43 0 69.5 20.5t26.5 64.5v31
l-93 -18q-37 -7 -52 -17.5t-15 -32.5t17 -35zM207 720h188v-140h-188v140z" />
    <glyph glyph-name="uni0228" unicode="&#x228;" horiz-adv-x="648" 
d="M52 720h568v-182h-364v-92h336v-170h-336v-94h364v-182h-246l-42 -44h11q58 0 91.5 -21t33.5 -59q0 -43 -42 -71.5t-127 -28.5q-42 0 -75 8v62q33 -6 57 -6q65 0 65 36q0 35 -57 35q-20 0 -30 -2v40l39 51h-246v720z" />
    <glyph glyph-name="uni0229" unicode="&#x229;" horiz-adv-x="600" 
d="M188 -228v62q33 -6 57 -6q65 0 65 36q0 35 -57 35q-20 0 -30 -2v40l41 53q-77 7 -131.5 43.5t-82.5 95t-28 131.5q0 78 32 139.5t95 97t151 35.5q136 0 207 -77t71 -220v-30h-376q10 -41 35 -62t63 -21q37 0 58 9.5t35 29.5h177q-24 -72 -83 -117t-147 -54l-44 -46h11
q58 0 91.5 -21t33.5 -59q0 -43 -42 -71.5t-127 -28.5q-42 0 -75 8zM397 317q-10 39 -35 60t-62 21t-62 -21t-35 -60h194z" />
    <glyph glyph-name="uni022E" unicode="&#x22e;" horiz-adv-x="796" 
d="M195.5 37q-85.5 49 -129.5 134t-44 189t44 189t129.5 134t202.5 49t202.5 -49t129.5 -134t44 -189t-44 -189t-129.5 -134t-202.5 -49t-202.5 49zM273.5 220.5q39.5 -54.5 124.5 -54.5t124.5 54.5t39.5 139.5t-39.5 139.5t-124.5 54.5t-124.5 -54.5t-39.5 -139.5
t39.5 -139.5zM304 920h188v-140h-188v140z" />
    <glyph glyph-name="uni022F" unicode="&#x22f;" horiz-adv-x="604" 
d="M149.5 23.5q-63.5 35.5 -95.5 97t-32 139.5t32 139.5t95.5 97t152.5 35.5t152.5 -35.5t95.5 -97t32 -139.5t-32 -139.5t-95.5 -97t-152.5 -35.5t-152.5 35.5zM231.5 167.5q21.5 -31.5 70.5 -31.5t70.5 31.5t21.5 92.5t-21.5 92.5t-70.5 31.5t-70.5 -31.5t-21.5 -92.5
t21.5 -92.5zM208 720h188v-140h-188v140z" />
    <glyph glyph-name="uni0237" unicode="&#x237;" horiz-adv-x="278" 
d="M211 -145q-25 -34 -62.5 -44.5t-89.5 -10.5h-121v132h66q26 0 35 9.5t9 31.5v547h188v-565q0 -66 -25 -100z" />
    <glyph glyph-name="circumflex" unicode="&#x2c6;" horiz-adv-x="452" 
d="M452 586h-162l-64 62l-64 -62h-162l129 146h194z" />
    <glyph glyph-name="caron" unicode="&#x2c7;" horiz-adv-x="452" 
d="M0 732h162l64 -62l64 62h162l-129 -146h-194z" />
    <glyph glyph-name="breve" unicode="&#x2d8;" horiz-adv-x="384" 
d="M64 619.5q-51 39.5 -64 112.5h134q6 -47 58 -47t58 47h134q-13 -73 -64 -112.5t-128 -39.5t-128 39.5z" />
    <glyph glyph-name="dotaccent" unicode="&#x2d9;" horiz-adv-x="188" 
d="M0 720h188v-140h-188v140z" />
    <glyph glyph-name="ring" unicode="&#x2da;" horiz-adv-x="332" 
d="M82 600q-38 20 -60 55.5t-22 80.5t22 80.5t60 55.5t84 20t84 -20t60 -55.5t22 -80.5t-22 -80.5t-60 -55.5t-84 -20t-84 20zM126.5 697q15.5 -15 39.5 -15t39.5 15t15.5 39t-15.5 39t-39.5 15t-39.5 -15t-15.5 -39t15.5 -39z" />
    <glyph glyph-name="ogonek" unicode="&#x2db;" horiz-adv-x="224" 
d="M40 -188.5q-40 23.5 -40 74.5q0 33 28 66.5t81 53.5h108l9 -6q-52 -24 -72 -43.5t-20 -39.5q0 -17 13.5 -25t36.5 -8q21 0 42 6v-92q-33 -10 -80 -10q-66 0 -106 23.5z" />
    <glyph glyph-name="tilde" unicode="&#x2dc;" horiz-adv-x="398" 
d="M34.5 695.5q34.5 36.5 87.5 36.5q27 0 50.5 -8.5t26.5 -9.5q13 -5 30 -10.5t29 -5.5q15 0 22.5 8t7.5 26h110q0 -77 -34.5 -113.5t-87.5 -36.5q-27 0 -50.5 8.5t-26.5 9.5q-13 5 -30 10.5t-29 5.5q-15 0 -22.5 -8t-7.5 -26h-110q0 77 34.5 113.5z" />
    <glyph glyph-name="gravecomb" unicode="&#x300;" horiz-adv-x="0" 
d="M149 586l-149 146h196l99 -146h-146z" />
    <glyph glyph-name="acutecomb" unicode="&#x301;" horiz-adv-x="0" 
d="M99 732h196l-149 -146h-146z" />
    <glyph glyph-name="uni0302" unicode="&#x302;" horiz-adv-x="0" 
d="M452 586h-162l-64 62l-64 -62h-162l129 146h194z" />
    <glyph glyph-name="tildecomb" unicode="&#x303;" horiz-adv-x="0" 
d="M34.5 695.5q34.5 36.5 87.5 36.5q27 0 50.5 -8.5t26.5 -9.5q13 -5 30 -10.5t29 -5.5q15 0 22.5 8t7.5 26h110q0 -77 -34.5 -113.5t-87.5 -36.5q-27 0 -50.5 8.5t-26.5 9.5q-13 5 -30 10.5t-29 5.5q-15 0 -22.5 -8t-7.5 -26h-110q0 77 34.5 113.5z" />
    <glyph glyph-name="uni0306" unicode="&#x306;" horiz-adv-x="0" 
d="M64 619.5q-51 39.5 -64 112.5h134q6 -47 58 -47t58 47h134q-13 -73 -64 -112.5t-128 -39.5t-128 39.5z" />
    <glyph glyph-name="uni0307" unicode="&#x307;" horiz-adv-x="0" 
d="M0 720h188v-140h-188v140z" />
    <glyph glyph-name="uni0308" unicode="&#x308;" horiz-adv-x="0" 
d="M0 720h188v-140h-188v140zM238 720h188v-140h-188v140z" />
    <glyph glyph-name="uni030A" unicode="&#x30a;" horiz-adv-x="0" 
d="M82 600q-38 20 -60 55.5t-22 80.5t22 80.5t60 55.5t84 20t84 -20t60 -55.5t22 -80.5t-22 -80.5t-60 -55.5t-84 -20t-84 20zM126.5 697q15.5 -15 39.5 -15t39.5 15t15.5 39t-15.5 39t-39.5 15t-39.5 -15t-15.5 -39t15.5 -39z" />
    <glyph glyph-name="uni030C" unicode="&#x30c;" horiz-adv-x="0" 
d="M0 732h162l64 -62l64 62h162l-129 -146h-194z" />
    <glyph glyph-name="dotbelowcomb" unicode="&#x323;" horiz-adv-x="0" 
d="M0 -60h188v-140h-188v140z" />
    <glyph glyph-name="uni0327" unicode="&#x327;" horiz-adv-x="0" 
d="M0 -216v62q33 -6 57 -6q65 0 65 36q0 35 -57 35q-20 0 -30 -2v40l44 57h77l-48 -50h11q58 0 91.5 -21t33.5 -59q0 -43 -42 -71.5t-127 -28.5q-42 0 -75 8z" />
    <glyph glyph-name="uni0328" unicode="&#x328;" horiz-adv-x="0" 
d="M40 -188.5q-40 23.5 -40 74.5q0 33 28 66.5t81 53.5h108l9 -6q-52 -24 -72 -43.5t-20 -39.5q0 -17 13.5 -25t36.5 -8q21 0 42 6v-92q-33 -10 -80 -10q-66 0 -106 23.5z" />
    <glyph glyph-name="uni1E02" unicode="&#x1e02;" horiz-adv-x="704" 
d="M52 720h319q139 0 212 -47t73 -138q0 -102 -92 -150q59 -27 90.5 -71.5t31.5 -98.5q0 -215 -285 -215h-349v720zM396 162q39 0 58.5 15t19.5 48t-19.5 48t-58.5 15h-140v-126h140zM374 440q78 0 78 59t-78 59h-118v-118h118zM255 908h188v-140h-188v140z" />
    <glyph glyph-name="uni1E03" unicode="&#x1e03;" horiz-adv-x="615" 
d="M42 720h188v-251q50 63 143 63q70 0 119.5 -35.5t75 -97t25.5 -139.5t-25.5 -139.5t-75 -97t-119.5 -35.5q-97 0 -148 70v-58h-183v720zM249 167.5q21 -31.5 67 -31.5t67 31.5t21 92.5t-21 92.5t-67 31.5t-67 -31.5t-21 -92.5t21 -92.5zM42 908h188v-140h-188v140z" />
    <glyph glyph-name="uni1E0A" unicode="&#x1e0a;" horiz-adv-x="760" 
d="M52 720h310q127 0 211 -46t124.5 -127t40.5 -187t-40.5 -187t-124.5 -127t-211 -46h-310v720zM362 172q85 0 124.5 51.5t39.5 136.5t-39.5 136.5t-124.5 51.5h-106v-376h106zM268 908h188v-140h-188v140z" />
    <glyph glyph-name="uni1E0B" unicode="&#x1e0b;" horiz-adv-x="615" 
d="M390 0v58q-51 -70 -148 -70q-70 0 -119.5 35.5t-75 97t-25.5 139.5t25.5 139.5t75 97t119.5 35.5q93 0 143 -63v251h188v-720h-183zM232 167.5q21 -31.5 67 -31.5t67 31.5t21 92.5t-21 92.5t-67 31.5t-67 -31.5t-21 -92.5t21 -92.5zM385 908h188v-140h-188v140z" />
    <glyph glyph-name="uni1E1E" unicode="&#x1e1e;" horiz-adv-x="612" 
d="M52 720h548v-182h-344v-92h326v-170h-326v-276h-204v720zM232 908h188v-140h-188v140z" />
    <glyph glyph-name="uni1E1F" unicode="&#x1e1f;" horiz-adv-x="426" 
d="M121 665q25 34 62.5 44.5t89.5 10.5h131v-132h-76q-26 0 -35 -9.5t-9 -31.5v-27h120v-132h-120v-388h-188v388h-84v132h84v45q0 66 25 100zM156 920h188v-140h-188v140z" />
    <glyph glyph-name="uni1E22" unicode="&#x1e22;" horiz-adv-x="756" 
d="M500 276h-244v-276h-204v720h204v-262h244v262h204v-720h-204v276zM284 908h188v-140h-188v140z" />
    <glyph glyph-name="uni1E23" unicode="&#x1e23;" 
d="M42 720h188v-262q62 74 157 74q84 0 134.5 -53.5t50.5 -172.5v-306h-188v282q0 42 -16 66t-57 24q-42 0 -61.5 -27t-19.5 -67v-278h-188v720zM42 908h188v-140h-188v140z" />
    <glyph glyph-name="uni1E28" unicode="&#x1e28;" horiz-adv-x="756" 
d="M500 276h-244v-276h-64l-42 -44h11q58 0 91.5 -21t33.5 -59q0 -43 -42 -71.5t-127 -28.5q-42 0 -75 8v62q33 -6 57 -6q65 0 65 36q0 35 -57 35q-20 0 -30 -2v40l39 51h-64v720h204v-262h244v262h204v-720h-204v276z" />
    <glyph glyph-name="uni1E29" unicode="&#x1e29;" 
d="M42 720h188v-262q62 74 157 74q84 0 134.5 -53.5t50.5 -172.5v-306h-188v282q0 42 -16 66t-57 24q-42 0 -61.5 -27t-19.5 -67v-278h-56l-42 -44h11q58 0 91.5 -21t33.5 -59q0 -43 -42 -71.5t-127 -28.5q-42 0 -75 8v62q33 -6 57 -6q65 0 65 36q0 35 -57 35q-20 0 -30 -2
v40l39 51h-56v720z" />
    <glyph glyph-name="uni1E30" unicode="&#x1e30;" horiz-adv-x="766" 
d="M52 720h204v-293l264 293h248l-282 -291l282 -429h-242l-178 286l-92 -95v-191h-204v720zM414 914h196l-149 -146h-146z" />
    <glyph glyph-name="uni1E31" unicode="&#x1e31;" horiz-adv-x="618" 
d="M42 720h184v-377l170 177h212l-192 -194l200 -326h-214l-114 197l-62 -63v-134h-184v720zM160 914h196l-149 -146h-146z" />
    <glyph glyph-name="uni1E3E" unicode="&#x1e3e;" horiz-adv-x="934" 
d="M246 502v-502h-194v720h312l103 -412l103 412h312v-720h-194v502l-138 -502h-166zM493 914h196l-149 -146h-146z" />
    <glyph glyph-name="uni1E3F" unicode="&#x1e3f;" horiz-adv-x="924" 
d="M630 372q-74 0 -74 -94v-278h-188v282q0 90 -64 90q-74 0 -74 -94v-278h-188v520h184v-74q60 86 154 86q50 0 89.5 -22.5t61.5 -71.5q33 43 77.5 68.5t97.5 25.5q77 0 126.5 -54t49.5 -172v-306h-188v282q0 90 -64 90zM488 732h196l-149 -146h-146z" />
    <glyph glyph-name="uni1E40" unicode="&#x1e40;" horiz-adv-x="934" 
d="M246 502v-502h-194v720h312l103 -412l103 412h312v-720h-194v502l-138 -502h-166zM373 908h188v-140h-188v140z" />
    <glyph glyph-name="uni1E41" unicode="&#x1e41;" horiz-adv-x="924" 
d="M630 372q-74 0 -74 -94v-278h-188v282q0 90 -64 90q-74 0 -74 -94v-278h-188v520h184v-74q60 86 154 86q50 0 89.5 -22.5t61.5 -71.5q33 43 77.5 68.5t97.5 25.5q77 0 126.5 -54t49.5 -172v-306h-188v282q0 90 -64 90zM368 720h188v-140h-188v140z" />
    <glyph glyph-name="uni1E44" unicode="&#x1e44;" horiz-adv-x="756" 
d="M246 427v-427h-194v720h216l242 -427v427h194v-720h-216zM284 908h188v-140h-188v140z" />
    <glyph glyph-name="uni1E45" unicode="&#x1e45;" 
d="M368 348q-16 24 -57 24q-42 0 -61.5 -27t-19.5 -67v-278h-188v520h184v-67q29 36 69.5 57.5t91.5 21.5q84 0 134.5 -53.5t50.5 -172.5v-306h-188v282q0 42 -16 66zM213 720h188v-140h-188v140z" />
    <glyph glyph-name="uni1E56" unicode="&#x1e56;" horiz-adv-x="685" 
d="M52 720h326q90 0 154.5 -31.5t97.5 -88t33 -130.5t-33 -130.5t-97.5 -88t-154.5 -31.5h-122v-220h-204v720zM362 392q49 0 73.5 17.5t24.5 60.5t-24.5 60.5t-73.5 17.5h-106v-156h106zM259 908h188v-140h-188v140z" />
    <glyph glyph-name="uni1E57" unicode="&#x1e57;" horiz-adv-x="615" 
d="M225 520v-58q51 70 148 70q70 0 119.5 -35.5t75 -97t25.5 -139.5t-25.5 -139.5t-75 -97t-119.5 -35.5q-93 0 -143 63v-251h-188v720h183zM249 167.5q21 -31.5 67 -31.5t67 31.5t21 92.5t-21 92.5t-67 31.5t-67 -31.5t-21 -92.5t21 -92.5zM224 720h188v-140h-188v140z" />
    <glyph glyph-name="uni1E58" unicode="&#x1e58;" horiz-adv-x="707" 
d="M52 720h356q132 0 198.5 -60.5t66.5 -159.5q0 -57 -28.5 -102t-80.5 -78q47 -25 69.5 -61.5t30.5 -88.5l25 -170h-208l-22 150q-8 50 -31 75t-68 25h-104v-250h-204v720zM365 400q49 0 73.5 18.5t24.5 61.5t-24.5 61.5t-73.5 18.5h-109v-160h109zM263 908h188v-140h-188
v140z" />
    <glyph glyph-name="uni1E59" unicode="&#x1e59;" horiz-adv-x="436" 
d="M42 520h184v-94q40 100 144 100h44v-169h-54q-68 0 -99 -33t-31 -112v-212h-188v520zM134 720h188v-140h-188v140z" />
    <glyph glyph-name="uni1E60" unicode="&#x1e60;" horiz-adv-x="677" 
d="M163 20q-72 32 -109 89t-36 132h196q1 -58 36 -77.5t98 -19.5q46 0 73.5 16.5t27.5 44.5q0 17 -10.5 28.5t-42.5 22.5t-94 20q-145 21 -209.5 78.5t-64.5 156.5q0 63 35 113t103 79t162 29q140 0 220.5 -62.5t86.5 -185.5h-192q-2 48 -31 70t-84 22q-42 0 -67 -15
t-25 -41t29 -43.5t107 -28.5q107 -15 170 -44t90 -74t27 -110q0 -115 -89 -173.5t-232 -58.5q-103 0 -175 32zM244 920h188v-140h-188v140z" />
    <glyph glyph-name="uni1E61" unicode="&#x1e61;" horiz-adv-x="548" 
d="M84 30q-66 42 -72 142h178q5 -38 28 -52.5t66 -14.5q27 0 47 10t20 27q0 13 -7.5 21t-30.5 15.5t-71 15.5q-123 22 -173.5 61.5t-50.5 107.5q0 82 66 125.5t184 43.5q126 0 187 -50t65 -134h-168q-2 67 -84 67q-31 0 -49.5 -10.5t-18.5 -28.5q0 -19 23.5 -29.5
t93.5 -20.5q121 -17 170 -59t49 -112q0 -81 -71 -124t-191 -43q-124 0 -190 42zM180 720h188v-140h-188v140z" />
    <glyph glyph-name="uni1E6A" unicode="&#x1e6a;" horiz-adv-x="646" 
d="M221 538h-211v182h626v-182h-211v-538h-204v538zM229 908h188v-140h-188v140z" />
    <glyph glyph-name="uni1E6B" unicode="&#x1e6b;" horiz-adv-x="426" 
d="M284 680v-160h120v-132h-120v-215q0 -22 9 -31.5t35 -9.5h76v-132h-131q-52 0 -89.5 10.5t-62.5 44.5t-25 100v233h-84v132h84v160h188zM96 880h188v-140h-188v140z" />
    <glyph glyph-name="uni1E7C" unicode="&#x1e7c;" horiz-adv-x="756" 
d="M-2 720h218l166 -545l158 545h218l-258 -720h-244zM213.5 881.5q34.5 36.5 87.5 36.5q27 0 50.5 -8.5t26.5 -9.5q13 -5 30 -10.5t29 -5.5q15 0 22.5 8t7.5 26h110q0 -77 -34.5 -113.5t-87.5 -36.5q-27 0 -50.5 8.5t-26.5 9.5q-13 5 -30 10.5t-29 5.5q-15 0 -22.5 -8
t-7.5 -26h-110q0 77 34.5 113.5z" />
    <glyph glyph-name="uni1E7D" unicode="&#x1e7d;" horiz-adv-x="596" 
d="M2 520h202l97 -359l91 359h202l-183 -520h-226zM133.5 695.5q34.5 36.5 87.5 36.5q27 0 50.5 -8.5t26.5 -9.5q13 -5 30 -10.5t29 -5.5q15 0 22.5 8t7.5 26h110q0 -77 -34.5 -113.5t-87.5 -36.5q-27 0 -50.5 8.5t-26.5 9.5q-13 5 -30 10.5t-29 5.5q-15 0 -22.5 -8
t-7.5 -26h-110q0 77 34.5 113.5z" />
    <glyph glyph-name="Wgrave" unicode="&#x1e80;" horiz-adv-x="1024" 
d="M512 439l-86 -439h-230l-198 720h216l108 -481l89 481h202l89 -481l108 481h216l-198 -720h-230zM439 768l-149 146h196l99 -146h-146z" />
    <glyph glyph-name="wgrave" unicode="&#x1e81;" horiz-adv-x="904" 
d="M452 291l-79 -291h-198l-173 520h202l86 -303l76 303h172l76 -303l86 303h202l-173 -520h-198zM379 586l-149 146h196l99 -146h-146z" />
    <glyph glyph-name="Wacute" unicode="&#x1e82;" horiz-adv-x="1024" 
d="M512 439l-86 -439h-230l-198 720h216l108 -481l89 481h202l89 -481l108 481h216l-198 -720h-230zM538 914h196l-149 -146h-146z" />
    <glyph glyph-name="wacute" unicode="&#x1e83;" horiz-adv-x="904" 
d="M452 291l-79 -291h-198l-173 520h202l86 -303l76 303h172l76 -303l86 303h202l-173 -520h-198zM478 732h196l-149 -146h-146z" />
    <glyph glyph-name="Wdieresis" unicode="&#x1e84;" horiz-adv-x="1024" 
d="M512 439l-86 -439h-230l-198 720h216l108 -481l89 481h202l89 -481l108 481h216l-198 -720h-230zM299 908h188v-140h-188v140zM537 908h188v-140h-188v140z" />
    <glyph glyph-name="wdieresis" unicode="&#x1e85;" horiz-adv-x="904" 
d="M452 291l-79 -291h-198l-173 520h202l86 -303l76 303h172l76 -303l86 303h202l-173 -520h-198zM239 720h188v-140h-188v140zM477 720h188v-140h-188v140z" />
    <glyph glyph-name="uni1E86" unicode="&#x1e86;" horiz-adv-x="1024" 
d="M512 439l-86 -439h-230l-198 720h216l108 -481l89 481h202l89 -481l108 481h216l-198 -720h-230zM418 908h188v-140h-188v140z" />
    <glyph glyph-name="uni1E87" unicode="&#x1e87;" horiz-adv-x="904" 
d="M452 291l-79 -291h-198l-173 520h202l86 -303l76 303h172l76 -303l86 303h202l-173 -520h-198zM358 720h188v-140h-188v140z" />
    <glyph glyph-name="uni1E8A" unicode="&#x1e8a;" horiz-adv-x="708" 
d="M352 190l-124 -190h-230l239 368l-229 352h235l111 -171l111 171h230l-226 -348l241 -372h-235zM260 908h188v-140h-188v140z" />
    <glyph glyph-name="uni1E8B" unicode="&#x1e8b;" horiz-adv-x="580" 
d="M288 116l-80 -116h-208l184 267l-174 253h212l68 -99l68 99h208l-172 -250l186 -270h-212zM196 720h188v-140h-188v140z" />
    <glyph glyph-name="uni1E8E" unicode="&#x1e8e;" horiz-adv-x="742" 
d="M274 275l-276 445h234l144 -257l144 257h224l-266 -441v-279h-204v275zM282 908h188v-140h-188v140z" />
    <glyph glyph-name="uni1E8F" unicode="&#x1e8f;" horiz-adv-x="596" 
d="M32 -54h90q35 0 50 8t26 31l-196 535h202l98 -360l90 360h202l-190 -538q-32 -90 -85 -136t-148 -46h-139v146zM204 720h188v-140h-188v140z" />
    <glyph glyph-name="uni1EBC" unicode="&#x1ebc;" horiz-adv-x="648" 
d="M52 720h568v-182h-364v-92h336v-170h-336v-94h364v-182h-568v720zM171.5 881.5q34.5 36.5 87.5 36.5q27 0 50.5 -8.5t26.5 -9.5q13 -5 30 -10.5t29 -5.5q15 0 22.5 8t7.5 26h110q0 -77 -34.5 -113.5t-87.5 -36.5q-27 0 -50.5 8.5t-26.5 9.5q-13 5 -30 10.5t-29 5.5
q-15 0 -22.5 -8t-7.5 -26h-110q0 77 34.5 113.5z" />
    <glyph glyph-name="uni1EBD" unicode="&#x1ebd;" horiz-adv-x="600" 
d="M149 23.5q-63 35.5 -95 97t-32 139.5t32 139.5t95 97t151 35.5q136 0 207 -77t71 -220v-30h-376q10 -41 35 -62t63 -21q37 0 58 9.5t35 29.5h177q-26 -80 -96 -126.5t-174 -46.5q-88 0 -151 35.5zM397 317q-10 39 -35 60t-62 21t-62 -21t-35 -60h194zM135.5 695.5
q34.5 36.5 87.5 36.5q27 0 50.5 -8.5t26.5 -9.5q13 -5 30 -10.5t29 -5.5q15 0 22.5 8t7.5 26h110q0 -77 -34.5 -113.5t-87.5 -36.5q-27 0 -50.5 8.5t-26.5 9.5q-13 5 -30 10.5t-29 5.5q-15 0 -22.5 -8t-7.5 -26h-110q0 77 34.5 113.5z" />
    <glyph glyph-name="Ygrave" unicode="&#x1ef2;" horiz-adv-x="742" 
d="M274 275l-276 445h234l144 -257l144 257h224l-266 -441v-279h-204v275zM303 768l-149 146h196l99 -146h-146z" />
    <glyph glyph-name="ygrave" unicode="&#x1ef3;" horiz-adv-x="596" 
d="M32 -54h90q35 0 50 8t26 31l-196 535h202l98 -360l90 360h202l-190 -538q-32 -90 -85 -136t-148 -46h-139v146zM225 586l-149 146h196l99 -146h-146z" />
    <glyph glyph-name="uni1EF8" unicode="&#x1ef8;" horiz-adv-x="742" 
d="M274 275l-276 445h234l144 -257l144 257h224l-266 -441v-279h-204v275zM211.5 881.5q34.5 36.5 87.5 36.5q27 0 50.5 -8.5t26.5 -9.5q13 -5 30 -10.5t29 -5.5q15 0 22.5 8t7.5 26h110q0 -77 -34.5 -113.5t-87.5 -36.5q-27 0 -50.5 8.5t-26.5 9.5q-13 5 -30 10.5t-29 5.5
q-15 0 -22.5 -8t-7.5 -26h-110q0 77 34.5 113.5z" />
    <glyph glyph-name="uni1EF9" unicode="&#x1ef9;" horiz-adv-x="596" 
d="M32 -54h90q35 0 50 8t26 31l-196 535h202l98 -360l90 360h202l-190 -538q-32 -90 -85 -136t-148 -46h-139v146zM133.5 695.5q34.5 36.5 87.5 36.5q27 0 50.5 -8.5t26.5 -9.5q13 -5 30 -10.5t29 -5.5q15 0 22.5 8t7.5 26h110q0 -77 -34.5 -113.5t-87.5 -36.5
q-27 0 -50.5 8.5t-26.5 9.5q-13 5 -30 10.5t-29 5.5q-15 0 -22.5 -8t-7.5 -26h-110q0 77 34.5 113.5z" />
    <glyph glyph-name="endash" unicode="&#x2013;" horiz-adv-x="540" 
d="M28 369h484v-158h-484v158z" />
    <glyph glyph-name="emdash" unicode="&#x2014;" horiz-adv-x="1000" 
d="M28 369h944v-158h-944v158z" />
    <glyph glyph-name="quoteleft" unicode="&#x2018;" horiz-adv-x="318" 
d="M32 352l130 368h140l-68 -368h-202z" />
    <glyph glyph-name="quoteright" unicode="&#x2019;" horiz-adv-x="318" 
d="M286 720l-130 -368h-140l68 368h202z" />
    <glyph glyph-name="quotesinglbase" unicode="&#x201a;" horiz-adv-x="318" 
d="M286 202l-130 -368h-140l68 368h202z" />
    <glyph glyph-name="quotedblleft" unicode="&#x201c;" horiz-adv-x="554" 
d="M268 352l130 368h140l-68 -368h-202zM162 720h140l-68 -368h-202z" />
    <glyph glyph-name="quotedblright" unicode="&#x201d;" horiz-adv-x="554" 
d="M286 720l-130 -368h-140l68 368h202zM522 720l-130 -368h-140l68 368h202z" />
    <glyph glyph-name="quotedblbase" unicode="&#x201e;" horiz-adv-x="554" 
d="M286 202l-130 -368h-140l68 368h202zM522 202l-130 -368h-140l68 368h202z" />
    <glyph glyph-name="dagger" unicode="&#x2020;" horiz-adv-x="634" 
d="M215 348h-203v172h203v200h204v-200h203v-172h-203v-548h-204v548z" />
    <glyph glyph-name="daggerdbl" unicode="&#x2021;" horiz-adv-x="634" 
d="M215 0h-203v172h203v176h-203v172h203v200h204v-200h203v-172h-203v-176h203v-172h-203v-200h-204v200z" />
    <glyph glyph-name="ellipsis" unicode="&#x2026;" horiz-adv-x="848" 
d="M32 202h208v-202h-208v202zM320 202h208v-202h-208v202zM608 202h208v-202h-208v202z" />
    <glyph glyph-name="perthousand" unicode="&#x2030;" horiz-adv-x="1335" 
d="M67.5 358.5q-45.5 58.5 -45.5 157.5t45.5 157.5t138.5 58.5t138.5 -58.5t45.5 -157.5t-45.5 -157.5t-138.5 -58.5t-138.5 58.5zM164 432.5q12 -27.5 42 -27.5t42 27.5t12 83.5t-12 83.5t-42 27.5t-42 -27.5t-12 -83.5t12 -83.5zM599 720h112l-383 -720h-112zM582.5 361.5
q45.5 58.5 138.5 58.5t138.5 -58.5t45.5 -157.5t-45.5 -157.5t-138.5 -58.5t-138.5 58.5t-45.5 157.5t45.5 157.5zM679 120.5q12 -27.5 42 -27.5t42 27.5t12 83.5t-12 83.5t-42 27.5t-42 -27.5t-12 -83.5t12 -83.5zM990.5 361.5q45.5 58.5 138.5 58.5t138.5 -58.5
t45.5 -157.5t-45.5 -157.5t-138.5 -58.5t-138.5 58.5t-45.5 157.5t45.5 157.5zM1087 120.5q12 -27.5 42 -27.5t42 27.5t12 83.5t-12 83.5t-42 27.5t-42 -27.5t-12 -83.5t12 -83.5z" />
    <glyph glyph-name="Euro" unicode="&#x20ac;" horiz-adv-x="778" 
d="M205 59q-85 71 -113 190h-92v82h81q-1 10 -1 29q0 23 1 35h-81v82h94q28 116 113 185.5t219 69.5q143 0 227.5 -77.5t102.5 -202.5h-202q-16 49 -45 75.5t-83 26.5q-87 0 -117 -77h133v-82h-149q-1 -11 -1 -35q0 -20 1 -29h149v-82h-135q28 -83 119 -83q56 0 84 28.5
t44 79.5h202q-10 -82 -50 -146.5t-111 -102t-169 -37.5q-136 0 -221 71z" />
    <glyph glyph-name="uni20BF" unicode="&#x20bf;" horiz-adv-x="704" 
d="M212 0h-160v720h160v114h78v-114h81h9v114h78v-120q97 -13 147.5 -58.5t50.5 -120.5q0 -102 -92 -150q59 -27 90.5 -71.5t31.5 -98.5q0 -191 -228 -213v-116h-78v114h-90v-114h-78v114zM396 162q39 0 58.5 15t19.5 48t-19.5 48t-58.5 15h-140v-126h140zM374 440
q78 0 78 59t-78 59h-118v-118h118z" />
    <glyph glyph-name="uni2117" unicode="&#x2117;" horiz-adv-x="824" 
d="M215 35.5q-89 47.5 -140 132.5t-51 192t51 192t140 132.5t197 47.5t197 -47.5t140 -132.5t51 -192t-51 -192t-140 -132.5t-197 -47.5t-197 47.5zM190.5 228q32.5 -56 90 -86t131.5 -30t131.5 30t90 86t32.5 132t-32.5 132t-90 86t-131.5 30t-131.5 -30t-90 -86
t-32.5 -132t32.5 -132zM277 536h164q68 0 105.5 -34t37.5 -91t-37.5 -91t-105.5 -34h-52v-102h-112v352zM432 379q22 0 32 6.5t10 25.5t-10 25.5t-32 6.5h-43v-64h43z" />
    <glyph glyph-name="uni2120" unicode="&#x2120;" horiz-adv-x="667" 
d="M311 720h125l41 -166l41 166h125v-288h-78v202l-55 -202h-66l-55 202v-202h-78v288zM103 528q0 -23 14 -30.5t39 -7.5q19 0 30 6.5t11 17.5q0 10 -11.5 16.5t-47.5 11.5q-58 9 -84 32t-26 62t32 64t88 25t88.5 -25t34.5 -74h-77q-1 19 -12.5 27.5t-33.5 8.5q-17 0 -27 -6
t-10 -16t12 -17t43 -12q63 -9 89 -30.5t26 -60.5q0 -46 -36 -69.5t-93 -23.5q-61 0 -94.5 27.5t-33.5 73.5h79z" />
    <glyph glyph-name="trademark" unicode="&#x2122;" horiz-adv-x="660" 
d="M304 720h125l41 -166l41 166h125v-288h-78v202l-55 -202h-66l-55 202v-202h-78v288zM24 720h250v-73h-84v-215h-82v215h-84v73z" />
    <glyph glyph-name="arrowleft" unicode="&#x2190;" horiz-adv-x="964" 
d="M427 272l243 -272h-238l-322 360l322 360h238l-243 -272h427v-176h-427z" />
    <glyph glyph-name="arrowup" unicode="&#x2191;" horiz-adv-x="940" 
d="M382 -12v427l-272 -243v238l360 322l360 -322v-238l-272 243v-427h-176z" />
    <glyph glyph-name="arrowright" unicode="&#x2192;" horiz-adv-x="964" 
d="M110 448h427l-243 272h238l322 -360l-322 -360h-238l243 272h-427v176z" />
    <glyph glyph-name="arrowdown" unicode="&#x2193;" horiz-adv-x="940" 
d="M558 305l272 243v-238l-360 -322l-360 322v238l272 -243v427h176v-427z" />
    <glyph glyph-name="arrowboth" unicode="&#x2194;" horiz-adv-x="1200" 
d="M110 360l232 360h208l-175 -272h450l-175 272h208l232 -360l-232 -360h-208l175 272h-450l175 -272h-208z" />
    <glyph glyph-name="arrowupdn" unicode="&#x2195;" horiz-adv-x="940" 
d="M558 610v-500l272 175v-208l-360 -232l-360 232v208l272 -175v500l-272 -175v208l360 232l360 -232v-208z" />
    <glyph glyph-name="uni2196" unicode="&#x2196;" horiz-adv-x="980" 
d="M326 399v-379l-176 176v504h504l176 -176h-380l350 -350l-125 -124z" />
    <glyph glyph-name="uni2197" unicode="&#x2197;" horiz-adv-x="980" 
d="M180 174l350 350h-380l176 176h504v-504l-176 -176v379l-349 -349z" />
    <glyph glyph-name="uni2198" unicode="&#x2198;" horiz-adv-x="980" 
d="M654 321v379l176 -176v-504h-504l-176 176h380l-350 350l125 124z" />
    <glyph glyph-name="uni2199" unicode="&#x2199;" horiz-adv-x="980" 
d="M800 546l-350 -350h380l-176 -176h-504v504l176 176v-379l349 349z" />
    <glyph glyph-name="minus" unicode="&#x2212;" horiz-adv-x="540" 
d="M28 439h484v-158h-484v158z" />
    <glyph glyph-name="lessequal" unicode="&#x2264;" horiz-adv-x="540" 
d="M512 622v-156l-299 -79l299 -80v-156l-484 156v159zM28 135h484v-135h-484v135z" />
    <glyph glyph-name="greaterequal" unicode="&#x2265;" horiz-adv-x="540" 
d="M28 151v156l299 80l-299 79v156l484 -156v-159zM28 135h484v-135h-484v135z" />
    <glyph glyph-name="filledbox" unicode="&#x25a0;" horiz-adv-x="924" 
d="M924 810v-900h-924v900h924z" />
    <glyph glyph-name="uni25A1" unicode="&#x25a1;" horiz-adv-x="924" 
d="M0 810h924v-900h-924v900zM772 44v632h-620v-632h620z" />
    <glyph glyph-name="triagup" unicode="&#x25b2;" horiz-adv-x="948" 
d="M474 822l474 -924h-948z" />
    <glyph glyph-name="uni25B3" unicode="&#x25b3;" horiz-adv-x="948" 
d="M474 822l474 -924h-948zM729 32l-255 500l-255 -500h510z" />
    <glyph glyph-name="uni25B6" unicode="&#x25b6;" horiz-adv-x="948" 
d="M936 360l-924 -474v948z" />
    <glyph glyph-name="uni25B7" unicode="&#x25b7;" horiz-adv-x="948" 
d="M936 360l-924 -474v948zM646 360l-500 255v-510z" />
    <glyph glyph-name="triagdn" unicode="&#x25bc;" horiz-adv-x="948" 
d="M948 822l-474 -924l-474 924h948z" />
    <glyph glyph-name="uni25BD" unicode="&#x25bd;" horiz-adv-x="948" 
d="M948 822l-474 -924l-474 924h948zM474 188l255 500h-510z" />
    <glyph glyph-name="uni25C0" unicode="&#x25c0;" horiz-adv-x="948" 
d="M12 360l924 474v-948z" />
    <glyph glyph-name="uni25C1" unicode="&#x25c1;" horiz-adv-x="948" 
d="M12 360l924 474v-948zM802 105v510l-500 -255z" />
    <glyph glyph-name="circle" unicode="&#x25cb;" horiz-adv-x="948" 
d="M236 -40q-109 62 -172.5 168.5t-63.5 231.5t63.5 231.5t172.5 168.5t238 62t238 -62t172.5 -168.5t63.5 -231.5t-63.5 -231.5t-172.5 -168.5t-238 -62t-238 62zM193.5 199q43.5 -74 118 -117.5t162.5 -43.5t162.5 43.5t118 117.5t43.5 161t-43.5 161t-118 117.5
t-162.5 43.5t-162.5 -43.5t-118 -117.5t-43.5 -161t43.5 -161z" />
    <glyph glyph-name="uni25CF" unicode="&#x25cf;" horiz-adv-x="948" 
d="M236 -40q-109 62 -172.5 168.5t-63.5 231.5t63.5 231.5t172.5 168.5t238 62t238 -62t172.5 -168.5t63.5 -231.5t-63.5 -231.5t-172.5 -168.5t-238 -62t-238 62z" />
    <glyph glyph-name="uni004A0301" horiz-adv-x="598" 
d="M90 55q-68 67 -68 184v40h194v-40q0 -40 15.5 -59.5t52.5 -19.5t52.5 19.5t15.5 59.5v481h204v-481q0 -116 -72.5 -183.5t-199.5 -67.5q-126 0 -194 67zM480 914h196l-149 -146h-146z" />
    <glyph glyph-name="G.ss06" horiz-adv-x="784" 
d="M195.5 37q-85.5 49 -129.5 134t-44 189t44 189t129.5 134t202.5 49q141 0 231.5 -70.5t120.5 -187.5h-206q-19 37 -56.5 58.5t-89.5 21.5q-85 0 -124.5 -54.5t-39.5 -139.5t39.5 -139.5t124.5 -54.5q108 0 146 92h-176v156h391q3 -27 3 -54q0 -105 -41.5 -189.5
t-123.5 -133.5t-199 -49t-202.5 49z" />
    <glyph glyph-name="uni01F4.ss06" horiz-adv-x="784" 
d="M195.5 37q-85.5 49 -129.5 134t-44 189t44 189t129.5 134t202.5 49q141 0 231.5 -70.5t120.5 -187.5h-206q-19 37 -56.5 58.5t-89.5 21.5q-85 0 -124.5 -54.5t-39.5 -139.5t39.5 -139.5t124.5 -54.5q108 0 146 92h-176v156h391q3 -27 3 -54q0 -105 -41.5 -189.5
t-123.5 -133.5t-199 -49t-202.5 49zM424 926h196l-149 -146h-146z" />
    <glyph glyph-name="Gbreve.ss06" horiz-adv-x="784" 
d="M195.5 37q-85.5 49 -129.5 134t-44 189t44 189t129.5 134t202.5 49q141 0 231.5 -70.5t120.5 -187.5h-206q-19 37 -56.5 58.5t-89.5 21.5q-85 0 -124.5 -54.5t-39.5 -139.5t39.5 -139.5t124.5 -54.5q108 0 146 92h-176v156h391q3 -27 3 -54q0 -105 -41.5 -189.5
t-123.5 -133.5t-199 -49t-202.5 49zM270 813.5q-51 39.5 -64 112.5h134q6 -47 58 -47t58 47h134q-13 -73 -64 -112.5t-128 -39.5t-128 39.5z" />
    <glyph glyph-name="Gcaron.ss06" horiz-adv-x="784" 
d="M195.5 37q-85.5 49 -129.5 134t-44 189t44 189t129.5 134t202.5 49q141 0 231.5 -70.5t120.5 -187.5h-206q-19 37 -56.5 58.5t-89.5 21.5q-85 0 -124.5 -54.5t-39.5 -139.5t39.5 -139.5t124.5 -54.5q108 0 146 92h-176v156h391q3 -27 3 -54q0 -105 -41.5 -189.5
t-123.5 -133.5t-199 -49t-202.5 49zM172 926h162l64 -62l64 62h162l-129 -146h-194z" />
    <glyph glyph-name="Gcircumflex.ss06" horiz-adv-x="784" 
d="M195.5 37q-85.5 49 -129.5 134t-44 189t44 189t129.5 134t202.5 49q141 0 231.5 -70.5t120.5 -187.5h-206q-19 37 -56.5 58.5t-89.5 21.5q-85 0 -124.5 -54.5t-39.5 -139.5t39.5 -139.5t124.5 -54.5q108 0 146 92h-176v156h391q3 -27 3 -54q0 -105 -41.5 -189.5
t-123.5 -133.5t-199 -49t-202.5 49zM624 780h-162l-64 62l-64 -62h-162l129 146h194z" />
    <glyph glyph-name="Gdotaccent.ss06" horiz-adv-x="784" 
d="M195.5 37q-85.5 49 -129.5 134t-44 189t44 189t129.5 134t202.5 49q141 0 231.5 -70.5t120.5 -187.5h-206q-19 37 -56.5 58.5t-89.5 21.5q-85 0 -124.5 -54.5t-39.5 -139.5t39.5 -139.5t124.5 -54.5q108 0 146 92h-176v156h391q3 -27 3 -54q0 -105 -41.5 -189.5
t-123.5 -133.5t-199 -49t-202.5 49zM304 920h188v-140h-188v140z" />
    <glyph glyph-name="J.ss07" horiz-adv-x="453" 
d="M22 156h99q45 0 65.5 19t20.5 64v481h204v-501q0 -118 -59.5 -168.5t-155.5 -50.5h-174v156z" />
    <glyph glyph-name="uni004A0301.ss07" horiz-adv-x="453" 
d="M22 156h99q45 0 65.5 19t20.5 64v481h204v-501q0 -118 -59.5 -168.5t-155.5 -50.5h-174v156zM335 914h196l-149 -146h-146z" />
    <glyph glyph-name="Jcircumflex.ss07" horiz-adv-x="453" 
d="M22 156h99q45 0 65.5 19t20.5 64v481h204v-501q0 -118 -59.5 -168.5t-155.5 -50.5h-174v156zM535 768h-162l-64 62l-64 -62h-162l129 146h194z" />
    <glyph glyph-name="R.ss08" horiz-adv-x="703" 
d="M52 720h336q90 0 154 -31t97.5 -85t33.5 -124q0 -69 -36.5 -121.5t-101.5 -83.5l168 -275h-226l-132 240h-89v-240h-204v720zM372 402q49 0 73.5 17.5t24.5 60.5t-24.5 60.5t-73.5 17.5h-116v-156h116z" />
    <glyph glyph-name="Racute.ss08" horiz-adv-x="703" 
d="M52 720h336q90 0 154 -31t97.5 -85t33.5 -124q0 -69 -36.5 -121.5t-101.5 -83.5l168 -275h-226l-132 240h-89v-240h-204v720zM372 402q49 0 73.5 17.5t24.5 60.5t-24.5 60.5t-73.5 17.5h-116v-156h116zM384 914h196l-149 -146h-146z" />
    <glyph glyph-name="Rcaron.ss08" horiz-adv-x="703" 
d="M52 720h336q90 0 154 -31t97.5 -85t33.5 -124q0 -69 -36.5 -121.5t-101.5 -83.5l168 -275h-226l-132 240h-89v-240h-204v720zM372 402q49 0 73.5 17.5t24.5 60.5t-24.5 60.5t-73.5 17.5h-116v-156h116zM132 914h162l64 -62l64 62h162l-129 -146h-194z" />
    <glyph glyph-name="uni1E58.ss08" horiz-adv-x="703" 
d="M52 720h336q90 0 154 -31t97.5 -85t33.5 -124q0 -69 -36.5 -121.5t-101.5 -83.5l168 -275h-226l-132 240h-89v-240h-204v720zM372 402q49 0 73.5 17.5t24.5 60.5t-24.5 60.5t-73.5 17.5h-116v-156h116zM264 908h188v-140h-188v140z" />
    <glyph glyph-name="uni006A0301" horiz-adv-x="278" 
d="M211 -145q-25 -34 -62.5 -44.5t-89.5 -10.5h-121v132h66q26 0 35 9.5t9 31.5v547h188v-565q0 -66 -25 -100zM168 732h196l-149 -146h-146z" />
    <glyph glyph-name="a.ss01" horiz-adv-x="622" 
d="M410 0v58q-51 -70 -148 -70q-70 0 -119.5 35.5t-75 97t-25.5 139.5t25.5 139.5t75 97t119.5 35.5q93 0 143 -63v51h188v-520h-183zM252 167.5q21 -31.5 67 -31.5t67 31.5t21 92.5t-21 92.5t-67 31.5t-67 -31.5t-21 -92.5t21 -92.5z" />
    <glyph glyph-name="aacute.ss01" horiz-adv-x="622" 
d="M410 0v58q-51 -70 -148 -70q-70 0 -119.5 35.5t-75 97t-25.5 139.5t25.5 139.5t75 97t119.5 35.5q93 0 143 -63v51h188v-520h-183zM252 167.5q21 -31.5 67 -31.5t67 31.5t21 92.5t-21 92.5t-67 31.5t-67 -31.5t-21 -92.5t21 -92.5zM344 732h196l-149 -146h-146z" />
    <glyph glyph-name="abreve.ss01" horiz-adv-x="622" 
d="M410 0v58q-51 -70 -148 -70q-70 0 -119.5 35.5t-75 97t-25.5 139.5t25.5 139.5t75 97t119.5 35.5q93 0 143 -63v51h188v-520h-183zM252 167.5q21 -31.5 67 -31.5t67 31.5t21 92.5t-21 92.5t-67 31.5t-67 -31.5t-21 -92.5t21 -92.5zM190 619.5q-51 39.5 -64 112.5h134
q6 -47 58 -47t58 47h134q-13 -73 -64 -112.5t-128 -39.5t-128 39.5z" />
    <glyph glyph-name="uni01CE.ss01" horiz-adv-x="622" 
d="M410 0v58q-51 -70 -148 -70q-70 0 -119.5 35.5t-75 97t-25.5 139.5t25.5 139.5t75 97t119.5 35.5q93 0 143 -63v51h188v-520h-183zM252 167.5q21 -31.5 67 -31.5t67 31.5t21 92.5t-21 92.5t-67 31.5t-67 -31.5t-21 -92.5t21 -92.5zM92 732h162l64 -62l64 62h162
l-129 -146h-194z" />
    <glyph glyph-name="acircumflex.ss01" horiz-adv-x="622" 
d="M410 0v58q-51 -70 -148 -70q-70 0 -119.5 35.5t-75 97t-25.5 139.5t25.5 139.5t75 97t119.5 35.5q93 0 143 -63v51h188v-520h-183zM252 167.5q21 -31.5 67 -31.5t67 31.5t21 92.5t-21 92.5t-67 31.5t-67 -31.5t-21 -92.5t21 -92.5zM544 586h-162l-64 62l-64 -62h-162
l129 146h194z" />
    <glyph glyph-name="adieresis.ss01" horiz-adv-x="622" 
d="M410 0v58q-51 -70 -148 -70q-70 0 -119.5 35.5t-75 97t-25.5 139.5t25.5 139.5t75 97t119.5 35.5q93 0 143 -63v51h188v-520h-183zM252 167.5q21 -31.5 67 -31.5t67 31.5t21 92.5t-21 92.5t-67 31.5t-67 -31.5t-21 -92.5t21 -92.5zM105 720h188v-140h-188v140zM343 720
h188v-140h-188v140z" />
    <glyph glyph-name="uni0227.ss01" horiz-adv-x="622" 
d="M410 0v58q-51 -70 -148 -70q-70 0 -119.5 35.5t-75 97t-25.5 139.5t25.5 139.5t75 97t119.5 35.5q93 0 143 -63v51h188v-520h-183zM252 167.5q21 -31.5 67 -31.5t67 31.5t21 92.5t-21 92.5t-67 31.5t-67 -31.5t-21 -92.5t21 -92.5zM224 720h188v-140h-188v140z" />
    <glyph glyph-name="agrave.ss01" horiz-adv-x="622" 
d="M410 0v58q-51 -70 -148 -70q-70 0 -119.5 35.5t-75 97t-25.5 139.5t25.5 139.5t75 97t119.5 35.5q93 0 143 -63v51h188v-520h-183zM252 167.5q21 -31.5 67 -31.5t67 31.5t21 92.5t-21 92.5t-67 31.5t-67 -31.5t-21 -92.5t21 -92.5zM245 586l-149 146h196l99 -146h-146z
" />
    <glyph glyph-name="aogonek.ss01" horiz-adv-x="622" 
d="M521 -43.5q-20 -19.5 -20 -39.5q0 -17 13.5 -25t36.5 -8q21 0 42 6v-92q-33 -10 -80 -10q-66 0 -106 23.5t-40 74.5q0 30 24 62t70 52h-51v58q-51 -70 -148 -70q-70 0 -119.5 35.5t-75 97t-25.5 139.5t25.5 139.5t75 97t119.5 35.5q93 0 143 -63v51h188v-520
q-52 -24 -72 -43.5zM252 167.5q21 -31.5 67 -31.5t67 31.5t21 92.5t-21 92.5t-67 31.5t-67 -31.5t-21 -92.5t21 -92.5z" />
    <glyph glyph-name="aring.ss01" horiz-adv-x="622" 
d="M410 0v58q-51 -70 -148 -70q-70 0 -119.5 35.5t-75 97t-25.5 139.5t25.5 139.5t75 97t119.5 35.5q93 0 143 -63v51h188v-520h-183zM252 167.5q21 -31.5 67 -31.5t67 31.5t21 92.5t-21 92.5t-67 31.5t-67 -31.5t-21 -92.5t21 -92.5zM234 600q-38 20 -60 55.5t-22 80.5
t22 80.5t60 55.5t84 20t84 -20t60 -55.5t22 -80.5t-22 -80.5t-60 -55.5t-84 -20t-84 20zM278.5 697q15.5 -15 39.5 -15t39.5 15t15.5 39t-15.5 39t-39.5 15t-39.5 -15t-15.5 -39t15.5 -39z" />
    <glyph glyph-name="atilde.ss01" horiz-adv-x="622" 
d="M410 0v58q-51 -70 -148 -70q-70 0 -119.5 35.5t-75 97t-25.5 139.5t25.5 139.5t75 97t119.5 35.5q93 0 143 -63v51h188v-520h-183zM252 167.5q21 -31.5 67 -31.5t67 31.5t21 92.5t-21 92.5t-67 31.5t-67 -31.5t-21 -92.5t21 -92.5zM153.5 695.5q34.5 36.5 87.5 36.5
q27 0 50.5 -8.5t26.5 -9.5q13 -5 30 -10.5t29 -5.5q15 0 22.5 8t7.5 26h110q0 -77 -34.5 -113.5t-87.5 -36.5q-27 0 -50.5 8.5t-26.5 9.5q-13 5 -30 10.5t-29 5.5q-15 0 -22.5 -8t-7.5 -26h-110q0 77 34.5 113.5z" />
    <glyph glyph-name="l.ss02" horiz-adv-x="272" 
d="M42 720h188v-720h-188v720z" />
    <glyph glyph-name="lacute.ss02" horiz-adv-x="272" 
d="M42 720h188v-720h-188v720zM162 932h196l-149 -146h-146z" />
    <glyph glyph-name="lcaron.ss02" horiz-adv-x="272" 
d="M42 720h188v-720h-188v720zM288 720h180l-77 -170h-121z" />
    <glyph glyph-name="lslash.ss02" horiz-adv-x="272" 
d="M42 268l-76 -32v110l76 32v342h188v-262l76 32v-110l-76 -32v-348h-188v268z" />
    <glyph glyph-name="t.ss03" horiz-adv-x="406" 
d="M96 388h-84v132h84v160h188v-160h100v-132h-100v-388h-188v388z" />
    <glyph glyph-name="tcaron.ss03" horiz-adv-x="406" 
d="M96 388h-84v132h84v160h188v-160h100v-132h-100v-388h-188v388zM334 720h180l-77 -170h-121z" />
    <glyph glyph-name="uni0163.ss03" horiz-adv-x="406" 
d="M96 388h-84v132h84v160h188v-160h100v-132h-100v-388h-56l-42 -44h11q58 0 91.5 -21t33.5 -59q0 -43 -42 -71.5t-127 -28.5q-42 0 -75 8v62q33 -6 57 -6q65 0 65 36q0 35 -57 35q-20 0 -30 -2v40l39 51h-56v388z" />
    <glyph glyph-name="uni1E6B.ss03" horiz-adv-x="406" 
d="M96 388h-84v132h84v160h188v-160h100v-132h-100v-388h-188v388zM96 880h188v-140h-188v140z" />
    <glyph glyph-name="u.ss04" 
d="M42 230v290h186v-286q0 -50 17 -75t62 -25t62 25t17 75v286h186v-290q0 -242 -265 -242t-265 242z" />
    <glyph glyph-name="uacute.ss04" 
d="M42 230v290h186v-286q0 -50 17 -75t62 -25t62 25t17 75v286h186v-290q0 -242 -265 -242t-265 242zM333 732h196l-149 -146h-146z" />
    <glyph glyph-name="ubreve.ss04" 
d="M42 230v290h186v-286q0 -50 17 -75t62 -25t62 25t17 75v286h186v-290q0 -242 -265 -242t-265 242zM179 619.5q-51 39.5 -64 112.5h134q6 -47 58 -47t58 47h134q-13 -73 -64 -112.5t-128 -39.5t-128 39.5z" />
    <glyph glyph-name="uni01D4.ss04" 
d="M42 230v290h186v-286q0 -50 17 -75t62 -25t62 25t17 75v286h186v-290q0 -242 -265 -242t-265 242zM81 732h162l64 -62l64 62h162l-129 -146h-194z" />
    <glyph glyph-name="ucircumflex.ss04" 
d="M42 230v290h186v-286q0 -50 17 -75t62 -25t62 25t17 75v286h186v-290q0 -242 -265 -242t-265 242zM533 586h-162l-64 62l-64 -62h-162l129 146h194z" />
    <glyph glyph-name="udieresis.ss04" 
d="M42 230v290h186v-286q0 -50 17 -75t62 -25t62 25t17 75v286h186v-290q0 -242 -265 -242t-265 242zM94 720h188v-140h-188v140zM332 720h188v-140h-188v140z" />
    <glyph glyph-name="ugrave.ss04" 
d="M42 230v290h186v-286q0 -50 17 -75t62 -25t62 25t17 75v286h186v-290q0 -242 -265 -242t-265 242zM234 586l-149 146h196l99 -146h-146z" />
    <glyph glyph-name="uogonek.ss04" 
d="M225 -188.5q-40 23.5 -40 74.5q0 27 19 55t55 49q-217 21 -217 240v290h186v-286q0 -50 17 -75t62 -25t62 25t17 75v286h186v-290q0 -189 -162 -231q-51 -23 -71 -42.5t-20 -39.5q0 -17 13.5 -25t36.5 -8q21 0 42 6v-92q-33 -10 -80 -10q-66 0 -106 23.5z" />
    <glyph glyph-name="uring.ss04" 
d="M42 230v290h186v-286q0 -50 17 -75t62 -25t62 25t17 75v286h186v-290q0 -242 -265 -242t-265 242zM223 600q-38 20 -60 55.5t-22 80.5t22 80.5t60 55.5t84 20t84 -20t60 -55.5t22 -80.5t-22 -80.5t-60 -55.5t-84 -20t-84 20zM267.5 697q15.5 -15 39.5 -15t39.5 15
t15.5 39t-15.5 39t-39.5 15t-39.5 -15t-15.5 -39t15.5 -39z" />
    <glyph glyph-name="utilde.ss04" 
d="M42 230v290h186v-286q0 -50 17 -75t62 -25t62 25t17 75v286h186v-290q0 -242 -265 -242t-265 242zM142.5 695.5q34.5 36.5 87.5 36.5q27 0 50.5 -8.5t26.5 -9.5q13 -5 30 -10.5t29 -5.5q15 0 22.5 8t7.5 26h110q0 -77 -34.5 -113.5t-87.5 -36.5q-27 0 -50.5 8.5
t-26.5 9.5q-13 5 -30 10.5t-29 5.5q-15 0 -22.5 -8t-7.5 -26h-110q0 77 34.5 113.5z" />
    <glyph glyph-name="y.ss05" horiz-adv-x="606" 
d="M208 16l-206 504h202l98 -296l100 296h202l-309 -720h-180z" />
    <glyph glyph-name="yacute.ss05" horiz-adv-x="606" 
d="M208 16l-206 504h202l98 -296l100 296h202l-309 -720h-180zM329 732h196l-149 -146h-146z" />
    <glyph glyph-name="ycircumflex.ss05" horiz-adv-x="606" 
d="M208 16l-206 504h202l98 -296l100 296h202l-309 -720h-180zM529 586h-162l-64 62l-64 -62h-162l129 146h194z" />
    <glyph glyph-name="ydieresis.ss05" horiz-adv-x="606" 
d="M208 16l-206 504h202l98 -296l100 296h202l-309 -720h-180zM90 720h188v-140h-188v140zM328 720h188v-140h-188v140z" />
    <glyph glyph-name="uni1E8F.ss05" horiz-adv-x="606" 
d="M208 16l-206 504h202l98 -296l100 296h202l-309 -720h-180zM209 720h188v-140h-188v140z" />
    <glyph glyph-name="ygrave.ss05" horiz-adv-x="606" 
d="M208 16l-206 504h202l98 -296l100 296h202l-309 -720h-180zM230 586l-149 146h196l99 -146h-146z" />
    <glyph glyph-name="uni1EF9.ss05" horiz-adv-x="606" 
d="M208 16l-206 504h202l98 -296l100 296h202l-309 -720h-180zM138.5 695.5q34.5 36.5 87.5 36.5q27 0 50.5 -8.5t26.5 -9.5q13 -5 30 -10.5t29 -5.5q15 0 22.5 8t7.5 26h110q0 -77 -34.5 -113.5t-87.5 -36.5q-27 0 -50.5 8.5t-26.5 9.5q-13 5 -30 10.5t-29 5.5
q-15 0 -22.5 -8t-7.5 -26h-110q0 77 34.5 113.5z" />
    <glyph glyph-name="three.ss09" horiz-adv-x="639" 
d="M108.5 51q-74.5 63 -76.5 182h194q2 -43 28 -66t67 -23q37 0 63.5 24t26.5 66q0 86 -120 86h-79v118l139 116h-293v166h523v-154l-149 -127q84 -24 131.5 -77t47.5 -138q0 -66 -33 -119.5t-97.5 -85t-155.5 -31.5q-142 0 -216.5 63z" />
    <glyph glyph-name="six.ss09" horiz-adv-x="618" 
d="M166.5 18.5q-63.5 30.5 -99 88.5t-35.5 138q0 96 52 162l230 313h194l-163 -219q111 -10 178 -77.5t67 -178.5q0 -80 -35.5 -138t-99 -88.5t-144.5 -30.5t-144.5 30.5zM240.5 168.5q22.5 -28.5 70.5 -28.5t70.5 28.5t22.5 76.5t-22.5 76.5t-70.5 28.5t-70.5 -28.5
t-22.5 -76.5t22.5 -76.5z" />
    <glyph glyph-name="nine.ss09" horiz-adv-x="618" 
d="M451.5 701.5q63.5 -30.5 99 -88.5t35.5 -138q0 -96 -52 -162l-230 -313h-194l163 219q-111 10 -178 77.5t-67 178.5q0 80 35.5 138t99 88.5t144.5 30.5t144.5 -30.5zM236.5 398.5q22.5 -28.5 70.5 -28.5t70.5 28.5t22.5 76.5t-22.5 76.5t-70.5 28.5t-70.5 -28.5
t-22.5 -76.5t22.5 -76.5z" />
    <glyph glyph-name="one.ss10" horiz-adv-x="388" 
d="M132 554h-110v166h314v-720h-204v554z" />
    <glyph glyph-name="four.ss10" horiz-adv-x="697" 
d="M38 318l267 402h204l-271 -422h149v142h184v-142h94v-166h-84v-132h-204v132h-339v186z" />
    <glyph glyph-name="at.ss11" horiz-adv-x="929" 
d="M234 -61q-101 55 -155.5 151.5t-54.5 217.5t54.5 217.5t155.5 151.5t235 55q135 0 233.5 -49.5t150.5 -139.5t52 -211q0 -72 -26.5 -130t-77.5 -91t-121 -33q-105 0 -139 71q-42 -71 -129 -71q-83 0 -130.5 64t-47.5 163t47.5 163t130.5 64q71 0 112 -47v35h155v-252
q0 -33 10 -46.5t38 -13.5q30 0 40 33.5t10 90.5q0 284 -308 284q-94 0 -165.5 -34t-111.5 -103.5t-40 -170.5t40.5 -172t112 -106.5t164.5 -35.5q134 0 222 47v-110q-51 -23 -102.5 -35t-119.5 -12q-134 0 -235 55zM408 230.5q16 -25.5 51 -25.5t51 25.5t16 74.5t-16 74.5
t-51 25.5t-51 -25.5t-16 -74.5t16 -74.5z" />
    <glyph glyph-name="copyright.ss13" horiz-adv-x="604" 
d="M204.5 368.5q-35.5 37.5 -35.5 96.5t35.5 96.5t99.5 37.5q59 0 92.5 -28t39.5 -77h-91q-3 16 -13.5 24t-27.5 8q-43 0 -43 -61t43 -61q36 0 41 38h91q-6 -51 -39 -81t-93 -30q-64 0 -99.5 37.5zM60.5 602.5q36.5 60.5 100.5 95t141 34.5t141 -34.5t100.5 -95t36.5 -137.5
t-36.5 -137.5t-100.5 -95t-141 -34.5t-141 34.5t-100.5 95t-36.5 137.5t36.5 137.5zM170.5 335q50.5 -48 131.5 -48t131.5 48t50.5 130t-50.5 130t-131.5 48t-131.5 -48t-50.5 -130t50.5 -130z" />
    <glyph glyph-name="registered.ss13" horiz-adv-x="604" 
d="M190 591h129q46 0 70 -22t24 -56q0 -20 -10 -36t-28 -27q17 -10 25 -23t11 -32l8 -56h-81l-7 50q-5 34 -32 34h-29v-84h-80v252zM60.5 602.5q36.5 60.5 100.5 95t141 34.5t141 -34.5t100.5 -95t36.5 -137.5t-36.5 -137.5t-100.5 -95t-141 -34.5t-141 34.5t-100.5 95
t-36.5 137.5t36.5 137.5zM170.5 335q50.5 -48 131.5 -48t131.5 48t50.5 130t-50.5 130t-131.5 48t-131.5 -48t-50.5 -130t50.5 -130zM301 480q15 0 22.5 5.5t7.5 19.5t-7 19t-23 5h-31v-49h31z" />
    <glyph glyph-name="uni2117.ss13" horiz-adv-x="604" 
d="M205 591h117q49 0 76.5 -24.5t27.5 -65.5q0 -40 -27.5 -64.5t-76.5 -24.5h-37v-73h-80v252zM60.5 602.5q36.5 60.5 100.5 95t141 34.5t141 -34.5t100.5 -95t36.5 -137.5t-36.5 -137.5t-100.5 -95t-141 -34.5t-141 34.5t-100.5 95t-36.5 137.5t36.5 137.5zM170.5 335
q50.5 -48 131.5 -48t131.5 48t50.5 130t-50.5 130t-131.5 48t-131.5 -48t-50.5 -130t50.5 -130zM316 479q15 0 22.5 4.5t7.5 17.5q0 14 -7.5 19t-22.5 5h-31v-46h31z" />
    <glyph glyph-name="trademark.ss14" horiz-adv-x="824" 
d="M384 468h106l23 -102l22 102h106v-216h-66v142l-35 -142h-55l-35 142v-142h-66v216zM75 552q51 85 140 132.5t197 47.5t197 -47.5t140 -132.5t51 -192t-51 -192t-140 -132.5t-197 -47.5t-197 47.5t-140 132.5t-51 192t51 192zM171.5 217q35.5 -61 98 -94t142.5 -33
t142.5 33t98 94t35.5 143t-35.5 143t-98 94t-142.5 33t-142.5 -33t-98 -94t-35.5 -143t35.5 -143zM176 468h192v-61h-62v-155h-68v155h-62v61z" />
    <glyph glyph-name="uni2120.ss14" horiz-adv-x="824" 
d="M384 468h106l23 -102l22 102h106v-216h-66v142l-35 -142h-55l-35 142v-142h-66v216zM75 552q51 85 140 132.5t197 47.5t197 -47.5t140 -132.5t51 -192t-51 -192t-140 -132.5t-197 -47.5t-197 47.5t-140 132.5t-51 192t51 192zM171.5 217q35.5 -61 98 -94t142.5 -33
t142.5 33t98 94t35.5 143t-35.5 143t-98 94t-142.5 33t-142.5 -33t-98 -94t-35.5 -143t35.5 -143zM235 324q0 -16 9.5 -20.5t27.5 -4.5q11 0 18.5 4t7.5 11q0 5 -8 9.5t-33 7.5q-45 7 -65 25t-20 48t24.5 49.5t69.5 19.5q43 0 68 -18.5t27 -57.5h-65q-1 13 -8 18.5t-22 5.5
q-24 0 -24 -14q0 -13 38 -18q48 -7 68 -23t20 -47q0 -36 -27.5 -54t-72.5 -18q-48 0 -73.5 21.5t-25.5 55.5h66z" />
    <glyph glyph-name="cent.ss12" horiz-adv-x="577" 
d="M259 -10q-113 11 -175 85t-62 185t62 185t175 85v104h78v-104q101 -9 158.5 -65.5t69.5 -145.5h-185q-7 31 -28.5 48t-54.5 17q-46 0 -66.5 -31.5t-20.5 -92.5t20.5 -92.5t66.5 -31.5q72 0 83 77h185q-12 -95 -68.5 -154t-159.5 -69v-104h-78v104z" />
    <glyph glyph-name="dollar.ss12" horiz-adv-x="677" 
d="M265 -7q-120 15 -184 81.5t-63 166.5h196q1 -58 36 -77.5t98 -19.5q46 0 73.5 16.5t27.5 44.5q0 17 -10.5 28.5t-42.5 22.5t-94 20q-145 21 -209.5 78.5t-64.5 156.5q0 85 62 144t175 73v106h146v-108q103 -17 161 -77.5t63 -164.5h-192q-2 48 -31 70t-84 22
q-42 0 -67 -15t-25 -41t29 -43.5t107 -28.5q107 -15 170 -44t90 -74t27 -110q0 -99 -67 -156.5t-181 -71.5v-106h-146v107z" />
    <glyph glyph-name="Euro.ss12" horiz-adv-x="632" 
d="M243.5 58.5q-88.5 70.5 -116.5 189.5h-109v82h97q-1 10 -1 30q0 21 1 32h-97v82h109q29 118 117.5 188t229.5 70q77 0 140 -18v-168q-50 12 -110 12q-122 0 -164 -84h274v-82h-295q-1 -10 -1 -32q0 -20 1 -30h295v-82h-275q40 -86 165 -86q60 0 110 12v-168
q-63 -18 -140 -18q-142 0 -230.5 70.5z" />
    <glyph glyph-name="sterling.ss12" horiz-adv-x="618" 
d="M12 166h153q-9 61 -39 128h-104v82h64q-22 44 -33 75.5t-11 63.5q0 66 35.5 115t97.5 75.5t140 26.5q141 0 210.5 -66.5t68.5 -189.5h-194q1 44 -21 67t-64 23q-34 0 -54.5 -17.5t-20.5 -48.5q0 -25 10 -51t33 -73h201v-82h-164q25 -61 33 -128h247v-166h-588v166z" />
    <glyph glyph-name="uni030C.alt" horiz-adv-x="0" 
d="M18 720h180l-77 -170h-121z" />
    <glyph glyph-name="uni0308.case" horiz-adv-x="0" 
d="M0 720h188v-140h-188v140zM238 720h188v-140h-188v140z" />
    <glyph glyph-name="uni0307.case" horiz-adv-x="0" 
d="M0 720h188v-140h-188v140z" />
    <glyph glyph-name="gravecomb.case" horiz-adv-x="0" 
d="M149 586l-149 146h196l99 -146h-146z" />
    <glyph glyph-name="acutecomb.case" horiz-adv-x="0" 
d="M99 732h196l-149 -146h-146z" />
    <glyph glyph-name="uni0302.case" horiz-adv-x="0" 
d="M452 586h-162l-64 62l-64 -62h-162l129 146h194z" />
    <glyph glyph-name="uni030C.case" horiz-adv-x="0" 
d="M0 732h162l64 -62l64 62h162l-129 -146h-194z" />
    <glyph glyph-name="uni0306.case" horiz-adv-x="0" 
d="M64 619.5q-51 39.5 -64 112.5h134q6 -47 58 -47t58 47h134q-13 -73 -64 -112.5t-128 -39.5t-128 39.5z" />
    <glyph glyph-name="uni030A.case" horiz-adv-x="0" 
d="M82 600q-38 20 -60 55.5t-22 80.5t22 80.5t60 55.5t84 20t84 -20t60 -55.5t22 -80.5t-22 -80.5t-60 -55.5t-84 -20t-84 20zM126.5 697q15.5 -15 39.5 -15t39.5 15t15.5 39t-15.5 39t-39.5 15t-39.5 -15t-15.5 -39t15.5 -39z" />
    <glyph glyph-name="tildecomb.case" horiz-adv-x="0" 
d="M34.5 695.5q34.5 36.5 87.5 36.5q27 0 50.5 -8.5t26.5 -9.5q13 -5 30 -10.5t29 -5.5q15 0 22.5 8t7.5 26h110q0 -77 -34.5 -113.5t-87.5 -36.5q-27 0 -50.5 8.5t-26.5 9.5q-13 5 -30 10.5t-29 5.5q-15 0 -22.5 -8t-7.5 -26h-110q0 77 34.5 113.5z" />
    <glyph glyph-name="dieresis.case" horiz-adv-x="426" 
d="M0 720h188v-140h-188v140zM238 720h188v-140h-188v140z" />
    <glyph glyph-name="dotaccent.case" horiz-adv-x="188" 
d="M0 720h188v-140h-188v140z" />
    <glyph glyph-name="grave.case" horiz-adv-x="295" 
d="M149 586l-149 146h196l99 -146h-146z" />
    <glyph glyph-name="acute.case" horiz-adv-x="295" 
d="M99 732h196l-149 -146h-146z" />
    <glyph glyph-name="circumflex.case" horiz-adv-x="452" 
d="M452 586h-162l-64 62l-64 -62h-162l129 146h194z" />
    <glyph glyph-name="caron.case" horiz-adv-x="452" 
d="M0 732h162l64 -62l64 62h162l-129 -146h-194z" />
    <glyph glyph-name="breve.case" horiz-adv-x="384" 
d="M64 619.5q-51 39.5 -64 112.5h134q6 -47 58 -47t58 47h134q-13 -73 -64 -112.5t-128 -39.5t-128 39.5z" />
    <glyph glyph-name="ring.case" horiz-adv-x="332" 
d="M82 600q-38 20 -60 55.5t-22 80.5t22 80.5t60 55.5t84 20t84 -20t60 -55.5t22 -80.5t-22 -80.5t-60 -55.5t-84 -20t-84 20zM126.5 697q15.5 -15 39.5 -15t39.5 15t15.5 39t-15.5 39t-39.5 15t-39.5 -15t-15.5 -39t15.5 -39z" />
    <glyph glyph-name="tilde.case" horiz-adv-x="398" 
d="M34.5 695.5q34.5 36.5 87.5 36.5q27 0 50.5 -8.5t26.5 -9.5q13 -5 30 -10.5t29 -5.5q15 0 22.5 8t7.5 26h110q0 -77 -34.5 -113.5t-87.5 -36.5q-27 0 -50.5 8.5t-26.5 9.5q-13 5 -30 10.5t-29 5.5q-15 0 -22.5 -8t-7.5 -26h-110q0 77 34.5 113.5z" />
  </font>
</defs>
</svg>
